  0
SECTION
  2
HEADER
  9
$ACADVER
  1
AC1015
  9
$ACADMAINTVER
 70
     6
  9
$DWGCODEPAGE
  3
ANSI_932
  9
$INSBASE
 10
0.0
 20
0.0
 30
0.0
  9
$EXTMIN
 10
0.0
 20
0.0
 30
0.0
  9
$EXTMAX
 10
362.0
 20
546.0
 30
0.0
  9
$LIMMIN
 10
0.0
 20
0.0
  9
$LIMMAX
 10
210.0
 20
297.0
  9
$ORTHOMODE
 70
     0
  9
$REGENMODE
 70
     1
  9
$FILLMODE
 70
     1
  9
$QTEXTMODE
 70
     0
  9
$MIRRTEXT
 70
     1
  9
$LTSCALE
 40
0.5
  9
$ATTMODE
 70
     1
  9
$TEXTSIZE
 40
10.0
  9
$TRACEWID
 40
0.05
  9
$TEXTSTYLE
  7
Standard
  9
$CLAYER
  8
0
  9
$CELTYPE
  6
ByLayer
  9
$CECOLOR
 62
   256
  9
$CELTSCALE
 40
1.0
  9
$DISPSILH
 70
     0
  9
$DIMSCALE
 40
1.0
  9
$DIMASZ
 40
2.3
  9
$DIMEXO
 40
1.0
  9
$DIMDLI
 40
30.0
  9
$DIMRND
 40
0.0
  9
$DIMDLE
 40
0.0
  9
$DIMEXE
 40
1.0
  9
$DIMTP
 40
0.0
  9
$DIMTM
 40
0.0
  9
$DIMTXT
 40
3.3
  9
$DIMCEN
 40
0.09
  9
$DIMTSZ
 40
0.0
  9
$DIMTOL
 70
     0
  9
$DIMLIM
 70
     0
  9
$DIMTIH
 70
     0
  9
$DIMTOH
 70
     0
  9
$DIMSE1
 70
     0
  9
$DIMSE2
 70
     0
  9
$DIMTAD
 70
     3
  9
$DIMZIN
 70
     8
  9
$DIMBLK
  1

  9
$DIMASO
 70
     1
  9
$DIMSHO
 70
     1
  9
$DIMPOST
  1

  9
$DIMAPOST
  1

  9
$DIMALT
 70
     0
  9
$DIMALTD
 70
     2
  9
$DIMALTF
 40
25.4
  9
$DIMLFAC
 40
1.0
  9
$DIMTOFL
 70
     1
  9
$DIMTVP
 40
0.7
  9
$DIMTIX
 70
     0
  9
$DIMSOXD
 70
     0
  9
$DIMSAH
 70
     0
  9
$DIMBLK1
  1

  9
$DIMBLK2
  1

  9
$DIMSTYLE
  2
Standard
  9
$DIMCLRD
 70
     0
  9
$DIMCLRE
 70
     0
  9
$DIMCLRT
 70
     0
  9
$DIMTFAC
 40
0.5
  9
$DIMGAP
 40
0.09
  9
$DIMJUST
 70
     0
  9
$DIMSD1
 70
     0
  9
$DIMSD2
 70
     0
  9
$DIMTOLJ
 70
     1
  9
$DIMTZIN
 70
     8
  9
$DIMALTZ
 70
     0
  9
$DIMALTTZ
 70
     0
  9
$DIMUPT
 70
     1
  9
$DIMDEC
 70
     2
  9
$DIMTDEC
 70
     4
  9
$DIMALTU
 70
     2
  9
$DIMALTTD
 70
     2
  9
$DIMTXSTY
  7
Standard
  9
$DIMAUNIT
 70
     0
  9
$DIMADEC
 70
     0
  9
$DIMALTRND
 40
0.0
  9
$DIMAZIN
 70
     0
  9
$DIMDSEP
 70
    46
  9
$DIMATFIT
 70
     2
  9
$DIMFRAC
 70
     0
  9
$DIMLDRBLK
  1

  9
$DIMLUNIT
 70
     2
  9
$DIMLWD
 70
    -2
  9
$DIMLWE
 70
    -2
  9
$DIMTMOVE
 70
     2
  9
$LUNITS
 70
     2
  9
$LUPREC
 70
     4
  9
$SKETCHINC
 40
0.1
  9
$FILLETRAD
 40
0.5
  9
$AUNITS
 70
     0
  9
$AUPREC
 70
     0
  9
$MENU
  1
.
  9
$ELEVATION
 40
0.0
  9
$PELEVATION
 40
0.0
  9
$THICKNESS
 40
0.0
  9
$LIMCHECK
 70
     0
  9
$CHAMFERA
 40
0.0
  9
$CHAMFERB
 40
0.0
  9
$CHAMFERC
 40
0.0
  9
$CHAMFERD
 40
0.0
  9
$SKPOLY
 70
     0
  9
$TDCREATE
 40
2459311.937314815
  9
$TDUCREATE
 40
2459311.562314815
  9
$TDUPDATE
 40
2459311.562317384
  9
$TDUUPDATE
 40
2459311.187317384
  9
$TDINDWG
 40
0.0000000116
  9
$TDUSRTIMER
 40
0.0000000116
  9
$USRTIMER
 70
     1
  9
$ANGBASE
 50
0.0
  9
$ANGDIR
 70
     0
  9
$PDMODE
 70
     0
  9
$PDSIZE
 40
0.0
  9
$PLINEWID
 40
0.0
  9
$SPLFRAME
 70
     0
  9
$SPLINETYPE
 70
     6
  9
$SPLINESEGS
 70
     8
  9
$HANDSEED
  5
4FA
  9
$SURFTAB1
 70
     6
  9
$SURFTAB2
 70
     6
  9
$SURFTYPE
 70
     6
  9
$SURFU
 70
     6
  9
$SURFV
 70
     6
  9
$UCSBASE
  2

  9
$UCSNAME
  2

  9
$UCSORG
 10
0.0
 20
0.0
 30
0.0
  9
$UCSXDIR
 10
1.0
 20
0.0
 30
0.0
  9
$UCSYDIR
 10
0.0
 20
1.0
 30
0.0
  9
$UCSORTHOREF
  2

  9
$UCSORTHOVIEW
 70
     0
  9
$UCSORGTOP
 10
0.0
 20
0.0
 30
0.0
  9
$UCSORGBOTTOM
 10
0.0
 20
0.0
 30
0.0
  9
$UCSORGLEFT
 10
0.0
 20
0.0
 30
0.0
  9
$UCSORGRIGHT
 10
0.0
 20
0.0
 30
0.0
  9
$UCSORGFRONT
 10
0.0
 20
0.0
 30
0.0
  9
$UCSORGBACK
 10
0.0
 20
0.0
 30
0.0
  9
$PUCSBASE
  2

  9
$PUCSNAME
  2

  9
$PUCSORG
 10
0.0
 20
0.0
 30
0.0
  9
$PUCSXDIR
 10
1.0
 20
0.0
 30
0.0
  9
$PUCSYDIR
 10
0.0
 20
1.0
 30
0.0
  9
$PUCSORTHOREF
  2

  9
$PUCSORTHOVIEW
 70
     0
  9
$PUCSORGTOP
 10
0.0
 20
0.0
 30
0.0
  9
$PUCSORGBOTTOM
 10
0.0
 20
0.0
 30
0.0
  9
$PUCSORGLEFT
 10
0.0
 20
0.0
 30
0.0
  9
$PUCSORGRIGHT
 10
0.0
 20
0.0
 30
0.0
  9
$PUCSORGFRONT
 10
0.0
 20
0.0
 30
0.0
  9
$PUCSORGBACK
 10
0.0
 20
0.0
 30
0.0
  9
$USERI1
 70
     0
  9
$USERI2
 70
     0
  9
$USERI3
 70
     0
  9
$USERI4
 70
     0
  9
$USERI5
 70
     0
  9
$USERR1
 40
0.0
  9
$USERR2
 40
0.0
  9
$USERR3
 40
0.0
  9
$USERR4
 40
0.0
  9
$USERR5
 40
0.0
  9
$WORLDVIEW
 70
     1
  9
$SHADEDGE
 70
     3
  9
$SHADEDIF
 70
    70
  9
$TILEMODE
 70
     1
  9
$MAXACTVP
 70
    64
  9
$PINSBASE
 10
0.0
 20
0.0
 30
0.0
  9
$PLIMCHECK
 70
     0
  9
$PEXTMIN
 10
0.0
 20
0.0
 30
0.0
  9
$PEXTMAX
 10
210.0
 20
297.0
 30
0.0
  9
$PLIMMIN
 10
0.0
 20
0.0
  9
$PLIMMAX
 10
210.0
 20
297.0
  9
$UNITMODE
 70
     0
  9
$VISRETAIN
 70
     1
  9
$PLINEGEN
 70
     0
  9
$PSLTSCALE
 70
     1
  9
$TREEDEPTH
 70
  3020
  9
$CMLSTYLE
  2
Standard
  9
$CMLJUST
 70
     0
  9
$CMLSCALE
 40
1.0
  9
$PROXYGRAPHICS
 70
     1
  9
$MEASUREMENT
 70
     1
  9
$CELWEIGHT
370
    -1
  9
$ENDCAPS
280
     0
  9
$JOINSTYLE
280
     0
  9
$LWDISPLAY
290
     0
  9
$INSUNITS
 70
     4
  9
$HYPERLINKBASE
  1

  9
$STYLESHEET
  1

  9
$XEDIT
290
     1
  9
$CEPSNTYPE
380
     0
  9
$PSTYLEMODE
290
     1
  9
$FINGERPRINTGUID
  2
{E3141F6A-F83D-4575-9D85-9996402B0E7D}
  9
$VERSIONGUID
  2
{FAEB1C32-E019-11D5-929B-00C0DF256EC4}
  9
$EXTNAMES
290
     1
  9
$PSVPSCALE
 40
0.0
  9
$OLESTARTUP
290
     0
  0
ENDSEC
  0
SECTION
  2
CLASSES
  0
CLASS
  1
ACDBDICTIONARYWDFLT
  2
AcDbDictionaryWithDefault
  3
ObjectDBX Classes
 90
        0
280
     0
281
     0
  0
CLASS
  1
VISUALSTYLE
  2
AcDbVisualStyle
  3
ObjectDBX Classes
 90
     4095
280
     0
281
     0
  0
CLASS
  1
MATERIAL
  2
AcDbMaterial
  3
ObjectDBX Classes
 90
     1153
280
     0
281
     0
  0
CLASS
  1
SCALE
  2
AcDbScale
  3
ObjectDBX Classes
 90
     1153
280
     0
281
     0
  0
CLASS
  1
SUN
  2
AcDbSun
  3
SCENEOE
 90
     1153
280
     0
281
     0
  0
CLASS
  1
DICTIONARYVAR
  2
AcDbDictionaryVar
  3
ObjectDBX Classes
 90
        0
280
     0
281
     0
  0
CLASS
  1
ACDBPLACEHOLDER
  2
AcDbPlaceHolder
  3
ObjectDBX Classes
 90
        0
280
     0
281
     0
  0
CLASS
  1
LAYOUT
  2
AcDbLayout
  3
ObjectDBX Classes
 90
        0
280
     0
281
     0
  0
ENDSEC
  0
SECTION
  2
TABLES
  0
TABLE
  2
VPORT
  5
8
102
{ACAD_XDICTIONARY
360
4C0
102
}
330
0
100
AcDbSymbolTable
 70
     1
  0
VPORT
  5
29
330
8
100
AcDbSymbolTableRecord
100
AcDbViewportTableRecord
  2
*Active
 70
     0
 10
0.0
 20
0.0
 11
1.0
 21
1.0
 12
10.42990654205607
 22
4.5
 13
0.0
 23
0.0
 14
0.5
 24
0.5
 15
0.5
 25
0.5
 16
0.0
 26
0.0
 36
1.0
 17
0.0
 27
0.0
 37
0.0
 40
9.0
 41
1.972972972850329
 42
50.0
 43
0.0
 44
0.0
 50
0.0
 51
0.0
 71
     0
 72
   100
 73
     1
 74
     3
 75
     0
 76
     0
 77
     0
 78
     0
281
     0
 65
     1
110
0.0
120
0.0
130
0.0
111
1.0
121
0.0
131
0.0
112
0.0
122
1.0
132
0.0
 79
     0
146
0.0
  0
ENDTAB
  0
TABLE
  2
LTYPE
  5
5
330
0
100
AcDbSymbolTable
 70
     9
  0
LTYPE
  5
14
330
5
100
AcDbSymbolTableRecord
100
AcDbLinetypeTableRecord
  2
ByBlock
 70
     0
  3

 72
    65
 73
     0
 40
0.0
  0
LTYPE
  5
15
330
5
100
AcDbSymbolTableRecord
100
AcDbLinetypeTableRecord
  2
ByLayer
 70
     0
  3

 72
    65
 73
     0
 40
0.0
  0
LTYPE
  5
16
330
5
100
AcDbSymbolTableRecord
100
AcDbLinetypeTableRecord
  2
Continuous
 70
     0
  3
Solid line
 72
    65
 73
     0
 40
0.0
  0
LTYPE
  5
B9
330
5
100
AcDbSymbolTableRecord
100
AcDbLinetypeTableRecord
  2
DOT
 70
     0
  3
DOT
 72
    65
 73
     2
 40
4.0
 49
6.0
 74
     0
 49
-2.0
 74
     0
  0
LTYPE
  5
BA
330
5
100
AcDbSymbolTableRecord
100
AcDbLinetypeTableRecord
  2
HIDDEN
 70
     0
  3
HIDDEN
 72
    65
 73
     2
 40
4.2
 49
8.4
 74
     0
 49
-4.2
 74
     0
  0
LTYPE
  5
BB
330
5
100
AcDbSymbolTableRecord
100
AcDbLinetypeTableRecord
  2
DASHDOT
 70
     0
  3
DASHDOT
 72
    65
 73
     4
 40
14.5
 49
30.0
 74
     0
 49
-9.0
 74
     0
 49
2.5
 74
     0
 49
-9.0
 74
     0
  0
LTYPE
  5
BC
330
5
100
AcDbSymbolTableRecord
100
AcDbLinetypeTableRecord
  2
PHANTOM
 70
     0
  3
PHANTOM
 72
    65
 73
     6
 40
12.0
 49
30.0
 74
     0
 49
-9.0
 74
     0
 49
2.5
 74
     0
 49
-5.0
 74
     0
 49
2.5
 74
     0
 49
-9.0
 74
     0
  0
LTYPE
  5
BD
330
5
100
AcDbSymbolTableRecord
100
AcDbLinetypeTableRecord
  2
ACAD_ISO14W100
 70
     0
  3
ACAD_ISO14W100
 72
    65
 73
     8
 40
1.5
 49
12.0
 74
     0
 49
-3.0
 74
     0
 49
0.5
 74
     0
 49
-3.0
 74
     0
 49
0.5
 74
     0
 49
-3.0
 74
     0
 49
0.5
 74
     0
 49
-3.0
 74
     0
  0
LTYPE
  5
BE
330
5
100
AcDbSymbolTableRecord
100
AcDbLinetypeTableRecord
  2
ACAD_ISO06W100
 70
     0
  3
ACAD_ISO06W100
 72
    65
 73
     8
 40
13.5
 49
24.0
 74
     0
 49
-3.0
 74
     0
 49
0.5
 74
     0
 49
-3.0
 74
     0
 49
0.5
 74
     0
 49
-3.0
 74
     0
 49
0.5
 74
     0
 49
-3.0
 74
     0
  0
LTYPE
  5
BF
330
5
100
AcDbSymbolTableRecord
100
AcDbLinetypeTableRecord
  2
ACAD_ISO11W100
 70
     0
  3
ACAD_ISO11W100
 72
    65
 73
     6
 40
15.5
 49
12.0
 74
     0
 49
-3.0
 74
     0
 49
12.0
 74
     0
 49
-3.0
 74
     0
 49
0.5
 74
     0
 49
-3.0
 74
     0
  0
LTYPE
  5
C0
330
5
100
AcDbSymbolTableRecord
100
AcDbLinetypeTableRecord
  2
ACAD_ISO13W100
 70
     0
  3
ACAD_ISO13W100
 72
    65
 73
     8
 40
13.0
 49
12.0
 74
     0
 49
-3.0
 74
     0
 49
12.0
 74
     0
 49
-3.0
 74
     0
 49
0.5
 74
     0
 49
-3.0
 74
     0
 49
0.5
 74
     0
 49
-3.0
 74
     0
  0
ENDTAB
  0
TABLE
  2
LAYER
  5
2
330
0
100
AcDbSymbolTable
 70
    35
  0
LAYER
  5
10
330
2
100
AcDbSymbolTableRecord
100
AcDbLayerTableRecord
  2
0
 70
     0
 62
     7
  6
Continuous
370
    -3
390
F
  0
LAYER
  5
C1
330
2
100
AcDbSymbolTableRecord
100
AcDbLayerTableRecord
  2
1
 70
     0
 62
     6
  6
Continuous
370
    53
390
F
  0
LAYER
  5
C2
330
2
100
AcDbSymbolTableRecord
100
AcDbLayerTableRecord
  2
2
 70
     0
 62
     2
  6
HIDDEN
370
    25
390
F
  0
LAYER
  5
C3
330
2
100
AcDbSymbolTableRecord
100
AcDbLayerTableRecord
  2
3
 70
     0
 62
     1
  6
DASHDOT
370
    25
390
F
  0
LAYER
  5
C4
330
2
100
AcDbSymbolTableRecord
100
AcDbLayerTableRecord
  2
4
 70
     0
 62
     2
  6
PHANTOM
370
    25
390
F
  0
LAYER
  5
C5
330
2
100
AcDbSymbolTableRecord
100
AcDbLayerTableRecord
  2
5
 70
     0
 62
     4
  6
Continuous
370
    25
390
F
  0
LAYER
  5
C6
330
2
100
AcDbSymbolTableRecord
100
AcDbLayerTableRecord
  2
6
 70
     0
 62
     3
  6
Continuous
370
    25
390
F
  0
LAYER
  5
C7
330
2
100
AcDbSymbolTableRecord
100
AcDbLayerTableRecord
  2
7
 70
     0
 62
     3
  6
Continuous
370
    25
390
F
  0
LAYER
  5
C8
330
2
100
AcDbSymbolTableRecord
100
AcDbLayerTableRecord
  2
8
 70
     0
 62
     4
  6
Continuous
370
    25
390
F
  0
LAYER
  5
C9
330
2
100
AcDbSymbolTableRecord
100
AcDbLayerTableRecord
  2
9
 70
     0
 62
     7
  6
Continuous
370
    35
390
F
  0
LAYER
  5
CA
330
2
100
AcDbSymbolTableRecord
100
AcDbLayerTableRecord
  2
10
 70
     0
 62
     6
  6
Continuous
370
    53
390
F
  0
LAYER
  5
CB
330
2
100
AcDbSymbolTableRecord
100
AcDbLayerTableRecord
  2
11
 70
     0
 62
     2
  6
HIDDEN
370
    25
390
F
  0
LAYER
  5
CC
330
2
100
AcDbSymbolTableRecord
100
AcDbLayerTableRecord
  2
12
 70
     0
 62
     5
  6
Continuous
370
    53
390
F
  0
LAYER
  5
CD
330
2
100
AcDbSymbolTableRecord
100
AcDbLayerTableRecord
  2
13
 70
     0
 62
     7
  6
Continuous
370
     9
390
F
  0
LAYER
  5
CE
330
2
100
AcDbSymbolTableRecord
100
AcDbLayerTableRecord
  2
14
 70
     0
 62
     7
  6
Continuous
370
     9
390
F
  0
LAYER
  5
CF
330
2
100
AcDbSymbolTableRecord
100
AcDbLayerTableRecord
  2
15
 70
     0
 62
     7
  6
Continuous
370
    35
390
F
  0
LAYER
  5
D0
330
2
100
AcDbSymbolTableRecord
100
AcDbLayerTableRecord
  2
16
 70
     0
 62
     7
  6
HIDDEN
370
     9
390
F
  0
LAYER
  5
D1
330
2
100
AcDbSymbolTableRecord
100
AcDbLayerTableRecord
  2
17
 70
     0
 62
     7
  6
Continuous
370
     9
390
F
  0
LAYER
  5
D2
330
2
100
AcDbSymbolTableRecord
100
AcDbLayerTableRecord
  2
18
 70
     0
 62
     4
  6
Continuous
370
     9
390
F
  0
LAYER
  5
D3
330
2
100
AcDbSymbolTableRecord
100
AcDbLayerTableRecord
  2
19
 70
     0
 62
     7
  6
Continuous
370
     9
390
F
  0
LAYER
  5
D4
330
2
100
AcDbSymbolTableRecord
100
AcDbLayerTableRecord
  2
20
 70
     0
 62
     6
  6
PHANTOM
370
     9
390
F
  0
LAYER
  5
D5
330
2
100
AcDbSymbolTableRecord
100
AcDbLayerTableRecord
  2
21
 70
     0
 62
     1
  6
Continuous
370
     9
390
F
  0
LAYER
  5
D6
330
2
100
AcDbSymbolTableRecord
100
AcDbLayerTableRecord
  2
22
 70
     0
 62
     7
  6
Continuous
370
     9
390
F
  0
LAYER
  5
D7
330
2
100
AcDbSymbolTableRecord
100
AcDbLayerTableRecord
  2
23
 70
     0
 62
     4
  6
Continuous
370
     9
390
F
  0
LAYER
  5
D8
330
2
100
AcDbSymbolTableRecord
100
AcDbLayerTableRecord
  2
24
 70
     0
 62
     1
  6
DASHDOT
370
     9
390
F
  0
LAYER
  5
D9
330
2
100
AcDbSymbolTableRecord
100
AcDbLayerTableRecord
  2
25
 70
     0
 62
     1
  6
HIDDEN
370
     9
390
F
  0
LAYER
  5
DA
330
2
100
AcDbSymbolTableRecord
100
AcDbLayerTableRecord
  2
26
 70
     0
 62
     2
  6
Continuous
370
     9
390
F
  0
LAYER
  5
DB
330
2
100
AcDbSymbolTableRecord
100
AcDbLayerTableRecord
  2
27
 70
     0
 62
     5
  6
HIDDEN
370
     9
390
F
  0
LAYER
  5
DC
330
2
100
AcDbSymbolTableRecord
100
AcDbLayerTableRecord
  2
28
 70
     0
 62
     3
  6
Continuous
370
     9
390
F
  0
LAYER
  5
DD
330
2
100
AcDbSymbolTableRecord
100
AcDbLayerTableRecord
  2
29
 70
     0
 62
     7
  6
HIDDEN
370
    50
390
F
  0
LAYER
  5
DE
330
2
100
AcDbSymbolTableRecord
100
AcDbLayerTableRecord
  2
30
 70
     0
 62
     7
  6
DASHDOT
370
    50
390
F
  0
LAYER
  5
DF
330
2
100
AcDbSymbolTableRecord
100
AcDbLayerTableRecord
  2
31
 70
     0
 62
     7
  6
Continuous
370
     9
390
F
  0
LAYER
  5
E0
330
2
100
AcDbSymbolTableRecord
100
AcDbLayerTableRecord
  2
32
 70
     0
 62
     7
  6
Continuous
370
     9
390
F
  0
LAYER
  5
E1
330
2
100
AcDbSymbolTableRecord
100
AcDbLayerTableRecord
  2
33
 70
     0
 62
     1
  6
DASHDOT
370
     9
390
F
  0
LAYER
  5
E2
330
2
100
AcDbSymbolTableRecord
100
AcDbLayerTableRecord
  2
34
 70
     0
 62
     7
  6
Continuous
370
     9
390
F
  0
ENDTAB
  0
TABLE
  2
STYLE
  5
3
330
0
100
AcDbSymbolTable
 70
     3
  0
STYLE
  5
11
330
3
100
AcDbSymbolTableRecord
100
AcDbTextStyleTableRecord
  2
Standard
 70
     0
 40
0.0
 41
1.0
 50
0.0
 71
     0
 42
10.0
  3
txt
  4
bigfont
  0
STYLE
  5
6C
330
3
100
AcDbSymbolTableRecord
100
AcDbTextStyleTableRecord
  2
T_STANDARD
 70
     4
 40
10.0
 41
1.0
 50
0.0
 71
     0
 42
10.0
  3
txt
  4
bigfont
1001
ACAD
1000

1071
      256
  0
STYLE
  5
21A
330
3
100
AcDbSymbolTableRecord
100
AcDbTextStyleTableRecord
  2
ＭＳ Ｐゴシック
 70
     0
 40
0.0
 41
1.0
 50
0.0
 71
     0
 42
10.0
  3

  4

1001
ACAD
1000
ＭＳ Ｐゴシック
1071
      256
  0
ENDTAB
  0
TABLE
  2
VIEW
  5
6
330
0
100
AcDbSymbolTable
 70
     0
  0
ENDTAB
  0
TABLE
  2
UCS
  5
7
330
0
100
AcDbSymbolTable
 70
     0
  0
ENDTAB
  0
TABLE
  2
APPID
  5
9
330
0
100
AcDbSymbolTable
 70
     2
  0
APPID
  5
12
330
9
100
AcDbSymbolTableRecord
100
AcDbRegAppTableRecord
  2
ACAD
 70
     0
  0
APPID
  5
6B
330
9
100
AcDbSymbolTableRecord
100
AcDbRegAppTableRecord
  2
ODA
 70
     0
  0
ENDTAB
  0
TABLE
  2
DIMSTYLE
  5
A
330
0
100
AcDbSymbolTable
 70
     1
100
AcDbDimStyleTable
  0
DIMSTYLE
105
27
102
{ACAD_REACTORS
330
221
330
406
330
418
330
422
330
42C
102
}
330
A
100
AcDbSymbolTableRecord
100
AcDbDimStyleTableRecord
  2
Standard
 70
     0
178
     0
340
11
  0
ENDTAB
  0
TABLE
  2
BLOCK_RECORD
  5
1
330
0
100
AcDbSymbolTable
 70
    22
  0
BLOCK_RECORD
  5
1F
330
1
100
AcDbSymbolTableRecord
100
AcDbBlockTableRecord
  2
*Model_Space
340
22
  0
BLOCK_RECORD
  5
1B
330
1
100
AcDbSymbolTableRecord
100
AcDbBlockTableRecord
  2
*Paper_Space
340
1E
  0
BLOCK_RECORD
  5
23
330
1
100
AcDbSymbolTableRecord
100
AcDbBlockTableRecord
  2
*Paper_Space0
340
26
  0
BLOCK_RECORD
  5
6D
330
1
100
AcDbSymbolTableRecord
100
AcDbBlockTableRecord
  2
_ORIGIN
340
0
  0
BLOCK_RECORD
  5
72
330
1
100
AcDbSymbolTableRecord
100
AcDbBlockTableRecord
  2
_DOTBLANK
340
0
  0
BLOCK_RECORD
  5
77
330
1
100
AcDbSymbolTableRecord
100
AcDbBlockTableRecord
  2
_DOT
340
0
  0
BLOCK_RECORD
  5
7C
330
1
100
AcDbSymbolTableRecord
100
AcDbBlockTableRecord
  2
_OPEN
340
0
102
{BLKREFS
331
21F
331
220
331
404
331
405
331
416
331
417
331
420
331
421
331
42A
331
42B
102
}
  0
BLOCK_RECORD
  5
82
330
1
100
AcDbSymbolTableRecord
100
AcDbBlockTableRecord
  2
_CLOSED
340
0
  0
BLOCK_RECORD
  5
89
330
1
100
AcDbSymbolTableRecord
100
AcDbBlockTableRecord
  2
_CLOSEDBLANK
340
0
  0
BLOCK_RECORD
  5
8F
330
1
100
AcDbSymbolTableRecord
100
AcDbBlockTableRecord
  2
_ARROWFILLED
340
0
  0
BLOCK_RECORD
  5
93
330
1
100
AcDbSymbolTableRecord
100
AcDbBlockTableRecord
  2
_BOXBLANK
340
0
  0
BLOCK_RECORD
  5
9B
330
1
100
AcDbSymbolTableRecord
100
AcDbBlockTableRecord
  2
_BOXFILLED
340
0
  0
BLOCK_RECORD
  5
A0
330
1
100
AcDbSymbolTableRecord
100
AcDbBlockTableRecord
  2
_INTEGRAL
340
0
  0
BLOCK_RECORD
  5
A5
330
1
100
AcDbSymbolTableRecord
100
AcDbBlockTableRecord
  2
_OBLIQUE
340
0
  0
BLOCK_RECORD
  5
A9
330
1
100
AcDbSymbolTableRecord
100
AcDbBlockTableRecord
  2
_NONE
340
0
  0
BLOCK_RECORD
  5
AC
330
1
100
AcDbSymbolTableRecord
100
AcDbBlockTableRecord
  2
MARK_OPEN
340
0
  0
BLOCK_RECORD
  5
B1
330
1
100
AcDbSymbolTableRecord
100
AcDbBlockTableRecord
  2
MARK_ORIGIN
340
0
  0
BLOCK_RECORD
  5
B5
330
1
100
AcDbSymbolTableRecord
100
AcDbBlockTableRecord
  2
MARK_DOT
340
0
  0
BLOCK_RECORD
  5
153
330
1
100
AcDbSymbolTableRecord
100
AcDbBlockTableRecord
  2
*G16
340
0
102
{BLKREFS
331
15B
102
}
  0
BLOCK_RECORD
  5
21B
330
1
100
AcDbSymbolTableRecord
100
AcDbBlockTableRecord
  2
Dim1
340
0
  0
BLOCK_RECORD
  5
3FD
330
1
100
AcDbSymbolTableRecord
100
AcDbBlockTableRecord
  2
Dim2
340
0
  0
BLOCK_RECORD
  5
40F
330
1
100
AcDbSymbolTableRecord
100
AcDbBlockTableRecord
  2
Dim3
340
0
  0
BLOCK_RECORD
  5
419
330
1
100
AcDbSymbolTableRecord
100
AcDbBlockTableRecord
  2
Dim4
340
0
  0
BLOCK_RECORD
  5
423
330
1
100
AcDbSymbolTableRecord
100
AcDbBlockTableRecord
  2
Dim5
340
0
  0
ENDTAB
  0
ENDSEC
  0
SECTION
  2
BLOCKS
  0
BLOCK
  5
20
330
1F
100
AcDbEntity
  8
0
100
AcDbBlockBegin
  2
*Model_Space
 70
     0
 10
0.0
 20
0.0
 30
0.0
  3
*Model_Space
  1
*Model_Space
  0
ENDBLK
  5
21
330
1F
100
AcDbEntity
  8
0
100
AcDbBlockEnd
  0
BLOCK
  5
1C
330
1B
100
AcDbEntity
 67
     1
  8
0
100
AcDbBlockBegin
  2
*Paper_Space
 70
     0
 10
0.0
 20
0.0
 30
0.0
  3
*Paper_Space
  1
*Paper_Space
  0
ENDBLK
  5
1D
330
1B
100
AcDbEntity
 67
     1
  8
0
100
AcDbBlockEnd
  0
BLOCK
  5
24
330
23
100
AcDbEntity
  8
0
100
AcDbBlockBegin
  2
*Paper_Space0
 70
     0
 10
0.0
 20
0.0
 30
0.0
  3
*Paper_Space0
  1
*Paper_Space0
  0
ENDBLK
  5
25
330
23
100
AcDbEntity
  8
0
100
AcDbBlockEnd
  0
BLOCK
  5
70
330
6D
100
AcDbEntity
  8
0
100
AcDbBlockBegin
  2
_ORIGIN
 70
     0
 10
0.0
 20
0.0
 30
0.0
  3
_ORIGIN
  1
_ORIGIN
  0
CIRCLE
  5
6E
330
6D
100
AcDbEntity
  8
0
 62
     0
100
AcDbCircle
 10
0.0
 20
0.0
 30
0.0
 40
0.5
  0
LINE
  5
6F
330
6D
100
AcDbEntity
  8
0
 62
     0
100
AcDbLine
 10
0.0
 20
0.0
 30
0.0
 11
-1.0
 21
0.0
 31
0.0
  0
ENDBLK
  5
71
330
6D
100
AcDbEntity
  8
0
100
AcDbBlockEnd
  0
BLOCK
  5
75
330
72
100
AcDbEntity
  8
0
100
AcDbBlockBegin
  2
_DOTBLANK
 70
     0
 10
0.0
 20
0.0
 30
0.0
  3
_DOTBLANK
  1
_DOTBLANK
  0
CIRCLE
  5
73
330
72
100
AcDbEntity
  8
0
 62
     0
100
AcDbCircle
 10
0.0
 20
0.0
 30
0.0
 40
0.5
  0
LINE
  5
74
330
72
100
AcDbEntity
  8
0
 62
     0
100
AcDbLine
 10
-0.5
 20
0.0
 30
0.0
 11
-1.0
 21
0.0
 31
0.0
  0
ENDBLK
  5
76
330
72
100
AcDbEntity
  8
0
100
AcDbBlockEnd
  0
BLOCK
  5
7A
330
77
100
AcDbEntity
  8
0
100
AcDbBlockBegin
  2
_DOT
 70
     0
 10
0.0
 20
0.0
 30
0.0
  3
_DOT
  1
_DOT
  0
LWPOLYLINE
  5
78
330
77
100
AcDbEntity
  8
0
 62
     0
100
AcDbPolyline
 90
        2
 70
     1
 43
0.5
 10
-0.25
 20
0.0
 42
1.0
 10
0.25
 20
0.0
 42
1.0
  0
LINE
  5
79
330
77
100
AcDbEntity
  8
0
 62
     0
100
AcDbLine
 10
-0.5
 20
0.0
 30
0.0
 11
-1.0
 21
0.0
 31
0.0
  0
ENDBLK
  5
7B
330
77
100
AcDbEntity
  8
0
100
AcDbBlockEnd
  0
BLOCK
  5
80
330
7C
100
AcDbEntity
  8
0
100
AcDbBlockBegin
  2
_OPEN
 70
     0
 10
0.0
 20
0.0
 30
0.0
  3
_OPEN
  1
_OPEN
  0
LINE
  5
7D
330
7C
100
AcDbEntity
  8
0
 62
     0
100
AcDbLine
 10
0.0
 20
0.0
 30
0.0
 11
-1.0
 21
0.1666666666666667
 31
0.0
  0
LINE
  5
7E
330
7C
100
AcDbEntity
  8
0
 62
     0
100
AcDbLine
 10
0.0
 20
0.0
 30
0.0
 11
-1.0
 21
-0.1666666666666667
 31
0.0
  0
LINE
  5
7F
330
7C
100
AcDbEntity
  8
0
 62
     0
100
AcDbLine
 10
0.0
 20
0.0
 30
0.0
 11
-1.0
 21
0.0
 31
0.0
  0
ENDBLK
  5
81
330
7C
100
AcDbEntity
  8
0
100
AcDbBlockEnd
  0
BLOCK
  5
87
330
82
100
AcDbEntity
  8
0
100
AcDbBlockBegin
  2
_CLOSED
 70
     0
 10
0.0
 20
0.0
 30
0.0
  3
_CLOSED
  1
_CLOSED
  0
LINE
  5
83
330
82
100
AcDbEntity
  8
0
 62
     0
100
AcDbLine
 10
0.0
 20
0.0
 30
0.0
 11
-1.0
 21
0.1666666666666667
 31
0.0
  0
LINE
  5
84
330
82
100
AcDbEntity
  8
0
 62
     0
100
AcDbLine
 10
0.0
 20
0.0
 30
0.0
 11
-1.0
 21
-0.1666666666666667
 31
0.0
  0
LINE
  5
85
330
82
100
AcDbEntity
  8
0
 62
     0
100
AcDbLine
 10
-1.0
 20
0.1666666666666667
 30
0.0
 11
-1.0
 21
-0.1666666666666667
 31
0.0
  0
LINE
  5
86
330
82
100
AcDbEntity
  8
0
 62
     0
100
AcDbLine
 10
0.0
 20
0.0
 30
0.0
 11
-1.0
 21
0.0
 31
0.0
  0
ENDBLK
  5
88
330
82
100
AcDbEntity
  8
0
100
AcDbBlockEnd
  0
BLOCK
  5
8D
330
89
100
AcDbEntity
  8
0
100
AcDbBlockBegin
  2
_CLOSEDBLANK
 70
     0
 10
0.0
 20
0.0
 30
0.0
  3
_CLOSEDBLANK
  1
_CLOSEDBLANK
  0
LINE
  5
8A
330
89
100
AcDbEntity
  8
0
 62
     0
100
AcDbLine
 10
0.0
 20
0.0
 30
0.0
 11
-1.0
 21
0.1666666666666667
 31
0.0
  0
LINE
  5
8B
330
89
100
AcDbEntity
  8
0
 62
     0
100
AcDbLine
 10
0.0
 20
0.0
 30
0.0
 11
-1.0
 21
-0.1666666666666667
 31
0.0
  0
LINE
  5
8C
330
89
100
AcDbEntity
  8
0
 62
     0
100
AcDbLine
 10
-1.0
 20
0.1666666666666667
 30
0.0
 11
-1.0
 21
-0.1666666666666667
 31
0.0
  0
ENDBLK
  5
8E
330
89
100
AcDbEntity
  8
0
100
AcDbBlockEnd
  0
BLOCK
  5
91
330
8F
100
AcDbEntity
  8
0
100
AcDbBlockBegin
  2
_ARROWFILLED
 70
     0
 10
0.0
 20
0.0
 30
0.0
  3
_ARROWFILLED
  1
_ARROWFILLED
  0
SOLID
  5
90
330
8F
100
AcDbEntity
  8
0
 62
     0
100
AcDbTrace
 10
0.0
 20
0.0
 30
0.0
 11
-1.0
 21
-0.1666666666666667
 31
0.0
 12
-1.0
 22
0.1666666666666667
 32
0.0
 13
0.0
 23
0.0
 33
0.0
  0
ENDBLK
  5
92
330
8F
100
AcDbEntity
  8
0
100
AcDbBlockEnd
  0
BLOCK
  5
99
330
93
100
AcDbEntity
  8
0
100
AcDbBlockBegin
  2
_BOXBLANK
 70
     0
 10
0.0
 20
0.0
 30
0.0
  3
_BOXBLANK
  1
_BOXBLANK
  0
LINE
  5
94
330
93
100
AcDbEntity
  8
0
 62
     0
100
AcDbLine
 10
-0.5
 20
-0.5
 30
0.0
 11
0.5
 21
-0.5
 31
0.0
  0
LINE
  5
95
330
93
100
AcDbEntity
  8
0
 62
     0
100
AcDbLine
 10
0.5
 20
-0.5
 30
0.0
 11
0.5
 21
0.5
 31
0.0
  0
LINE
  5
96
330
93
100
AcDbEntity
  8
0
 62
     0
100
AcDbLine
 10
0.5
 20
0.5
 30
0.0
 11
-0.5
 21
0.5
 31
0.0
  0
LINE
  5
97
330
93
100
AcDbEntity
  8
0
 62
     0
100
AcDbLine
 10
-0.5
 20
0.5
 30
0.0
 11
-0.5
 21
-0.5
 31
0.0
  0
LINE
  5
98
330
93
100
AcDbEntity
  8
0
 62
     0
100
AcDbLine
 10
-0.5
 20
0.0
 30
0.0
 11
-1.0
 21
0.0
 31
0.0
  0
ENDBLK
  5
9A
330
93
100
AcDbEntity
  8
0
100
AcDbBlockEnd
  0
BLOCK
  5
9E
330
9B
100
AcDbEntity
  8
0
100
AcDbBlockBegin
  2
_BOXFILLED
 70
     0
 10
0.0
 20
0.0
 30
0.0
  3
_BOXFILLED
  1
_BOXFILLED
  0
SOLID
  5
9C
330
9B
100
AcDbEntity
  8
0
 62
     0
100
AcDbTrace
 10
-0.5
 20
0.5
 30
0.0
 11
0.5
 21
0.5
 31
0.0
 12
-0.5
 22
-0.5
 32
0.0
 13
0.5
 23
-0.5
 33
0.0
  0
LINE
  5
9D
330
9B
100
AcDbEntity
  8
0
 62
     0
100
AcDbLine
 10
-0.5
 20
0.0
 30
0.0
 11
-1.0
 21
0.0
 31
0.0
  0
ENDBLK
  5
9F
330
9B
100
AcDbEntity
  8
0
100
AcDbBlockEnd
  0
BLOCK
  5
A3
330
A0
100
AcDbEntity
  8
0
100
AcDbBlockBegin
  2
_INTEGRAL
 70
     0
 10
0.0
 20
0.0
 30
0.0
  3
_INTEGRAL
  1
_INTEGRAL
  0
ARC
  5
A1
330
A0
100
AcDbEntity
  8
0
 62
     0
100
AcDbCircle
 10
0.444888
 20
-0.0913346
 30
0.0
 40
0.4541666
100
AcDbArc
 50
101.9999999999999
 51
167.9999999999998
  0
ARC
  5
A2
330
A0
100
AcDbEntity
  8
0
 62
     0
100
AcDbCircle
 10
-0.444888
 20
0.0913346
 30
0.0
 40
0.4541666
100
AcDbArc
 50
281.9999999999997
 51
347.9999999999997
  0
ENDBLK
  5
A4
330
A0
100
AcDbEntity
  8
0
100
AcDbBlockEnd
  0
BLOCK
  5
A7
330
A5
100
AcDbEntity
  8
0
100
AcDbBlockBegin
  2
_OBLIQUE
 70
     0
 10
0.0
 20
0.0
 30
0.0
  3
_OBLIQUE
  1
_OBLIQUE
  0
LINE
  5
A6
330
A5
100
AcDbEntity
  8
0
 62
     0
100
AcDbLine
 10
-0.5
 20
-0.5
 30
0.0
 11
0.5
 21
0.5
 31
0.0
  0
ENDBLK
  5
A8
330
A5
100
AcDbEntity
  8
0
100
AcDbBlockEnd
  0
BLOCK
  5
AA
330
A9
100
AcDbEntity
  8
0
100
AcDbBlockBegin
  2
_NONE
 70
     0
 10
0.0
 20
0.0
 30
0.0
  3
_NONE
  1
_NONE
  0
ENDBLK
  5
AB
330
A9
100
AcDbEntity
  8
0
100
AcDbBlockEnd
  0
BLOCK
  5
AF
330
AC
100
AcDbEntity
  8
0
100
AcDbBlockBegin
  2
MARK_OPEN
 70
     0
 10
0.0
 20
0.0
 30
0.0
  3
MARK_OPEN
  1
MARK_OPEN
  0
LINE
  5
AD
330
AC
100
AcDbEntity
  8
0
 62
     0
100
AcDbLine
 10
0.0
 20
0.0
 30
0.0
 11
-1.0
 21
0.1666666666666667
 31
0.0
  0
LINE
  5
AE
330
AC
100
AcDbEntity
  8
0
 62
     0
100
AcDbLine
 10
0.0
 20
0.0
 30
0.0
 11
-1.0
 21
-0.1666666666666667
 31
0.0
  0
ENDBLK
  5
B0
330
AC
100
AcDbEntity
  8
0
100
AcDbBlockEnd
  0
BLOCK
  5
B3
330
B1
100
AcDbEntity
  8
0
100
AcDbBlockBegin
  2
MARK_ORIGIN
 70
     0
 10
0.0
 20
0.0
 30
0.0
  3
MARK_ORIGIN
  1
MARK_ORIGIN
  0
CIRCLE
  5
B2
330
B1
100
AcDbEntity
  8
0
 62
     0
100
AcDbCircle
 10
0.0
 20
0.0
 30
0.0
 40
0.5
  0
ENDBLK
  5
B4
330
B1
100
AcDbEntity
  8
0
100
AcDbBlockEnd
  0
BLOCK
  5
B7
330
B5
100
AcDbEntity
  8
0
100
AcDbBlockBegin
  2
MARK_DOT
 70
     0
 10
0.0
 20
0.0
 30
0.0
  3
MARK_DOT
  1
MARK_DOT
  0
LWPOLYLINE
  5
B6
330
B5
100
AcDbEntity
  8
0
 62
     0
100
AcDbPolyline
 90
        2
 70
     1
 43
0.5
 10
-0.25
 20
0.0
 42
1.0
 10
0.25
 20
0.0
 42
1.0
  0
ENDBLK
  5
B8
330
B5
100
AcDbEntity
  8
0
100
AcDbBlockEnd
  0
BLOCK
  5
154
330
153
100
AcDbEntity
  8
0
100
AcDbBlockBegin
  2
*G16
 70
     1
 10
0.0
 20
0.0
 30
0.0
  3
*G16
  1
*G16
  0
LINE
  5
156
330
153
100
AcDbEntity
  8
9
  6
Continuous
 62
     7
370
    35
100
AcDbLine
 10
277.7203292893985
 20
362.5170648766762
 30
0.0
 11
277.7203292893985
 21
302.5170648766762
 31
0.0
  0
LINE
  5
157
330
153
100
AcDbEntity
  8
9
  6
Continuous
 62
     7
370
    35
100
AcDbLine
 10
277.7203292893985
 20
302.5170648766762
 30
0.0
 11
319.2203292893986
 21
302.5170648766762
 31
0.0
  0
LINE
  5
158
330
153
100
AcDbEntity
  8
9
  6
Continuous
 62
     7
370
    35
100
AcDbLine
 10
319.2203292893986
 20
302.5170648766762
 30
0.0
 11
319.2203292893986
 21
362.5170648766762
 31
0.0
  0
LINE
  5
159
330
153
100
AcDbEntity
  8
9
  6
Continuous
 62
     7
370
    35
100
AcDbLine
 10
319.2203292893986
 20
362.5170648766762
 30
0.0
 11
306.9322891189786
 21
362.5170648766762
 31
0.0
  0
LINE
  5
15A
330
153
100
AcDbEntity
  8
9
  6
Continuous
 62
     7
370
    35
100
AcDbLine
 10
290.0083694598185
 20
362.5170648766762
 30
0.0
 11
277.7203292893985
 21
362.5170648766762
 31
0.0
  0
ENDBLK
  5
155
330
153
100
AcDbEntity
  8
0
100
AcDbBlockEnd
  0
BLOCK
  5
21C
330
21B
100
AcDbEntity
  8
0
100
AcDbBlockBegin
  2
Dim1
 70
     0
 10
0.0
 20
0.0
 30
0.0
  3
Dim1
  1
Dim1
  0
ARC
  5
21E
330
21B
100
AcDbEntity
  8
6
  6
Continuous
 62
     3
370
    25
100
AcDbCircle
 10
298.4703292893984
 20
235.6286307484675
 30
0.0
 40
122.102244808917
100
AcDbArc
 50
179.9999999999998
 51
269.9999999999998
  0
INSERT
  5
21F
330
21B
100
AcDbEntity
  8
6
  6
Continuous
 62
     3
370
    25
100
AcDbBlockReference
  2
_OPEN
 10
176.3680844804813
 20
235.6286307484679
 30
0.0
 41
4.600000000000001
 42
4.600000000000001
 43
4.600000000000001
 50
89.99999999999949
  0
INSERT
  5
220
330
21B
100
AcDbEntity
  8
6
  6
Continuous
 62
     3
370
    25
100
AcDbBlockReference
  2
_OPEN
 10
298.4703292893986
 20
113.5263859395504
 30
0.0
 41
4.600000000000001
 42
4.600000000000001
 43
4.600000000000001
 50
0.0000000000000254
  0
ENDBLK
  5
21D
330
21B
100
AcDbEntity
  8
0
100
AcDbBlockEnd
  0
BLOCK
  5
3FE
330
3FD
100
AcDbEntity
  8
0
100
AcDbBlockBegin
  2
Dim2
 70
     0
 10
0.0
 20
0.0
 30
0.0
  3
Dim2
  1
Dim2
  0
LINE
  5
400
330
3FD
100
AcDbEntity
  8
6
  6
Continuous
 62
     3
370
    25
100
AcDbLine
 10
62.24804718922904
 20
136.690481297564
 30
0.0
 11
62.24804718922881
 21
107.3528351261612
 31
0.0
  0
LINE
  5
401
330
3FD
100
AcDbEntity
  8
6
  6
Continuous
 62
     3
370
    25
100
AcDbLine
 10
123.4980471892276
 20
117.5786307484673
 30
0.0
 11
123.4980471892275
 21
107.3528351261612
 31
0.0
  0
LINE
  5
402
330
3FD
100
AcDbEntity
  8
6
  6
Continuous
 62
     3
370
    25
100
AcDbLine
 10
62.24804718922883
 20
109.3528351261612
 30
0.0
 11
123.4980471892275
 21
109.3528351261612
 31
0.0
  0
MTEXT
  5
403
330
3FD
100
AcDbEntity
  8
6
  6
Continuous
 62
     3
370
     9
100
AcDbMText
 10
92.87304718922815
 20
109.9528351261611
 30
0.0
 40
6.600000000000001
 41
132.759
 71
     8
 72
     1
  1
(61.5)
  7
ＭＳ Ｐゴシック
 73
     1
 44
1.0
1001
ACAD
1000
ACAD_MTEXT_DEFINED_HEIGHT_BEGIN
1070
    46
1040
6.600000000000001
1000
ACAD_MTEXT_DEFINED_HEIGHT_END
  0
INSERT
  5
404
330
3FD
100
AcDbEntity
  8
6
  6
Continuous
 62
     3
370
    25
100
AcDbBlockReference
  2
_OPEN
 10
62.24804718922883
 20
109.3528351261612
 30
0.0
 41
4.600000000000001
 42
4.600000000000001
 43
4.600000000000001
 50
179.9999999999998
  0
INSERT
  5
405
330
3FD
100
AcDbEntity
  8
6
  6
Continuous
 62
     3
370
    25
100
AcDbBlockReference
  2
_OPEN
 10
123.4980471892275
 20
109.3528351261612
 30
0.0
 41
4.600000000000001
 42
4.600000000000001
 43
4.600000000000001
 50
359.9999999999997
  0
ENDBLK
  5
3FF
330
3FD
100
AcDbEntity
  8
0
100
AcDbBlockEnd
  0
BLOCK
  5
410
330
40F
100
AcDbEntity
  8
0
100
AcDbBlockBegin
  2
Dim3
 70
     0
 10
0.0
 20
0.0
 30
0.0
  3
Dim3
  1
Dim3
  0
LINE
  5
412
330
40F
100
AcDbEntity
  8
6
  6
Continuous
 62
     3
370
    25
100
AcDbLine
 10
62.24804718922758
 20
401.1492227222216
 30
0.0
 11
62.24804718922769
 21
485.3317086493898
 31
0.0
  0
LINE
  5
413
330
40F
100
AcDbEntity
  8
6
  6
Continuous
 62
     3
370
    25
100
AcDbLine
 10
217.2480471892272
 20
421.5170648766762
 30
0.0
 11
217.2480471892273
 21
485.3317086493898
 31
0.0
  0
LINE
  5
414
330
40F
100
AcDbEntity
  8
6
  6
Continuous
 62
     3
370
    25
100
AcDbLine
 10
62.24804718922769
 20
483.3317086493898
 30
0.0
 11
217.2480471892273
 21
483.3317086493898
 31
0.0
  0
MTEXT
  5
415
330
40F
100
AcDbEntity
  8
6
  6
Continuous
 62
     3
370
     9
100
AcDbMText
 10
139.7480471892275
 20
483.9317086493902
 30
0.0
 40
6.600000000000001
 41
121.737
 71
     8
 72
     1
  1
(155)
  7
ＭＳ Ｐゴシック
 73
     1
 44
1.0
1001
ACAD
1000
ACAD_MTEXT_DEFINED_HEIGHT_BEGIN
1070
    46
1040
6.600000000000001
1000
ACAD_MTEXT_DEFINED_HEIGHT_END
  0
INSERT
  5
416
330
40F
100
AcDbEntity
  8
6
  6
Continuous
 62
     3
370
    25
100
AcDbBlockReference
  2
_OPEN
 10
62.24804718922769
 20
483.3317086493898
 30
0.0
 41
4.600000000000001
 42
4.600000000000001
 43
4.600000000000001
 50
179.9999999999998
  0
INSERT
  5
417
330
40F
100
AcDbEntity
  8
6
  6
Continuous
 62
     3
370
    25
100
AcDbBlockReference
  2
_OPEN
 10
217.2480471892273
 20
483.3317086493898
 30
0.0
 41
4.600000000000001
 42
4.600000000000001
 43
4.600000000000001
 50
359.9999999999997
  0
ENDBLK
  5
411
330
40F
100
AcDbEntity
  8
0
100
AcDbBlockEnd
  0
BLOCK
  5
41A
330
419
100
AcDbEntity
  8
0
100
AcDbBlockBegin
  2
Dim4
 70
     0
 10
0.0
 20
0.0
 30
0.0
  3
Dim4
  1
Dim4
  0
LINE
  5
41C
330
419
100
AcDbEntity
  8
6
  6
Continuous
 62
     3
370
    25
100
AcDbLine
 10
40.1818306033025
 20
168.6324421067438
 30
0.0
 11
17.79370093685003
 21
168.6324421067438
 31
0.0
  0
LINE
  5
41D
330
419
100
AcDbEntity
  8
6
  6
Continuous
 62
     3
370
    25
100
AcDbLine
 10
173.2480471892272
 20
461.5170648766762
 30
0.0
 11
17.79370093685003
 21
461.5170648766766
 31
0.0
  0
LINE
  5
41E
330
419
100
AcDbEntity
  8
6
  6
Continuous
 62
     3
370
    25
100
AcDbLine
 10
19.79370093685003
 20
168.6324421067438
 30
0.0
 11
19.79370093685003
 21
461.5170648766766
 31
0.0
  0
MTEXT
  5
41F
330
419
100
AcDbEntity
  8
6
  6
Continuous
 62
     3
370
     9
100
AcDbMText
 10
19.19370093685001
 20
315.07475349171
 30
0.0
 40
6.600000000000001
 41
132.726
 71
     8
 72
     1
  1
(293)
  7
ＭＳ Ｐゴシック
 11
1.615544574432587E-15
 21
1.0
 31
0.0
 73
     1
 44
1.0
1001
ACAD
1000
ACAD_MTEXT_DEFINED_HEIGHT_BEGIN
1070
    46
1040
6.600000000000001
1000
ACAD_MTEXT_DEFINED_HEIGHT_END
  0
INSERT
  5
420
330
419
100
AcDbEntity
  8
6
  6
Continuous
 62
     3
370
    25
100
AcDbBlockReference
  2
_OPEN
 10
19.79370093685003
 20
168.6324421067438
 30
0.0
 41
4.600000000000001
 42
4.600000000000001
 43
4.600000000000001
 50
269.9999999999998
  0
INSERT
  5
421
330
419
100
AcDbEntity
  8
6
  6
Continuous
 62
     3
370
    25
100
AcDbBlockReference
  2
_OPEN
 10
19.79370093685003
 20
461.5170648766766
 30
0.0
 41
4.600000000000001
 42
4.600000000000001
 43
4.600000000000001
 50
89.99999999999991
  0
ENDBLK
  5
41B
330
419
100
AcDbEntity
  8
0
100
AcDbBlockEnd
  0
BLOCK
  5
424
330
423
100
AcDbEntity
  8
0
100
AcDbBlockBegin
  2
Dim5
 70
     0
 10
0.0
 20
0.0
 30
0.0
  3
Dim5
  1
Dim5
  0
LINE
  5
426
330
423
100
AcDbEntity
  8
6
  6
Continuous
 62
     3
370
    25
100
AcDbLine
 10
182.4203293464648
 20
233.6286307484679
 30
0.0
 11
182.4203293464635
 21
69.25733509260499
 31
0.0
  0
LINE
  5
427
330
423
100
AcDbEntity
  8
6
  6
Continuous
 62
     3
370
    25
100
AcDbLine
 10
298.4703292893984
 20
117.5786307484673
 30
0.0
 11
298.470329289398
 21
69.25733509260499
 31
0.0
  0
LINE
  5
428
330
423
100
AcDbEntity
  8
6
  6
Continuous
 62
     3
370
    25
100
AcDbLine
 10
182.4203293464635
 20
71.25733509260499
 30
0.0
 11
298.470329289398
 21
71.25733509260499
 31
0.0
  0
MTEXT
  5
429
330
423
100
AcDbEntity
  8
6
  6
Continuous
 62
     3
370
     9
100
AcDbMText
 10
240.4453293179307
 20
71.8573350926049
 30
0.0
 40
6.600000000000001
 41
110.748
 71
     8
 72
     1
  1
(116)
  7
ＭＳ Ｐゴシック
 73
     1
 44
1.0
1001
ACAD
1000
ACAD_MTEXT_DEFINED_HEIGHT_BEGIN
1070
    46
1040
6.600000000000001
1000
ACAD_MTEXT_DEFINED_HEIGHT_END
  0
INSERT
  5
42A
330
423
100
AcDbEntity
  8
6
  6
Continuous
 62
     3
370
    25
100
AcDbBlockReference
  2
_OPEN
 10
182.4203293464635
 20
71.25733509260499
 30
0.0
 41
4.600000000000001
 42
4.600000000000001
 43
4.600000000000001
 50
179.9999999999998
  0
INSERT
  5
42B
330
423
100
AcDbEntity
  8
6
  6
Continuous
 62
     3
370
    25
100
AcDbBlockReference
  2
_OPEN
 10
298.470329289398
 20
71.25733509260499
 30
0.0
 41
4.600000000000001
 42
4.600000000000001
 43
4.600000000000001
 50
359.9999999999997
  0
ENDBLK
  5
425
330
423
100
AcDbEntity
  8
0
100
AcDbBlockEnd
  0
ENDSEC
  0
SECTION
  2
ENTITIES
  0
POLYLINE
  5
E3
330
1F
100
AcDbEntity
  8
12
  6
Continuous
 62
     5
370
    53
100
AcDb2dPolyline
 66
     1
 10
0.0
 20
0.0
 30
0.0
  0
VERTEX
  5
E4
330
E3
100
AcDbEntity
  8
12
  6
Continuous
 62
     5
370
    53
100
AcDbVertex
100
AcDb2dVertex
 10
0.0
 20
0.0
 30
0.0
  0
VERTEX
  5
E5
330
E3
100
AcDbEntity
  8
12
  6
Continuous
 62
     5
370
    53
100
AcDbVertex
100
AcDb2dVertex
 10
362.0
 20
0.0
 30
0.0
  0
VERTEX
  5
E6
330
E3
100
AcDbEntity
  8
12
  6
Continuous
 62
     5
370
    53
100
AcDbVertex
100
AcDb2dVertex
 10
362.0
 20
546.0
 30
0.0
  0
VERTEX
  5
E7
330
E3
100
AcDbEntity
  8
12
  6
Continuous
 62
     5
370
    53
100
AcDbVertex
100
AcDb2dVertex
 10
0.0
 20
546.0
 30
0.0
  0
VERTEX
  5
E8
330
E3
100
AcDbEntity
  8
12
  6
Continuous
 62
     5
370
    53
100
AcDbVertex
100
AcDb2dVertex
 10
0.0
 20
0.0
 30
0.0
  0
SEQEND
  5
E9
330
E3
100
AcDbEntity
  8
12
  6
Continuous
 62
     5
370
    53
  0
MTEXT
  5
EA
330
1F
100
AcDbEntity
  8
6
  6
Continuous
 62
     3
370
     9
100
AcDbMText
 10
288.1625034902288
 20
16.18855994287787
 30
0.0
 40
6.0
 41
57.07185140016
 71
     7
 72
     1
  1
{\fＭＳ Ｐゴシック;\W0.714286;試験装置 SR30}
 73
     1
 44
1.0
1001
ACAD
1000
ACAD_MTEXT_DEFINED_HEIGHT_BEGIN
1070
    46
1040
6.0
1000
ACAD_MTEXT_DEFINED_HEIGHT_END
  0
LINE
  5
EB
330
1F
100
AcDbEntity
  8
9
  6
Continuous
 62
     7
370
    35
100
AcDbLine
 10
308.9703292893986
 20
381.2670648766757
 30
0.0
 11
306.9703292893986
 21
381.2670648766757
 31
0.0
  0
LINE
  5
EC
330
1F
100
AcDbEntity
  8
9
  6
Continuous
 62
     7
370
    35
100
AcDbLine
 10
289.0198606333535
 20
457.7670648766757
 30
0.0
 11
289.0198606333535
 21
382.2813293528543
 31
0.0
  0
LINE
  5
ED
330
1F
100
AcDbEntity
  8
9
  6
Continuous
 62
     7
370
    35
100
AcDbLine
 10
287.9698606333533
 20
458.8170648766759
 30
0.0
 11
289.0198606333535
 21
457.7670648766757
 31
0.0
  0
LINE
  5
EE
330
1F
100
AcDbEntity
  8
9
  6
Continuous
 62
     7
370
    35
100
AcDbLine
 10
287.9698606333533
 20
382.2813293528543
 30
0.0
 11
306.9703292893986
 21
382.2813293528543
 31
0.0
  0
LINE
  5
EF
330
1F
100
AcDbEntity
  8
9
  6
Continuous
 62
     7
370
    35
100
AcDbLine
 10
275.9698606333533
 20
377.5170648766757
 30
0.0
 11
287.9698606333533
 21
377.5170648766762
 31
0.0
  0
LINE
  5
F0
330
1F
100
AcDbEntity
  8
9
  6
Continuous
 62
     7
370
    35
100
AcDbLine
 10
275.9698606333533
 20
461.5170648766757
 30
0.0
 11
287.9698606333533
 21
461.5170648766757
 31
0.0
  0
LINE
  5
F1
330
1F
100
AcDbEntity
  8
9
  6
Continuous
 62
     7
370
    35
100
AcDbLine
 10
287.9698606333533
 20
461.5170648766757
 30
0.0
 11
287.9698606333533
 21
382.2670648766762
 31
0.0
  0
LINE
  5
F2
330
1F
100
AcDbEntity
  8
9
  6
Continuous
 62
     7
370
    35
100
AcDbLine
 10
287.9698606333533
 20
382.2813293528543
 30
0.0
 11
287.9698606333533
 21
377.5170648766762
 31
0.0
  0
LINE
  5
F3
330
1F
100
AcDbEntity
  8
9
  6
Continuous
 62
     7
370
    35
100
AcDbLine
 10
308.9703292893986
 20
381.2670648766757
 30
0.0
 11
309.2703292893983
 21
381.2670648766757
 31
0.0
  0
LINE
  5
F4
330
1F
100
AcDbEntity
  8
9
  6
Continuous
 62
     7
370
    35
100
AcDbLine
 10
309.2703292893983
 20
381.2670648766757
 30
0.0
 11
312.4703292893986
 21
381.2670648766757
 31
0.0
  0
LINE
  5
F5
330
1F
100
AcDbEntity
  8
9
  6
Continuous
 62
     7
370
    35
100
AcDbLine
 10
306.9703292893986
 20
382.2813293528543
 30
0.0
 11
306.9703292893986
 21
381.2670648766757
 31
0.0
  0
LINE
  5
F6
330
1F
100
AcDbEntity
  8
9
  6
Continuous
 62
     7
370
    35
100
AcDbLine
 10
289.9703292893986
 20
382.2813293528543
 30
0.0
 11
289.9703292893986
 21
367.5170648766757
 31
0.0
  0
LINE
  5
F7
330
1F
100
AcDbEntity
  8
9
  6
Continuous
 62
     7
370
    35
100
AcDbLine
 10
306.9703292893986
 20
367.5170648766757
 30
0.0
 11
306.9703292893986
 21
381.5313293528543
 31
0.0
  0
LINE
  5
F8
330
1F
100
AcDbEntity
  8
9
  6
Continuous
 62
     7
370
    35
100
AcDbLine
 10
289.9703292893986
 20
367.5170648766757
 30
0.0
 11
306.9703292893986
 21
367.5170648766757
 31
0.0
  0
LINE
  5
F9
330
1F
100
AcDbEntity
  8
9
  6
Continuous
 62
     7
370
    35
100
AcDbLine
 10
306.9703292893986
 20
363.5170648766757
 30
0.0
 11
306.9703292893986
 21
367.5170648766757
 31
0.0
  0
LINE
  5
FA
330
1F
100
AcDbEntity
  8
9
  6
Continuous
 62
     7
370
    35
100
AcDbLine
 10
289.9703292893986
 20
367.5170648766757
 30
0.0
 11
289.9703292893986
 21
363.5170648766757
 31
0.0
  0
LINE
  5
FB
330
1F
100
AcDbEntity
  8
8
  6
Continuous
 62
     4
370
    25
100
AcDbLine
 10
289.9703292893986
 20
364.9997003679546
 30
0.0
 11
290.8263292893984
 21
363.5170648766757
 31
0.0
  0
LINE
  5
FC
330
1F
100
AcDbEntity
  8
8
  6
Continuous
 62
     4
370
    25
100
AcDbLine
 10
306.1143292893984
 20
363.5170648766757
 30
0.0
 11
306.9703292893986
 21
364.9997003679546
 31
0.0
  0
LINE
  5
FD
330
1F
100
AcDbEntity
  8
9
  6
Continuous
 62
     7
370
    35
100
AcDbLine
 10
306.9703292893986
 20
363.5170648766757
 30
0.0
 11
289.9703292893986
 21
363.5170648766757
 31
0.0
  0
LINE
  5
FE
330
1F
100
AcDbEntity
  8
9
  6
Continuous
 62
     7
370
    35
100
AcDbLine
 10
289.9703292893986
 20
367.5170648766757
 30
0.0
 11
306.9703292893986
 21
367.5170648766757
 31
0.0
  0
ARC
  5
FF
330
1F
100
AcDbEntity
  8
9
  6
Continuous
 62
     7
370
    35
100
AcDbCircle
 10
275.9698606333533
 20
460.5170648766757
 30
0.0
 40
1.0
100
AcDbArc
 50
89.99999999999991
 51
181.7542104937147
  0
ARC
  5
100
330
1F
100
AcDbEntity
  8
9
  6
Continuous
 62
     7
370
    35
100
AcDbCircle
 10
275.9698606333533
 20
378.5170648766762
 30
0.0
 40
1.0
100
AcDbArc
 50
179.9999999999998
 51
269.9999999999998
  0
ARC
  5
101
330
1F
100
AcDbEntity
  8
9
  6
Continuous
 62
     7
370
    35
100
AcDbCircle
 10
298.4703292893986
 20
386.5795648766757
 30
0.0
 40
19.0625
100
AcDbArc
 50
243.5189601696191
 51
296.4810398303799
  0
ARC
  5
102
330
1F
100
AcDbEntity
  8
9
  6
Continuous
 62
     7
370
    35
100
AcDbCircle
 10
312.1703292893984
 20
457.4670648766755
 30
0.0
 40
0.3000000000001819
100
AcDbArc
 50
0.0
 51
89.99999999999991
  0
LINE
  5
103
330
1F
100
AcDbEntity
  8
9
  6
Continuous
 62
     7
370
    35
100
AcDbLine
 10
312.1703292893984
 20
457.7670648766757
 30
0.0
 11
289.0198606333535
 21
457.7670648766757
 31
0.0
  0
LINE
  5
104
330
1F
100
AcDbEntity
  8
9
  6
Continuous
 62
     7
370
    35
100
AcDbLine
 10
312.4703292893986
 20
457.4670648766755
 30
0.0
 11
312.4703292893986
 21
381.2670648766757
 31
0.0
  0
LINE
  5
105
330
1F
100
AcDbEntity
  8
9
  6
Continuous
 62
     7
370
    35
100
AcDbLine
 10
274.9703292893986
 20
460.4864529108449
 30
0.0
 11
274.9698606333533
 21
378.5170648766762
 31
0.0
  0
LINE
  5
106
330
1F
100
AcDbEntity
  8
9
  6
Continuous
 62
     7
370
    35
100
AcDbLine
 10
306.7801284372989
 20
358.5170648766762
 30
0.0
 11
306.9703292893986
 21
363.5170648766757
 31
0.0
  0
LINE
  5
107
330
1F
100
AcDbEntity
  8
8
  6
Continuous
 62
     4
370
    25
100
AcDbLine
 10
305.9357578608269
 20
358.5170648766762
 30
0.0
 11
306.1143292893984
 21
363.5170648766757
 31
0.0
  0
LINE
  5
108
330
1F
100
AcDbEntity
  8
9
  6
Continuous
 62
     7
370
    35
100
AcDbLine
 10
289.9703292893986
 20
363.5170648766757
 30
0.0
 11
290.1605301414984
 21
358.5170648766762
 31
0.0
  0
LINE
  5
109
330
1F
100
AcDbEntity
  8
8
  6
Continuous
 62
     4
370
    25
100
AcDbLine
 10
290.8263292893984
 20
363.5170648766757
 30
0.0
 11
291.0049007179698
 21
358.5170648766762
 31
0.0
  0
ARC
  5
10A
330
1F
100
AcDbEntity
  8
9
  6
Continuous
 62
     7
370
    35
100
AcDbCircle
 10
298.4703292893984
 20
332.5170648766757
 30
0.0
 40
8.0
100
AcDbArc
 50
299.1895169091079
 51
240.8104830908914
  0
ARC
  5
10B
330
1F
100
AcDbEntity
  8
9
  6
Continuous
 62
     7
370
    35
100
AcDbCircle
 10
298.4703292893984
 20
332.5170648766757
 30
0.0
 40
6.0
100
AcDbArc
 50
324.2495596439073
 51
215.7504403560932
  0
LINE
  5
10C
330
1F
100
AcDbEntity
  8
9
  6
Continuous
 62
     7
370
    35
100
AcDbLine
 10
300.0279381672241
 20
307.5170648766757
 30
0.0
 11
298.4703292893984
 21
307.5170648766757
 31
0.0
  0
LINE
  5
10D
330
1F
100
AcDbEntity
  8
9
  6
Continuous
 62
     7
370
    35
100
AcDbLine
 10
301.5267886040717
 20
308.9583505857267
 30
0.0
 11
302.4014255741137
 21
326.285964245686
 31
0.0
  0
ARC
  5
10E
330
1F
100
AcDbEntity
  8
9
  6
Continuous
 62
     7
370
    35
100
AcDbCircle
 10
300.0279381672241
 20
309.0170648766757
 30
0.0
 40
1.5
100
AcDbArc
 50
269.9999999999998
 51
357.7567061899731
  0
ARC
  5
10F
330
1F
100
AcDbEntity
  8
9
  6
Continuous
 62
     7
370
    35
100
AcDbCircle
 10
296.9127204115729
 20
309.0170648766757
 30
0.0
 40
1.5
100
AcDbArc
 50
182.2432938100262
 51
269.9999999999998
  0
LINE
  5
110
330
1F
100
AcDbEntity
  8
9
  6
Continuous
 62
     7
370
    35
100
AcDbLine
 10
295.4138699747254
 20
308.9583505857267
 30
0.0
 11
294.5392330046835
 21
326.285964245686
 31
0.0
  0
LINE
  5
111
330
1F
100
AcDbEntity
  8
9
  6
Continuous
 62
     7
370
    35
100
AcDbLine
 10
296.9127204115729
 20
307.5170648766757
 30
0.0
 11
298.4703292893984
 21
307.5170648766757
 31
0.0
  0
ARC
  5
112
330
1F
100
AcDbEntity
  8
9
  6
Continuous
 62
     7
370
    35
100
AcDbCircle
 10
289.543064881858
 20
326.090249942522
 30
0.0
 40
5.0
100
AcDbArc
 50
2.243293810036734
 51
35.75044035609429
  0
ARC
  5
113
330
1F
100
AcDbEntity
  8
9
  6
Continuous
 62
     7
370
    35
100
AcDbCircle
 10
307.397593696939
 20
326.090249942522
 30
0.0
 40
5.0
100
AcDbArc
 50
144.2495596439057
 51
177.7567061899632
  0
CIRCLE
  5
114
330
1F
100
AcDbEntity
  8
9
  6
Continuous
 62
     7
370
    35
100
AcDbCircle
 10
298.4703292893984
 20
332.5170648766757
 30
0.0
 40
5.0
  0
LINE
  5
115
330
1F
100
AcDbEntity
  8
9
  6
Continuous
 62
     7
370
    35
100
AcDbLine
 10
299.2203292893986
 20
334.5170648766757
 30
0.0
 11
299.2203292893986
 21
332.5170648766757
 31
0.0
  0
LINE
  5
116
330
1F
100
AcDbEntity
  8
9
  6
Continuous
 62
     7
370
    35
100
AcDbLine
 10
298.4703292893984
 20
336.0170648766757
 30
0.0
 11
299.9703292893984
 21
334.5170648766757
 31
0.0
  0
LINE
  5
117
330
1F
100
AcDbEntity
  8
9
  6
Continuous
 62
     7
370
    35
100
AcDbLine
 10
299.2203292893986
 20
334.5170648766757
 30
0.0
 11
299.9703292893984
 21
334.5170648766757
 31
0.0
  0
LINE
  5
118
330
1F
100
AcDbEntity
  8
9
  6
Continuous
 62
     7
370
    35
100
AcDbLine
 10
297.7203292893984
 20
334.5170648766757
 30
0.0
 11
296.9703292893986
 21
334.5170648766757
 31
0.0
  0
LINE
  5
119
330
1F
100
AcDbEntity
  8
9
  6
Continuous
 62
     7
370
    35
100
AcDbLine
 10
298.4703292893984
 20
336.0170648766757
 30
0.0
 11
296.9703292893986
 21
334.5170648766757
 31
0.0
  0
LINE
  5
11A
330
1F
100
AcDbEntity
  8
9
  6
Continuous
 62
     7
370
    35
100
AcDbLine
 10
297.7203292893984
 20
334.5170648766757
 30
0.0
 11
297.7203292893984
 21
332.5170648766757
 31
0.0
  0
LINE
  5
11B
330
1F
100
AcDbEntity
  8
9
  6
Continuous
 62
     7
370
    35
100
AcDbLine
 10
299.2203292893986
 20
330.5170648766757
 30
0.0
 11
299.9703292893984
 21
330.5170648766757
 31
0.0
  0
LINE
  5
11C
330
1F
100
AcDbEntity
  8
9
  6
Continuous
 62
     7
370
    35
100
AcDbLine
 10
298.4703292893984
 20
329.0170648766757
 30
0.0
 11
299.9703292893984
 21
330.5170648766757
 31
0.0
  0
LINE
  5
11D
330
1F
100
AcDbEntity
  8
9
  6
Continuous
 62
     7
370
    35
100
AcDbLine
 10
299.2203292893986
 20
330.5170648766757
 30
0.0
 11
299.2203292893986
 21
332.5170648766757
 31
0.0
  0
LINE
  5
11E
330
1F
100
AcDbEntity
  8
9
  6
Continuous
 62
     7
370
    35
100
AcDbLine
 10
297.7203292893984
 20
330.5170648766757
 30
0.0
 11
297.7203292893984
 21
332.5170648766757
 31
0.0
  0
LINE
  5
11F
330
1F
100
AcDbEntity
  8
9
  6
Continuous
 62
     7
370
    35
100
AcDbLine
 10
298.4703292893984
 20
329.0170648766757
 30
0.0
 11
296.9703292893986
 21
330.5170648766757
 31
0.0
  0
LINE
  5
120
330
1F
100
AcDbEntity
  8
9
  6
Continuous
 62
     7
370
    35
100
AcDbLine
 10
297.7203292893984
 20
330.5170648766757
 30
0.0
 11
296.9703292893986
 21
330.5170648766757
 31
0.0
  0
LINE
  5
121
330
1F
100
AcDbEntity
  8
9
  6
Continuous
 62
     7
370
    35
100
AcDbLine
 10
297.6390416386442
 20
344.6510394728912
 30
0.0
 11
297.6390416386442
 21
340.473757709864
 31
0.0
  0
LINE
  5
122
330
1F
100
AcDbEntity
  8
9
  6
Continuous
 62
     7
370
    35
100
AcDbLine
 10
287.4703292893984
 20
345.3727273093782
 30
0.0
 11
287.4703292893984
 21
321.6614024439732
 31
0.0
  0
LINE
  5
123
330
1F
100
AcDbEntity
  8
9
  6
Continuous
 62
     7
370
    35
100
AcDbLine
 10
288.3016169401527
 20
344.6510394728912
 30
0.0
 11
288.3016169401527
 21
322.3830902804602
 31
0.0
  0
LINE
  5
124
330
1F
100
AcDbEntity
  8
9
  6
Continuous
 62
     7
370
    35
100
AcDbLine
 10
298.4703292893984
 20
345.5170648766757
 30
0.0
 11
287.7203292893984
 21
345.5170648766757
 31
0.0
  0
LINE
  5
125
330
1F
100
AcDbEntity
  8
9
  6
Continuous
 62
     7
370
    35
100
AcDbLine
 10
298.4703292893984
 20
344.6510394728912
 30
0.0
 11
297.6390416386442
 21
344.6510394728912
 31
0.0
  0
ARC
  5
126
330
1F
100
AcDbEntity
  8
9
  6
Continuous
 62
     7
370
    35
100
AcDbCircle
 10
292.9703292893984
 20
329.9105654126442
 30
0.0
 40
15.46216189673441
100
AcDbArc
 50
72.42557750465676
 51
107.5744224953425
  0
LINE
  5
127
330
1F
100
AcDbEntity
  8
9
  6
Continuous
 62
     7
370
    35
100
AcDbLine
 10
288.3016169401527
 20
344.6510394728912
 30
0.0
 11
287.4703292893984
 21
344.6510394728912
 31
0.0
  0
LINE
  5
128
330
1F
100
AcDbEntity
  8
9
  6
Continuous
 62
     7
370
    35
100
AcDbLine
 10
287.7203292893984
 20
345.5170648766757
 30
0.0
 11
287.4703292893984
 21
345.3727273093782
 31
0.0
  0
LINE
  5
129
330
1F
100
AcDbEntity
  8
9
  6
Continuous
 62
     7
370
    35
100
AcDbLine
 10
298.4703292893984
 20
345.5170648766757
 30
0.0
 11
309.2203292893984
 21
345.5170648766757
 31
0.0
  0
ARC
  5
12A
330
1F
100
AcDbEntity
  8
9
  6
Continuous
 62
     7
370
    35
100
AcDbCircle
 10
303.9703292893984
 20
329.9105654126442
 30
0.0
 40
15.46216189673441
100
AcDbArc
 50
72.42557750465676
 51
107.5744224953425
  0
LINE
  5
12B
330
1F
100
AcDbEntity
  8
9
  6
Continuous
 62
     7
370
    35
100
AcDbLine
 10
298.4703292893984
 20
344.6510394728912
 30
0.0
 11
299.3016169401527
 21
344.6510394728912
 31
0.0
  0
LINE
  5
12C
330
1F
100
AcDbEntity
  8
9
  6
Continuous
 62
     7
370
    35
100
AcDbLine
 10
309.2203292893984
 20
345.5170648766757
 30
0.0
 11
309.4703292893984
 21
345.3727273093782
 31
0.0
  0
LINE
  5
12D
330
1F
100
AcDbEntity
  8
9
  6
Continuous
 62
     7
370
    35
100
AcDbLine
 10
308.6390416386442
 20
344.6510394728912
 30
0.0
 11
309.4703292893984
 21
344.6510394728912
 31
0.0
  0
LINE
  5
12E
330
1F
100
AcDbEntity
  8
9
  6
Continuous
 62
     7
370
    35
100
AcDbLine
 10
308.6390416386442
 20
344.6510394728912
 30
0.0
 11
308.6390416386442
 21
322.3830902804602
 31
0.0
  0
LINE
  5
12F
330
1F
100
AcDbEntity
  8
9
  6
Continuous
 62
     7
370
    35
100
AcDbLine
 10
299.3016169401527
 20
344.6510394728912
 30
0.0
 11
299.3016169401527
 21
340.473757709864
 31
0.0
  0
LINE
  5
130
330
1F
100
AcDbEntity
  8
9
  6
Continuous
 62
     7
370
    35
100
AcDbLine
 10
309.4703292893984
 20
345.3727273093782
 30
0.0
 11
309.4703292893986
 21
321.6614024439732
 31
0.0
  0
LINE
  5
131
330
1F
100
AcDbEntity
  8
9
  6
Continuous
 62
     7
370
    35
100
AcDbLine
 10
294.7799502653749
 20
321.5170648766757
 30
0.0
 11
287.7203292893984
 21
321.5170648766757
 31
0.0
  0
ARC
  5
132
330
1F
100
AcDbEntity
  8
9
  6
Continuous
 62
     7
370
    35
100
AcDbCircle
 10
292.9703292893984
 20
337.1235643407076
 30
0.0
 40
15.46216189673441
100
AcDbArc
 50
252.4255775046577
 51
276.6741237741759
  0
ARC
  5
133
330
1F
100
AcDbEntity
  8
9
  6
Continuous
 62
     7
370
    35
100
AcDbCircle
 10
303.9703292893984
 20
337.1235643407076
 30
0.0
 40
15.46216189673441
100
AcDbArc
 50
263.3258762258242
 51
287.5744224953424
  0
LINE
  5
134
330
1F
100
AcDbEntity
  8
9
  6
Continuous
 62
     7
370
    35
100
AcDbLine
 10
302.1607083134221
 20
321.5170648766757
 30
0.0
 11
309.2203292893984
 21
321.5170648766757
 31
0.0
  0
LINE
  5
135
330
1F
100
AcDbEntity
  8
9
  6
Continuous
 62
     7
370
    35
100
AcDbLine
 10
308.6390416386442
 20
322.3830902804602
 30
0.0
 11
309.4703292893984
 21
322.3830902804602
 31
0.0
  0
LINE
  5
136
330
1F
100
AcDbEntity
  8
9
  6
Continuous
 62
     7
370
    35
100
AcDbLine
 10
309.2203292893984
 20
321.5170648766757
 30
0.0
 11
309.4703292893984
 21
321.6614024439732
 31
0.0
  0
LINE
  5
137
330
1F
100
AcDbEntity
  8
9
  6
Continuous
 62
     7
370
    35
100
AcDbLine
 10
287.7203292893984
 20
321.5170648766757
 30
0.0
 11
287.4703292893984
 21
321.6614024439732
 31
0.0
  0
LINE
  5
138
330
1F
100
AcDbEntity
  8
9
  6
Continuous
 62
     7
370
    35
100
AcDbLine
 10
288.3016169401527
 20
322.3830902804602
 30
0.0
 11
287.4703292893984
 21
322.3830902804602
 31
0.0
  0
LINE
  5
139
330
1F
100
AcDbEntity
  8
9
  6
Continuous
 62
     7
370
    35
100
AcDbLine
 10
287.7203292893983
 20
351.5170648766757
 30
0.0
 11
298.4703292893984
 21
351.5170648766757
 31
0.0
  0
LINE
  5
13A
330
1F
100
AcDbEntity
  8
9
  6
Continuous
 62
     7
370
    35
100
AcDbLine
 10
287.7203292893984
 20
345.5170648766757
 30
0.0
 11
287.4703292893984
 21
345.6614024439732
 31
0.0
  0
LINE
  5
13B
330
1F
100
AcDbEntity
  8
9
  6
Continuous
 62
     7
370
    35
100
AcDbLine
 10
287.7203292893983
 20
351.5170648766757
 30
0.0
 11
287.4703292893983
 21
351.3727273093782
 31
0.0
  0
LINE
  5
13C
330
1F
100
AcDbEntity
  8
9
  6
Continuous
 62
     7
370
    35
100
AcDbLine
 10
309.2203292893983
 20
351.5170648766757
 30
0.0
 11
298.4703292893984
 21
351.5170648766757
 31
0.0
  0
LINE
  5
13D
330
1F
100
AcDbEntity
  8
9
  6
Continuous
 62
     7
370
    35
100
AcDbLine
 10
309.2203292893984
 20
345.5170648766757
 30
0.0
 11
309.4703292893984
 21
345.6614024439732
 31
0.0
  0
LINE
  5
13E
330
1F
100
AcDbEntity
  8
9
  6
Continuous
 62
     7
370
    35
100
AcDbLine
 10
309.2203292893983
 20
351.5170648766757
 30
0.0
 11
309.4703292893983
 21
351.3727273093782
 31
0.0
  0
LINE
  5
13F
330
1F
100
AcDbEntity
  8
9
  6
Continuous
 62
     7
370
    35
100
AcDbLine
 10
287.4703292893983
 20
351.3727273093782
 30
0.0
 11
287.4703292893984
 21
345.6614024439732
 31
0.0
  0
LINE
  5
140
330
1F
100
AcDbEntity
  8
9
  6
Continuous
 62
     7
370
    35
100
AcDbLine
 10
309.4703292893984
 20
345.6614024439732
 30
0.0
 11
309.4703292893983
 21
351.3727273093782
 31
0.0
  0
LINE
  5
141
330
1F
100
AcDbEntity
  8
9
  6
Continuous
 62
     7
370
    35
100
AcDbLine
 10
290.0655917797429
 20
351.0840521747832
 30
0.0
 11
290.0655917797429
 21
345.9500775785682
 31
0.0
  0
LINE
  5
142
330
1F
100
AcDbEntity
  8
9
  6
Continuous
 62
     7
370
    35
100
AcDbLine
 10
295.8750667990543
 20
351.0840521747832
 30
0.0
 11
295.8750667990543
 21
345.9500775785682
 31
0.0
  0
LINE
  5
143
330
1F
100
AcDbEntity
  8
9
  6
Continuous
 62
     7
370
    35
100
AcDbLine
 10
301.0655917797429
 20
351.0840521747832
 30
0.0
 11
301.0655917797429
 21
345.9500775785682
 31
0.0
  0
LINE
  5
144
330
1F
100
AcDbEntity
  8
9
  6
Continuous
 62
     7
370
    35
100
AcDbLine
 10
306.875066799054
 20
351.0840521747832
 30
0.0
 11
306.875066799054
 21
345.9500775785682
 31
0.0
  0
LINE
  5
145
330
1F
100
AcDbEntity
  8
9
  6
Continuous
 62
     7
370
    35
100
AcDbLine
 10
295.8750667990543
 20
345.9500775785682
 30
0.0
 11
301.0655917797429
 21
345.9500775785682
 31
0.0
  0
LINE
  5
146
330
1F
100
AcDbEntity
  8
9
  6
Continuous
 62
     7
370
    35
100
AcDbLine
 10
295.8750667990543
 20
351.0840521747832
 30
0.0
 11
301.0655917797429
 21
351.0840521747832
 31
0.0
  0
LINE
  5
147
330
1F
100
AcDbEntity
  8
9
  6
Continuous
 62
     7
370
    35
100
AcDbLine
 10
306.875066799054
 20
345.9500775785682
 30
0.0
 11
309.4703292893984
 21
345.9500775785682
 31
0.0
  0
LINE
  5
148
330
1F
100
AcDbEntity
  8
9
  6
Continuous
 62
     7
370
    35
100
AcDbLine
 10
306.875066799054
 20
351.0840521747832
 30
0.0
 11
309.4703292893984
 21
351.0840521747832
 31
0.0
  0
LINE
  5
149
330
1F
100
AcDbEntity
  8
9
  6
Continuous
 62
     7
370
    35
100
AcDbLine
 10
290.0655917797429
 20
351.0840521747832
 30
0.0
 11
287.4703292893984
 21
351.0840521747832
 31
0.0
  0
LINE
  5
14A
330
1F
100
AcDbEntity
  8
9
  6
Continuous
 62
     7
370
    35
100
AcDbLine
 10
290.0655917797429
 20
345.9500775785682
 30
0.0
 11
287.4703292893984
 21
345.9500775785682
 31
0.0
  0
ARC
  5
14B
330
1F
100
AcDbEntity
  8
9
  6
Continuous
 62
     7
370
    35
100
AcDbCircle
 10
292.9703292893983
 20
355.4763570201967
 30
0.0
 40
9.959292143521168
100
AcDbArc
 50
253.0425737058266
 51
286.9574262941733
  0
ARC
  5
14C
330
1F
100
AcDbEntity
  8
9
  6
Continuous
 62
     7
370
    35
100
AcDbCircle
 10
292.9703292893984
 20
341.5577727331547
 30
0.0
 40
9.959292143521168
100
AcDbArc
 50
73.04257370582535
 51
106.9574262941722
  0
ARC
  5
14D
330
1F
100
AcDbEntity
  8
9
  6
Continuous
 62
     7
370
    35
100
AcDbCircle
 10
303.9703292893985
 20
355.4763570201967
 30
0.0
 40
9.959292143521168
100
AcDbArc
 50
253.0425737058266
 51
286.9574262941733
  0
ARC
  5
14E
330
1F
100
AcDbEntity
  8
9
  6
Continuous
 62
     7
370
    35
100
AcDbCircle
 10
303.9703292893986
 20
341.5577727331547
 30
0.0
 40
9.959292143521168
100
AcDbArc
 50
73.0425737058266
 51
106.9574262941734
  0
LINE
  5
14F
330
1F
100
AcDbEntity
  8
9
  6
Continuous
 62
     7
370
    35
100
AcDbLine
 10
309.2203292893983
 20
358.5170648766762
 30
0.0
 11
298.4703292893983
 21
358.5170648766762
 31
0.0
  0
LINE
  5
150
330
1F
100
AcDbEntity
  8
9
  6
Continuous
 62
     7
370
    35
100
AcDbLine
 10
309.2203292893983
 20
351.5170648766762
 30
0.0
 11
309.2203292893985
 21
358.5170648766762
 31
0.0
  0
LINE
  5
151
330
1F
100
AcDbEntity
  8
9
  6
Continuous
 62
     7
370
    35
100
AcDbLine
 10
287.7203292893983
 20
358.5170648766762
 30
0.0
 11
298.4703292893983
 21
358.5170648766762
 31
0.0
  0
LINE
  5
152
330
1F
100
AcDbEntity
  8
9
  6
Continuous
 62
     7
370
    35
100
AcDbLine
 10
287.7203292893983
 20
351.5170648766762
 30
0.0
 11
287.7203292893983
 21
358.5170648766762
 31
0.0
  0
INSERT
  5
15B
330
1F
100
AcDbEntity
  8
0
100
AcDbBlockReference
  2
*G16
 10
0.0
 20
0.0
 30
0.0
  0
LINE
  5
15C
330
1F
100
AcDbEntity
  8
9
  6
Continuous
 62
     7
370
    35
100
AcDbLine
 10
319.9703292893987
 20
293.0570648766761
 30
0.0
 11
319.9703292893987
 21
282.0570648766761
 31
0.0
  0
LINE
  5
15D
330
1F
100
AcDbEntity
  8
9
  6
Continuous
 62
     7
370
    35
100
AcDbLine
 10
309.4703292893987
 20
293.0570648766761
 30
0.0
 11
309.4703292893987
 21
282.0570648766761
 31
0.0
  0
LINE
  5
15E
330
1F
100
AcDbEntity
  8
9
  6
Continuous
 62
     7
370
    35
100
AcDbLine
 10
287.4703292893987
 20
293.0570648766761
 30
0.0
 11
287.4703292893987
 21
282.0570648766761
 31
0.0
  0
LINE
  5
15F
330
1F
100
AcDbEntity
  8
9
  6
Continuous
 62
     7
370
    35
100
AcDbLine
 10
276.9703292893987
 20
282.0570648766761
 30
0.0
 11
276.9703292893987
 21
293.0570648766761
 31
0.0
  0
LINE
  5
160
330
1F
100
AcDbEntity
  8
9
  6
Continuous
 62
     7
370
    35
100
AcDbLine
 10
298.4703292893986
 20
279.0570648766761
 30
0.0
 11
315.3971585576915
 21
279.0570648766761
 31
0.0
  0
LINE
  5
161
330
1F
100
AcDbEntity
  8
9
  6
Continuous
 62
     7
370
    35
100
AcDbLine
 10
319.9703292893987
 20
282.0570648766761
 30
0.0
 11
276.9703292893987
 21
282.0570648766761
 31
0.0
  0
LINE
  5
162
330
1F
100
AcDbEntity
  8
9
  6
Continuous
 62
     7
370
    35
100
AcDbLine
 10
281.5435000211061
 20
279.0570648766761
 30
0.0
 11
298.4703292893986
 21
279.0570648766761
 31
0.0
  0
LINE
  5
163
330
1F
100
AcDbEntity
  8
8
  6
Continuous
 62
     4
370
    25
100
AcDbLine
 10
281.4703292893986
 20
282.0570648766761
 30
0.0
 11
283.5436477101545
 21
279.0570648766761
 31
0.0
  0
LINE
  5
164
330
1F
100
AcDbEntity
  8
8
  6
Continuous
 62
     4
370
    25
100
AcDbLine
 10
315.4703292893987
 20
282.0570648766761
 30
0.0
 11
313.397010868643
 21
279.0570648766761
 31
0.0
  0
LINE
  5
165
330
1F
100
AcDbEntity
  8
9
  6
Continuous
 62
     7
370
    35
100
AcDbLine
 10
281.5435000211061
 20
296.0570648766761
 30
0.0
 11
315.3971585576915
 21
296.0570648766761
 31
0.0
  0
LINE
  5
166
330
1F
100
AcDbEntity
  8
9
  6
Continuous
 62
     7
370
    35
100
AcDbLine
 10
276.9703292893987
 20
293.0570648766761
 30
0.0
 11
319.9703292893987
 21
293.0570648766761
 31
0.0
  0
LINE
  5
167
330
1F
100
AcDbEntity
  8
8
  6
Continuous
 62
     4
370
    25
100
AcDbLine
 10
283.5436477101545
 20
296.0570648766761
 30
0.0
 11
283.7011737472017
 21
302.5216876466079
 31
0.0
  0
LINE
  5
168
330
1F
100
AcDbEntity
  8
9
  6
Continuous
 62
     7
370
    35
100
AcDbLine
 10
281.7010609967157
 20
302.5170648766762
 30
0.0
 11
281.4703292893986
 21
293.0570648766761
 31
0.0
  0
LINE
  5
169
330
1F
100
AcDbEntity
  8
8
  6
Continuous
 62
     4
370
    25
100
AcDbLine
 10
281.4703292893986
 20
293.0570648766761
 30
0.0
 11
283.5436477101545
 21
296.0570648766761
 31
0.0
  0
LINE
  5
16A
330
1F
100
AcDbEntity
  8
9
  6
Continuous
 62
     7
370
    35
100
AcDbLine
 10
315.4703292893987
 20
293.0570648766761
 30
0.0
 11
315.2395975820816
 21
302.5170648766762
 31
0.0
  0
LINE
  5
16B
330
1F
100
AcDbEntity
  8
8
  6
Continuous
 62
     4
370
    25
100
AcDbLine
 10
313.397010868643
 20
296.0570648766761
 30
0.0
 11
313.2394848315955
 21
302.5216876466084
 31
0.0
  0
LINE
  5
16C
330
1F
100
AcDbEntity
  8
8
  6
Continuous
 62
     4
370
    25
100
AcDbLine
 10
315.4703292893987
 20
293.0570648766761
 30
0.0
 11
313.397010868643
 21
296.0570648766761
 31
0.0
  0
LINE
  5
16D
330
1F
100
AcDbEntity
  8
9
  6
Continuous
 62
     7
370
    35
100
AcDbLine
 10
316.7675063386706
 20
210.6286307484675
 30
0.0
 11
314.4487567982432
 21
210.6286307484675
 31
0.0
  0
LINE
  5
16E
330
1F
100
AcDbEntity
  8
9
  6
Continuous
 62
     7
370
    35
100
AcDbLine
 10
317.4703292893984
 20
196.1286307484675
 30
0.0
 11
314.0270244479965
 21
196.1286307484675
 31
0.0
  0
LINE
  5
16F
330
1F
100
AcDbEntity
  8
9
  6
Continuous
 62
     7
370
    35
100
AcDbLine
 10
317.6494021313744
 20
215.6286307484675
 30
0.0
 11
313.2085155511451
 21
215.6286307484675
 31
0.0
  0
LINE
  5
170
330
1F
100
AcDbEntity
  8
9
  6
Continuous
 62
     7
370
    35
100
AcDbLine
 10
316.7009476520069
 20
213.6286307484675
 30
0.0
 11
314.605845041195
 21
213.6286307484675
 31
0.0
  0
LINE
  5
171
330
1F
100
AcDbEntity
  8
9
  6
Continuous
 62
     7
370
    35
100
AcDbLine
 10
318.5240809721864
 20
222.6286307484675
 30
0.0
 11
313.4703292893984
 21
222.6286307484675
 31
0.0
  0
LINE
  5
172
330
1F
100
AcDbEntity
  8
9
  6
Continuous
 62
     7
370
    35
100
AcDbLine
 10
320.1117650177788
 20
224.4786307484674
 30
0.0
 11
313.4703292893984
 21
224.4786307484674
 31
0.0
  0
LINE
  5
173
330
1F
100
AcDbEntity
  8
9
  6
Continuous
 62
     7
370
    35
100
AcDbLine
 10
320.7703292893985
 20
242.1286307484675
 30
0.0
 11
307.411173258091
 21
242.1286307484675
 31
0.0
  0
LINE
  5
174
330
1F
100
AcDbEntity
  8
9
  6
Continuous
 62
     7
370
    35
100
AcDbLine
 10
277.8703292893982
 20
197.0523911791706
 30
0.0
 11
277.8703292893982
 21
209.0286307484671
 31
0.0
  0
LINE
  5
175
330
1F
100
AcDbEntity
  8
9
  6
Continuous
 62
     7
370
    35
100
AcDbLine
 10
284.8720232139966
 20
197.0523911791706
 30
0.0
 11
284.8720232139966
 21
209.0286307484671
 31
0.0
  0
LINE
  5
176
330
1F
100
AcDbEntity
  8
9
  6
Continuous
 62
     7
370
    35
100
AcDbLine
 10
282.9962841854284
 20
197.0523911791706
 30
0.0
 11
282.9962841854284
 21
209.0286307484671
 31
0.0
  0
LINE
  5
177
330
1F
100
AcDbEntity
  8
9
  6
Continuous
 62
     7
370
    35
100
AcDbLine
 10
275.4703292893981
 20
240.8647082824909
 30
0.0
 11
275.4703292893981
 21
225.4570578732137
 31
0.0
  0
LINE
  5
178
330
1F
100
AcDbEntity
  8
9
  6
Continuous
 62
     7
370
    35
100
AcDbLine
 10
275.2203292893965
 20
249.6286307484675
 30
0.0
 11
289.8245779783336
 21
249.6286307484675
 31
0.0
  0
LINE
  5
179
330
1F
100
AcDbEntity
  8
9
  6
Continuous
 62
     7
370
    35
100
AcDbLine
 10
276.1703292893979
 20
242.128630748467
 30
0.0
 11
288.4703292893981
 21
242.128630748467
 31
0.0
  0
LINE
  5
17A
330
1F
100
AcDbEntity
  8
9
  6
Continuous
 62
     7
370
    35
100
AcDbLine
 10
274.7203292893981
 20
248.3057550929352
 30
0.0
 11
274.7203292893981
 21
243.1965530457628
 31
0.0
  0
ARC
  5
17B
330
1F
100
AcDbEntity
  8
9
  6
Continuous
 62
     7
370
    35
100
AcDbCircle
 10
275.7203292893981
 20
250.9515064039992
 30
0.0
 40
2.0
100
AcDbArc
 50
179.9999999999998
 51
221.4096221092694
  0
ARC
  5
17C
330
1F
100
AcDbEntity
  8
9
  6
Continuous
 62
     7
370
    35
100
AcDbCircle
 10
272.7203292893981
 20
248.3057550929352
 30
0.0
 40
2.0
100
AcDbArc
 50
0.0
 51
41.40962210925997
  0
ARC
  5
17D
330
1F
100
AcDbEntity
  8
9
  6
Continuous
 62
     7
370
    35
100
AcDbCircle
 10
276.7203292893981
 20
243.1965530457628
 30
0.0
 40
2.0
100
AcDbArc
 50
179.9999999999998
 51
215.6590876961345
  0
ARC
  5
17E
330
1F
100
AcDbEntity
  8
9
  6
Continuous
 62
     7
370
    35
100
AcDbCircle
 10
273.4703292893981
 20
240.8647082824909
 30
0.0
 40
2.0
100
AcDbArc
 50
0.0
 51
35.65908769613873
  0
ARC
  5
17F
330
1F
100
AcDbEntity
  8
9
  6
Continuous
 62
     7
370
    35
100
AcDbCircle
 10
291.008002358279
 20
192.4648852670721
 30
0.0
 40
17.66374548139507
100
AcDbArc
 50
101.3355081699671
 51
110.3269651877106
  0
LINE
  5
180
330
1F
100
AcDbEntity
  8
9
  6
Continuous
 62
     7
370
    35
100
AcDbLine
 10
280.1731522401257
 20
210.628630748467
 30
0.0
 11
287.4919017805536
 21
210.628630748467
 31
0.0
  0
LINE
  5
181
330
1F
100
AcDbEntity
  8
9
  6
Continuous
 62
     7
370
    35
100
AcDbLine
 10
280.2397109267894
 20
213.6286307484675
 30
0.0
 11
287.3348135376017
 21
213.6286307484675
 31
0.0
  0
LINE
  5
182
330
1F
100
AcDbEntity
  8
9
  6
Continuous
 62
     7
370
    35
100
AcDbLine
 10
279.2912564474221
 20
215.628630748467
 30
0.0
 11
288.7203292893984
 21
215.628630748467
 31
0.0
  0
LINE
  5
183
330
1F
100
AcDbEntity
  8
9
  6
Continuous
 62
     7
370
    35
100
AcDbLine
 10
278.9240115966478
 20
222.6286307484675
 30
0.0
 11
288.4703292893981
 21
222.6286307484675
 31
0.0
  0
ARC
  5
184
330
1F
100
AcDbEntity
  8
9
  6
Continuous
 62
     7
370
    35
100
AcDbCircle
 10
275.4703292893981
 20
221.8002036237212
 30
0.0
 40
2.0
100
AcDbArc
 50
0.0
 51
45.0000000000046
  0
LINE
  5
185
330
1F
100
AcDbEntity
  8
9
  6
Continuous
 62
     7
370
    35
100
AcDbLine
 10
276.8845428517715
 20
223.2144171860946
 30
0.0
 11
276.056115727025
 21
224.0428443108403
 31
0.0
  0
ARC
  5
186
330
1F
100
AcDbEntity
  8
9
  6
Continuous
 62
     7
370
    35
100
AcDbCircle
 10
277.4703292893981
 20
225.4570578732137
 30
0.0
 40
2.0
100
AcDbArc
 50
179.9999999999998
 51
225.0000000000042
  0
LINE
  5
187
330
1F
100
AcDbEntity
  8
9
  6
Continuous
 62
     7
370
    35
100
AcDbLine
 10
277.4703292893981
 20
221.8002036237212
 30
0.0
 11
277.4703292893981
 21
216.4570578732137
 31
0.0
  0
ARC
  5
188
330
1F
100
AcDbEntity
  8
9
  6
Continuous
 62
     7
370
    35
100
AcDbCircle
 10
280.4333067374133
 20
206.5929959071764
 30
0.0
 40
3.535699432806041
100
AcDbArc
 50
43.54067175334804
 51
136.459328246652
  0
LINE
  5
189
330
1F
100
AcDbEntity
  8
9
  6
Continuous
 62
     7
370
    35
100
AcDbLine
 10
282.9962841854284
 20
209.0286307484671
 30
0.0
 11
284.8720232139966
 21
209.0286307484671
 31
0.0
  0
ARC
  5
18A
330
1F
100
AcDbEntity
  8
9
  6
Continuous
 62
     7
370
    35
100
AcDbCircle
 10
291.008002358279
 20
226.3767252127018
 30
0.0
 40
29.9594193296401
100
AcDbArc
 50
258.1816417592063
 51
264.0489506070742
  0
LINE
  5
18B
330
1F
100
AcDbEntity
  8
9
  6
Continuous
 62
     7
370
    35
100
AcDbLine
 10
279.4703292893981
 20
196.128630748467
 30
0.0
 11
287.9136341308002
 21
196.128630748467
 31
0.0
  0
ARC
  5
18C
330
1F
100
AcDbEntity
  8
9
  6
Continuous
 62
     7
370
    35
100
AcDbCircle
 10
280.4333067374133
 20
201.9061197690817
 30
0.0
 40
5.488855493047168
100
AcDbArc
 50
242.1640190936271
 51
297.8359809063721
  0
LINE
  5
18D
330
1F
100
AcDbEntity
  8
9
  6
Continuous
 62
     7
370
    35
100
AcDbLine
 10
279.4703292893981
 20
196.128630748467
 30
0.0
 11
277.8703292893982
 21
197.0523911791706
 31
0.0
  0
LINE
  5
18E
330
1F
100
AcDbEntity
  8
9
  6
Continuous
 62
     7
370
    35
100
AcDbLine
 10
282.9962841854286
 20
197.0523911791706
 30
0.0
 11
284.8720232139966
 21
197.0523911791706
 31
0.0
  0
LINE
  5
18F
330
1F
100
AcDbEntity
  8
9
  6
Continuous
 62
     7
370
    35
100
AcDbLine
 10
319.0703292893983
 20
197.0523911791706
 30
0.0
 11
319.0703292893983
 21
209.0286307484675
 31
0.0
  0
LINE
  5
190
330
1F
100
AcDbEntity
  8
9
  6
Continuous
 62
     7
370
    35
100
AcDbLine
 10
321.4703292893983
 20
240.8647082824909
 30
0.0
 11
321.4703292893984
 21
225.4570578732137
 31
0.0
  0
LINE
  5
191
330
1F
100
AcDbEntity
  8
9
  6
Continuous
 62
     7
370
    35
100
AcDbLine
 10
322.2203292893983
 20
248.3057550929352
 30
0.0
 11
322.2203292893981
 21
243.1965530457628
 31
0.0
  0
ARC
  5
192
330
1F
100
AcDbEntity
  8
9
  6
Continuous
 62
     7
370
    35
100
AcDbCircle
 10
321.2203292893983
 20
250.9515064039997
 30
0.0
 40
2.0
100
AcDbArc
 50
318.5903778907244
 51
0.0
  0
ARC
  5
193
330
1F
100
AcDbEntity
  8
9
  6
Continuous
 62
     7
370
    35
100
AcDbCircle
 10
324.2203292893983
 20
248.3057550929352
 30
0.0
 40
2.0
100
AcDbArc
 50
138.5903778907346
 51
179.9999999999998
  0
ARC
  5
194
330
1F
100
AcDbEntity
  8
9
  6
Continuous
 62
     7
370
    35
100
AcDbCircle
 10
320.2203292893983
 20
243.1965530457628
 30
0.0
 40
2.0
100
AcDbArc
 50
324.3409123038609
 51
0.0
  0
ARC
  5
195
330
1F
100
AcDbEntity
  8
9
  6
Continuous
 62
     7
370
    35
100
AcDbCircle
 10
323.4703292893983
 20
240.8647082824909
 30
0.0
 40
2.0
100
AcDbArc
 50
144.3409123038613
 51
179.9999999999998
  0
ARC
  5
196
330
1F
100
AcDbEntity
  8
9
  6
Continuous
 62
     7
370
    35
100
AcDbCircle
 10
321.4703292893981
 20
221.8002036237212
 30
0.0
 40
2.0
100
AcDbArc
 50
134.9999999999954
 51
179.9999999999998
  0
LINE
  5
197
330
1F
100
AcDbEntity
  8
9
  6
Continuous
 62
     7
370
    35
100
AcDbLine
 10
320.056115727025
 20
223.2144171860946
 30
0.0
 11
320.8845428517712
 21
224.0428443108408
 31
0.0
  0
ARC
  5
198
330
1F
100
AcDbEntity
  8
9
  6
Continuous
 62
     7
370
    35
100
AcDbCircle
 10
319.4703292893984
 20
225.4570578732137
 30
0.0
 40
2.0
100
AcDbArc
 50
314.9999999999951
 51
0.0
  0
LINE
  5
199
330
1F
100
AcDbEntity
  8
9
  6
Continuous
 62
     7
370
    35
100
AcDbLine
 10
318.8845428517712
 20
215.0428443108403
 30
0.0
 11
318.4561157270251
 21
214.6144171860942
 31
0.0
  0
LINE
  5
19A
330
1F
100
AcDbEntity
  8
9
  6
Continuous
 62
     7
370
    35
100
AcDbLine
 10
319.4703292893981
 20
221.8002036237212
 30
0.0
 11
319.4703292893981
 21
216.4570578732137
 31
0.0
  0
ARC
  5
19B
330
1F
100
AcDbEntity
  8
9
  6
Continuous
 62
     7
370
    35
100
AcDbCircle
 10
317.4703292893981
 20
216.4570578732137
 30
0.0
 40
2.0
100
AcDbArc
 50
314.9999999999951
 51
0.0
  0
ARC
  5
19C
330
1F
100
AcDbEntity
  8
9
  6
Continuous
 62
     7
370
    35
100
AcDbCircle
 10
316.5073518413832
 20
206.5929959071764
 30
0.0
 40
3.535699432806041
100
AcDbArc
 50
43.54067175335085
 51
126.8779346191063
  0
LINE
  5
19D
330
1F
100
AcDbEntity
  8
9
  6
Continuous
 62
     7
370
    35
100
AcDbLine
 10
318.4561157270253
 20
209.6428443108407
 30
0.0
 11
319.0703292893983
 21
209.0286307484675
 31
0.0
  0
ARC
  5
19E
330
1F
100
AcDbEntity
  8
9
  6
Continuous
 62
     7
370
    35
100
AcDbCircle
 10
316.5073518413832
 20
201.9061197690817
 30
0.0
 40
5.488855493047168
100
AcDbArc
 50
243.4014860161497
 51
297.8359809063721
  0
LINE
  5
19F
330
1F
100
AcDbEntity
  8
9
  6
Continuous
 62
     7
370
    35
100
AcDbLine
 10
317.4703292893984
 20
196.1286307484675
 30
0.0
 11
319.0703292893983
 21
197.0523911791706
 31
0.0
  0
LINE
  5
1A0
330
1F
100
AcDbEntity
  8
9
  6
Continuous
 62
     7
370
    35
100
AcDbLine
 10
317.8703292893982
 20
213.2002036237213
 30
0.0
 11
317.8703292893985
 21
211.0570578732136
 31
0.0
  0
ARC
  5
1A1
330
1F
100
AcDbEntity
  8
9
  6
Continuous
 62
     7
370
    35
100
AcDbCircle
 10
319.8703292893982
 20
213.2002036237213
 30
0.0
 40
2.0
100
AcDbArc
 50
135.0000000000046
 51
179.9999999999998
  0
ARC
  5
1A2
330
1F
100
AcDbEntity
  8
9
  6
Continuous
 62
     7
370
    35
100
AcDbCircle
 10
319.8703292893985
 20
211.0570578732136
 30
0.0
 40
2.0
100
AcDbArc
 50
179.9999999999998
 51
224.9999999999951
  0
ARC
  5
1A3
330
1F
100
AcDbEntity
  8
9
  6
Continuous
 62
     7
370
    35
100
AcDbCircle
 10
277.070329289398
 20
213.2002036237209
 30
0.0
 40
2.0
100
AcDbArc
 50
0.0
 51
45.0
  0
LINE
  5
1A4
330
1F
100
AcDbEntity
  8
9
  6
Continuous
 62
     7
370
    35
100
AcDbLine
 10
278.0561157270253
 20
215.0428443108403
 30
0.0
 11
278.4845428517714
 21
214.6144171860942
 31
0.0
  0
ARC
  5
1A5
330
1F
100
AcDbEntity
  8
9
  6
Continuous
 62
     7
370
    35
100
AcDbCircle
 10
279.4703292893984
 20
216.4570578732137
 30
0.0
 40
2.0
100
AcDbArc
 50
179.9999999999998
 51
225.0000000000042
  0
LINE
  5
1A6
330
1F
100
AcDbEntity
  8
9
  6
Continuous
 62
     7
370
    35
100
AcDbLine
 10
279.070329289398
 20
213.2002036237209
 30
0.0
 11
279.070329289398
 21
211.0570578732131
 31
0.0
  0
LINE
  5
1A7
330
1F
100
AcDbEntity
  8
9
  6
Continuous
 62
     7
370
    35
100
AcDbLine
 10
278.4845428517712
 20
209.6428443108402
 30
0.0
 11
277.8703292893982
 21
209.0286307484671
 31
0.0
  0
ARC
  5
1A8
330
1F
100
AcDbEntity
  8
9
  6
Continuous
 62
     7
370
    35
100
AcDbCircle
 10
277.070329289398
 20
211.0570578732131
 30
0.0
 40
2.0
100
AcDbArc
 50
315.0000000000043
 51
0.0
  0
LINE
  5
1A9
330
1F
100
AcDbEntity
  8
9
  6
Continuous
 62
     7
370
    35
100
AcDbLine
 10
282.9962841854283
 20
274.2048703177643
 30
0.0
 11
282.9962841854283
 21
258.6286307484675
 31
0.0
  0
LINE
  5
1AA
330
1F
100
AcDbEntity
  8
9
  6
Continuous
 62
     7
370
    35
100
AcDbLine
 10
284.8720232139965
 20
274.2048703177643
 30
0.0
 11
284.8720232139965
 21
258.6286307484675
 31
0.0
  0
LINE
  5
1AB
330
1F
100
AcDbEntity
  8
9
  6
Continuous
 62
     7
370
    35
100
AcDbLine
 10
297.1439815025615
 20
274.2048703177643
 30
0.0
 11
297.1439815025615
 21
258.6286307484675
 31
0.0
  0
LINE
  5
1AC
330
1F
100
AcDbEntity
  8
9
  6
Continuous
 62
     7
370
    35
100
AcDbLine
 10
277.8703292893981
 20
274.2048703177643
 30
0.0
 11
277.8703292893981
 21
258.6286307484675
 31
0.0
  0
ARC
  5
1AD
330
1F
100
AcDbEntity
  8
9
  6
Continuous
 62
     7
370
    35
100
AcDbCircle
 10
275.8703292893981
 20
258.6286307484675
 30
0.0
 40
2.0
100
AcDbArc
 50
269.9999999999998
 51
0.0
  0
ARC
  5
1AE
330
1F
100
AcDbEntity
  8
9
  6
Continuous
 62
     7
370
    35
100
AcDbCircle
 10
274.720329289398
 20
255.6286307484675
 30
0.0
 40
1.0
100
AcDbArc
 50
89.99999999999991
 51
179.9999999999998
  0
ARC
  5
1AF
330
1F
100
AcDbEntity
  8
9
  6
Continuous
 62
     7
370
    35
100
AcDbCircle
 10
291.0080023582789
 20
244.880536284239
 30
0.0
 40
29.95941932963345
100
AcDbArc
 50
78.18164175920434
 51
101.8183582407959
  0
ARC
  5
1B0
330
1F
100
AcDbEntity
  8
9
  6
Continuous
 62
     7
370
    35
100
AcDbCircle
 10
280.4333067374132
 20
269.3511417278542
 30
0.0
 40
5.488855493045804
100
AcDbArc
 50
62.16401909362722
 51
117.8359809063707
  0
LINE
  5
1B1
330
1F
100
AcDbEntity
  8
9
  6
Continuous
 62
     7
370
    35
100
AcDbLine
 10
279.470329289398
 20
275.1286307484675
 30
0.0
 11
277.8703292893981
 21
274.2048703177643
 31
0.0
  0
LINE
  5
1B2
330
1F
100
AcDbEntity
  8
9
  6
Continuous
 62
     7
370
    35
100
AcDbLine
 10
282.9962841854283
 20
274.2048703177643
 30
0.0
 11
284.8720232139965
 21
274.2048703177643
 31
0.0
  0
ARC
  5
1B3
330
1F
100
AcDbEntity
  8
9
  6
Continuous
 62
     7
370
    35
100
AcDbCircle
 10
322.2203292893983
 20
255.6286307484679
 30
0.0
 40
1.0
100
AcDbArc
 50
0.0
 51
89.99999999999991
  0
ARC
  5
1B4
330
1F
100
AcDbEntity
  8
9
  6
Continuous
 62
     7
370
    35
100
AcDbCircle
 10
321.0703292893982
 20
258.6286307484679
 30
0.0
 40
2.0
100
AcDbArc
 50
179.9999999999998
 51
269.9999999999998
  0
ARC
  5
1B5
330
1F
100
AcDbEntity
  8
9
  6
Continuous
 62
     7
370
    35
100
AcDbCircle
 10
305.9326562205175
 20
244.8805362842395
 30
0.0
 40
29.95941932963345
100
AcDbArc
 50
78.18164175920391
 51
101.8183582407961
  0
LINE
  5
1B6
330
1F
100
AcDbEntity
  8
9
  6
Continuous
 62
     7
370
    35
100
AcDbLine
 10
319.0703292893982
 20
274.2048703177643
 30
0.0
 11
319.0703292893982
 21
258.6286307484679
 31
0.0
  0
LINE
  5
1B7
330
1F
100
AcDbEntity
  8
9
  6
Continuous
 62
     7
370
    35
100
AcDbLine
 10
312.0686353648
 20
274.2048703177643
 30
0.0
 11
312.0686353648
 21
258.6286307484679
 31
0.0
  0
LINE
  5
1B8
330
1F
100
AcDbEntity
  8
9
  6
Continuous
 62
     7
370
    35
100
AcDbLine
 10
313.944374393368
 20
274.2048703177643
 30
0.0
 11
313.944374393368
 21
258.6286307484679
 31
0.0
  0
LINE
  5
1B9
330
1F
100
AcDbEntity
  8
9
  6
Continuous
 62
     7
370
    35
100
AcDbLine
 10
313.944374393368
 20
274.2048703177643
 30
0.0
 11
312.0686353648
 21
274.2048703177643
 31
0.0
  0
LINE
  5
1BA
330
1F
100
AcDbEntity
  8
9
  6
Continuous
 62
     7
370
    35
100
AcDbLine
 10
317.4703292893983
 20
275.1286307484679
 30
0.0
 11
319.0703292893982
 21
274.2048703177643
 31
0.0
  0
ARC
  5
1BB
330
1F
100
AcDbEntity
  8
9
  6
Continuous
 62
     7
370
    35
100
AcDbCircle
 10
316.5073518413831
 20
269.3511417278546
 30
0.0
 40
5.488855493045804
100
AcDbArc
 50
62.16401909362501
 51
117.835980906375
  0
LINE
  5
1BC
330
1F
100
AcDbEntity
  8
9
  6
Continuous
 62
     7
370
    35
100
AcDbLine
 10
299.796677076235
 20
274.2048703177643
 30
0.0
 11
299.796677076235
 21
258.6286307484675
 31
0.0
  0
LINE
  5
1BD
330
1F
100
AcDbEntity
  8
9
  6
Continuous
 62
     7
370
    35
100
AcDbLine
 10
298.4703292893984
 20
216.6286307484675
 30
0.0
 11
298.4703292893983
 21
248.1286307484675
 31
0.0
  0
CIRCLE
  5
1BE
330
1F
100
AcDbEntity
  8
9
  6
Continuous
 62
     7
370
    35
100
AcDbCircle
 10
298.4703292893983
 20
235.628630748467
 30
0.0
 40
7.700000000000045
  0
POLYLINE
  5
1BF
330
1F
100
AcDbEntity
  8
9
  6
Continuous
 62
     7
370
    35
100
AcDb2dPolyline
 66
     1
 10
0.0
 20
0.0
 30
0.0
  0
VERTEX
  5
1C0
330
1BF
100
AcDbEntity
  8
9
  6
Continuous
 62
     7
370
    35
100
AcDbVertex
100
AcDb2dVertex
 10
291.9703292893983
 20
239.3814074981997
 30
0.0
  0
VERTEX
  5
1C1
330
1BF
100
AcDbEntity
  8
9
  6
Continuous
 62
     7
370
    35
100
AcDbVertex
100
AcDb2dVertex
 10
291.9703292893984
 20
231.8758539987348
 30
0.0
  0
VERTEX
  5
1C2
330
1BF
100
AcDbEntity
  8
9
  6
Continuous
 62
     7
370
    35
100
AcDbVertex
100
AcDb2dVertex
 10
298.4703292893984
 20
228.1230772490021
 30
0.0
  0
VERTEX
  5
1C3
330
1BF
100
AcDbEntity
  8
9
  6
Continuous
 62
     7
370
    35
100
AcDbVertex
100
AcDb2dVertex
 10
304.9703292893984
 20
231.8758539987348
 30
0.0
  0
VERTEX
  5
1C4
330
1BF
100
AcDbEntity
  8
9
  6
Continuous
 62
     7
370
    35
100
AcDbVertex
100
AcDb2dVertex
 10
304.9703292893983
 20
239.3814074982001
 30
0.0
  0
VERTEX
  5
1C5
330
1BF
100
AcDbEntity
  8
9
  6
Continuous
 62
     7
370
    35
100
AcDbVertex
100
AcDb2dVertex
 10
298.4703292893983
 20
243.1341842479324
 30
0.0
  0
VERTEX
  5
1C6
330
1BF
100
AcDbEntity
  8
9
  6
Continuous
 62
     7
370
    35
100
AcDbVertex
100
AcDb2dVertex
 10
291.9703292893983
 20
239.3814074981997
 30
0.0
  0
SEQEND
  5
1C7
330
1BF
100
AcDbEntity
  8
9
  6
Continuous
 62
     7
370
    35
  0
CIRCLE
  5
1C8
330
1F
100
AcDbEntity
  8
9
  6
Continuous
 62
     7
370
    35
100
AcDbCircle
 10
298.4703292893983
 20
235.628630748467
 30
0.0
 40
6.499999999999972
  0
CIRCLE
  5
1C9
330
1F
100
AcDbEntity
  8
9
  6
Continuous
 62
     7
370
    35
100
AcDbCircle
 10
298.4703292893983
 20
235.628630748467
 30
0.0
 40
4.0
  0
CIRCLE
  5
1CA
330
1F
100
AcDbEntity
  8
9
  6
Continuous
 62
     7
370
    35
100
AcDbCircle
 10
298.4703292893983
 20
235.628630748467
 30
0.0
 40
3.300000000000011
  0
LINE
  5
1CB
330
1F
100
AcDbEntity
  8
9
  6
Continuous
 62
     7
370
    35
100
AcDbLine
 10
301.7322305754583
 20
236.1286307484675
 30
0.0
 11
295.2084280033383
 21
236.1286307484675
 31
0.0
  0
LINE
  5
1CC
330
1F
100
AcDbEntity
  8
9
  6
Continuous
 62
     7
370
    35
100
AcDbLine
 10
301.7322305754584
 20
235.1286307484675
 30
0.0
 11
295.2084280033383
 21
235.1286307484675
 31
0.0
  0
ARC
  5
1CD
330
1F
100
AcDbEntity
  8
9
  6
Continuous
 62
     7
370
    35
100
AcDbCircle
 10
298.4703292893983
 20
235.628630748467
 30
0.0
 40
10.5
100
AcDbArc
 50
21.51018826688955
 51
111.2263176635959
  0
ARC
  5
1CE
330
1F
100
AcDbEntity
  8
9
  6
Continuous
 62
     7
370
    35
100
AcDbCircle
 10
298.4703292893983
 20
235.628630748467
 30
0.0
 40
11.0
100
AcDbArc
 50
339.51268488528
 51
20.48731511472462
  0
ARC
  5
1CF
330
1F
100
AcDbEntity
  8
9
  6
Continuous
 62
     7
370
    35
100
AcDbCircle
 10
308.3666352948866
 20
229.7786307484675
 30
0.0
 40
2.0
100
AcDbArc
 50
89.99999999999991
 51
91.3428741859906
  0
ARC
  5
1D0
330
1F
100
AcDbEntity
  8
9
  6
Continuous
 62
     7
370
    35
100
AcDbCircle
 10
312.4703292893984
 20
232.7786307484675
 30
0.0
 40
1.0
100
AcDbArc
 50
269.9999999999998
 51
0.0
  0
LINE
  5
1D1
330
1F
100
AcDbEntity
  8
9
  6
Continuous
 62
     7
370
    35
100
AcDbLine
 10
312.4703292893983
 20
239.4786307484674
 30
0.0
 11
308.2390293052652
 21
239.4786307484674
 31
0.0
  0
ARC
  5
1D2
330
1F
100
AcDbEntity
  8
9
  6
Continuous
 62
     7
370
    35
100
AcDbCircle
 10
308.3666352948865
 20
241.4786307484674
 30
0.0
 40
2.0
100
AcDbArc
 50
248.7435516539952
 51
269.9999999999998
  0
ARC
  5
1D3
330
1F
100
AcDbEntity
  8
9
  6
Continuous
 62
     7
370
    35
100
AcDbCircle
 10
312.4703292893983
 20
238.4786307484674
 30
0.0
 40
1.0
100
AcDbArc
 50
0.0
 51
89.99999999999991
  0
LINE
  5
1D4
330
1F
100
AcDbEntity
  8
9
  6
Continuous
 62
     7
370
    35
100
AcDbLine
 10
312.4703292893984
 20
231.7786307484675
 30
0.0
 11
308.3189979033258
 21
231.7786307484675
 31
0.0
  0
ARC
  5
1D5
330
1F
100
AcDbEntity
  8
9
  6
Continuous
 62
     7
370
    35
100
AcDbCircle
 10
298.4703292893983
 20
235.628630748467
 30
0.0
 40
10.5
100
AcDbArc
 50
162.2472098380555
 51
197.7527901619419
  0
LINE
  5
1D6
330
1F
100
AcDbEntity
  8
9
  6
Continuous
 62
     7
370
    35
100
AcDbLine
 10
312.1627446491723
 20
124.9346575327741
 30
0.0
 11
314.364669217117
 21
209.0227642708919
 31
0.0
  0
LINE
  5
1D7
330
1F
100
AcDbEntity
  8
9
  6
Continuous
 62
     7
370
    35
100
AcDbLine
 10
289.7779139296247
 20
124.9346575327736
 30
0.0
 11
287.5759893616795
 21
209.0227642708928
 31
0.0
  0
LINE
  5
1D8
330
1F
100
AcDbEntity
  8
9
  6
Continuous
 62
     7
370
    35
100
AcDbLine
 10
314.364669217117
 20
209.0227642708919
 30
0.0
 11
314.6223842747496
 21
213.9444895277838
 31
0.0
  0
LINE
  5
1D9
330
1F
100
AcDbEntity
  8
9
  6
Continuous
 62
     7
370
    35
100
AcDbLine
 10
287.5759893616795
 20
209.0227642708928
 30
0.0
 11
287.3182743040471
 21
213.9444895277834
 31
0.0
  0
LINE
  5
1DA
330
1F
100
AcDbEntity
  8
9
  6
Continuous
 62
     7
370
    35
100
AcDbLine
 10
287.3182743040471
 20
213.9444895277834
 30
0.0
 11
314.6223842747496
 21
213.9444895277838
 31
0.0
  0
LINE
  5
1DB
330
1F
100
AcDbEntity
  8
9
  6
Continuous
 62
     7
370
    35
100
AcDbLine
 10
288.4703292893984
 20
220.6286307484675
 30
0.0
 11
313.4703292893984
 21
220.6286307484675
 31
0.0
  0
ARC
  5
1DC
330
1F
100
AcDbEntity
  8
9
  6
Continuous
 62
     7
370
    35
100
AcDbCircle
 10
298.4703292893983
 20
235.628630748467
 30
0.0
 40
10.0
100
AcDbArc
 50
342.7647147429137
 51
107.2352852570882
  0
LINE
  5
1DD
330
1F
100
AcDbEntity
  8
9
  6
Continuous
 62
     7
370
    35
100
AcDbLine
 10
288.4703292893983
 20
246.6286307484675
 30
0.0
 11
288.4703292893984
 21
220.6286307484675
 31
0.0
  0
ARC
  5
1DE
330
1F
100
AcDbEntity
  8
9
  6
Continuous
 62
     7
370
    35
100
AcDbCircle
 10
292.4703292893983
 20
246.6286307484675
 30
0.0
 40
4.0
100
AcDbArc
 50
89.99999999999991
 51
179.9999999999998
  0
ARC
  5
1DF
330
1F
100
AcDbEntity
  8
9
  6
Continuous
 62
     7
370
    35
100
AcDbCircle
 10
293.4703292893983
 20
249.6286307484675
 30
0.0
 40
1.0
100
AcDbArc
 50
0.0
 51
90.00000000001303
  0
LINE
  5
1E0
330
1F
100
AcDbEntity
  8
9
  6
Continuous
 62
     7
370
    35
100
AcDbLine
 10
292.4703292893983
 20
250.6286307484675
 30
0.0
 11
293.4703292893983
 21
250.6286307484675
 31
0.0
  0
ARC
  5
1E1
330
1F
100
AcDbEntity
  8
9
  6
Continuous
 62
     7
370
    35
100
AcDbCircle
 10
295.2703292893983
 20
245.9436683150493
 30
0.0
 40
0.8000000000000114
100
AcDbArc
 50
179.9999999999998
 51
287.2352852570828
  0
LINE
  5
1E2
330
1F
100
AcDbEntity
  8
9
  6
Continuous
 62
     7
370
    35
100
AcDbLine
 10
294.4703292893983
 20
249.6286307484675
 30
0.0
 11
294.4703292893983
 21
245.9436683150493
 31
0.0
  0
LINE
  5
1E3
330
1F
100
AcDbEntity
  8
9
  6
Continuous
 62
     7
370
    35
100
AcDbLine
 10
288.8203292893983
 20
213.9444895277834
 30
0.0
 11
288.4703292893984
 21
220.6286307484675
 31
0.0
  0
LINE
  5
1E4
330
1F
100
AcDbEntity
  8
9
  6
Continuous
 62
     7
370
    35
100
AcDbLine
 10
313.4703292893984
 20
230.6286307484675
 30
0.0
 11
313.4703292893984
 21
220.628630748467
 31
0.0
  0
ARC
  5
1E5
330
1F
100
AcDbEntity
  8
9
  6
Continuous
 62
     7
370
    35
100
AcDbCircle
 10
312.4703292893984
 20
230.6286307484675
 30
0.0
 40
1.0
100
AcDbArc
 50
0.0
 51
89.99999999999991
  0
ARC
  5
1E6
330
1F
100
AcDbEntity
  8
9
  6
Continuous
 62
     7
370
    35
100
AcDbCircle
 10
308.7853668559804
 20
232.4286307484672
 30
0.0
 40
0.8000000000000114
100
AcDbArc
 50
162.7647147429013
 51
269.9999999999998
  0
LINE
  5
1E7
330
1F
100
AcDbEntity
  8
9
  6
Continuous
 62
     7
370
    35
100
AcDbLine
 10
308.7853668559804
 20
231.6286307484675
 30
0.0
 11
312.4703292893984
 21
231.6286307484675
 31
0.0
  0
LINE
  5
1E8
330
1F
100
AcDbEntity
  8
9
  6
Continuous
 62
     7
370
    35
100
AcDbLine
 10
313.1203292893982
 20
213.9444895277838
 30
0.0
 11
313.4703292893984
 21
220.628630748467
 31
0.0
  0
LINE
  5
1E9
330
1F
100
AcDbEntity
  8
9
  6
Continuous
 62
     7
370
    35
100
AcDbLine
 10
314.3677513457172
 20
209.0816253646749
 30
0.0
 11
287.5729072330795
 21
209.0816253646744
 31
0.0
  0
LINE
  5
1EA
330
1F
100
AcDbEntity
  8
9
  6
Continuous
 62
     7
370
    35
100
AcDbLine
 10
295.2760292169903
 20
119.5786307484673
 30
0.0
 11
306.6646293618066
 21
119.5786307484673
 31
0.0
  0
ARC
  5
1EB
330
1F
100
AcDbEntity
  8
9
  6
Continuous
 62
     7
370
    35
100
AcDbCircle
 10
295.2760292169901
 20
125.0786307484673
 30
0.0
 40
5.5
100
AcDbArc
 50
181.4999999999988
 51
269.9999999999998
  0
ARC
  5
1EC
330
1F
100
AcDbEntity
  8
9
  6
Continuous
 62
     7
370
    35
100
AcDbCircle
 10
306.6646293618066
 20
125.0786307484673
 30
0.0
 40
5.5
100
AcDbArc
 50
269.9999999999998
 51
358.5000000000005
  0
MTEXT
  5
1ED
330
1F
100
AcDbEntity
  8
9
  6
Continuous
 62
     7
370
     9
100
AcDbMText
 10
304.7646055640715
 20
198.9940404498984
 30
0.0
 40
4.199999999999989
 41
13.30397704355996
 71
     7
 72
     1
  1
{\fＭＳ Ｐゴシック;\W0.642857;SHUT}
 11
1.615544574432587E-15
 21
-1.0
 31
0.0
 73
     1
 44
1.0
1001
ACAD
1000
ACAD_MTEXT_DEFINED_HEIGHT_BEGIN
1070
    46
1040
4.199999999999989
1000
ACAD_MTEXT_DEFINED_HEIGHT_END
  0
MTEXT
  5
1EE
330
1F
100
AcDbEntity
  8
9
  6
Continuous
 62
     7
370
     9
100
AcDbMText
 10
292.7989657731106
 20
198.9940404498984
 30
0.0
 40
4.199999999999989
 41
13.39215902396396
 71
     7
 72
     1
  1
{\fＭＳ Ｐゴシック;\W0.642857;OPEN}
 11
1.615544574432587E-15
 21
-1.0
 31
0.0
 73
     1
 44
1.0
1001
ACAD
1000
ACAD_MTEXT_DEFINED_HEIGHT_BEGIN
1070
    46
1040
4.199999999999989
1000
ACAD_MTEXT_DEFINED_HEIGHT_END
  0
HATCH
  5
1EF
330
1F
100
AcDbEntity
  8
9
  6
Continuous
 62
     7
370
    35
100
AcDbHatch
 10
0.0
 20
0.0
 30
0.0
210
0.0
220
0.0
230
1.0
  2
SOLID
 70
     1
 71
     0
 91
        2
 92
        0
 93
        7
 72
     1
 10
303.9703292893984
 20
191.8286307484668
 11
302.2203292893984
 21
194.0786307484668
 72
     1
 10
302.2203292893984
 20
194.0786307484668
 11
302.2203292893984
 21
192.9286307484672
 72
     1
 10
302.2203292893984
 20
192.9286307484672
 11
300.9703292893984
 21
192.9286307484672
 72
     1
 10
300.9703292893984
 20
192.9286307484672
 11
300.9703292893984
 21
190.7286307484669
 72
     1
 10
300.9703292893984
 20
190.7286307484669
 11
302.2203292893984
 21
190.7286307484674
 72
     1
 10
302.2203292893984
 20
190.7286307484674
 11
302.2203292893984
 21
189.5786307484668
 72
     1
 10
302.2203292893984
 20
189.5786307484668
 11
303.9703292893984
 21
191.8286307484668
 97
        0
 92
        0
 93
        7
 72
     1
 10
299.7203292893984
 20
189.5786307484668
 11
299.7203292893984
 21
190.7286307484669
 72
     1
 10
299.7203292893984
 20
190.7286307484669
 11
300.9703292893984
 21
190.7286307484669
 72
     1
 10
300.9703292893984
 20
190.7286307484669
 11
300.9703292893984
 21
192.9286307484672
 72
     1
 10
300.9703292893984
 20
192.9286307484672
 11
299.7203292893984
 21
192.9286307484672
 72
     1
 10
299.7203292893984
 20
192.9286307484672
 11
299.7203292893984
 21
194.0786307484668
 72
     1
 10
299.7203292893984
 20
194.0786307484668
 11
297.9703292893984
 21
191.8286307484668
 72
     1
 10
297.9703292893984
 20
191.8286307484668
 11
299.7203292893984
 21
189.5786307484668
 97
        0
 75
     0
 76
     1
 98
        0
  0
LINE
  5
1F0
330
1F
100
AcDbEntity
  8
9
  6
Continuous
 62
     7
370
    35
100
AcDbLine
 10
303.9703292893984
 20
191.8286307484668
 30
0.0
 11
302.2203292893984
 21
194.0786307484668
 31
0.0
  0
LINE
  5
1F1
330
1F
100
AcDbEntity
  8
9
  6
Continuous
 62
     7
370
    35
100
AcDbLine
 10
303.9703292893984
 20
191.8286307484668
 30
0.0
 11
302.2203292893984
 21
189.5786307484668
 31
0.0
  0
LINE
  5
1F2
330
1F
100
AcDbEntity
  8
9
  6
Continuous
 62
     7
370
    35
100
AcDbLine
 10
299.7203292893984
 20
190.7286307484669
 30
0.0
 11
299.7203292893984
 21
189.5786307484668
 31
0.0
  0
LINE
  5
1F3
330
1F
100
AcDbEntity
  8
9
  6
Continuous
 62
     7
370
    35
100
AcDbLine
 10
297.9703292893984
 20
191.8286307484668
 30
0.0
 11
299.7203292893984
 21
189.5786307484668
 31
0.0
  0
LINE
  5
1F4
330
1F
100
AcDbEntity
  8
9
  6
Continuous
 62
     7
370
    35
100
AcDbLine
 10
302.2203292893984
 20
190.7286307484674
 30
0.0
 11
302.2203292893984
 21
189.5786307484668
 31
0.0
  0
LINE
  5
1F5
330
1F
100
AcDbEntity
  8
9
  6
Continuous
 62
     7
370
    35
100
AcDbLine
 10
302.2203292893984
 20
194.0786307484668
 30
0.0
 11
302.2203292893984
 21
192.9286307484672
 31
0.0
  0
LINE
  5
1F6
330
1F
100
AcDbEntity
  8
9
  6
Continuous
 62
     7
370
    35
100
AcDbLine
 10
297.9703292893984
 20
191.8286307484668
 30
0.0
 11
299.7203292893984
 21
194.0786307484668
 31
0.0
  0
LINE
  5
1F7
330
1F
100
AcDbEntity
  8
9
  6
Continuous
 62
     7
370
    35
100
AcDbLine
 10
299.7203292893984
 20
194.0786307484668
 30
0.0
 11
299.7203292893984
 21
192.9286307484672
 31
0.0
  0
LINE
  5
1F8
330
1F
100
AcDbEntity
  8
9
  6
Continuous
 62
     7
370
    35
100
AcDbLine
 10
321.7203292893999
 20
249.6286307484675
 30
0.0
 11
294.4703292893983
 21
249.628630748467
 31
0.0
  0
LINE
  5
1F9
330
1F
100
AcDbEntity
  8
9
  6
Continuous
 62
     7
370
    35
100
AcDbLine
 10
273.720329289398
 20
255.6286307484675
 30
0.0
 11
273.7203292893981
 21
250.9515064039992
 31
0.0
  0
LINE
  5
1FA
330
1F
100
AcDbEntity
  8
9
  6
Continuous
 62
     7
370
    35
100
AcDbLine
 10
323.2203292893983
 20
255.6286307484679
 30
0.0
 11
323.2203292893983
 21
250.9515064039997
 31
0.0
  0
LINE
  5
1FB
330
1F
100
AcDbEntity
  8
9
  6
Continuous
 62
     7
370
    35
100
AcDbLine
 10
274.720329289398
 20
256.6286307484675
 30
0.0
 11
322.2203292893983
 21
256.6286307484679
 31
0.0
  0
LINE
  5
1FC
330
1F
100
AcDbEntity
  8
9
  6
Continuous
 62
     7
370
    35
100
AcDbLine
 10
273.720329289398
 20
253.6286307484675
 30
0.0
 11
323.2203292893983
 21
253.6286307484675
 31
0.0
  0
LINE
  5
1FD
330
1F
100
AcDbEntity
  8
9
  6
Continuous
 62
     7
370
    35
100
AcDbLine
 10
279.470329289398
 20
275.1286307484675
 30
0.0
 11
317.4703292893983
 21
275.1286307484679
 31
0.0
  0
LINE
  5
1FE
330
1F
100
AcDbEntity
  8
9
  6
Continuous
 62
     7
370
    35
100
AcDbLine
 10
297.1439815025615
 20
274.2048703177643
 30
0.0
 11
299.796677076235
 21
274.2048703177643
 31
0.0
  0
LINE
  5
1FF
330
1F
100
AcDbEntity
  8
9
  6
Continuous
 62
     7
370
    35
100
AcDbLine
 10
313.4703292893984
 20
232.7786307484675
 30
0.0
 11
313.4703292893983
 21
238.4786307484674
 31
0.0
  0
LINE
  5
200
330
1F
100
AcDbEntity
  8
9
  6
Continuous
 62
     7
370
    35
100
AcDbLine
 10
302.2203292893984
 20
190.7286307484674
 30
0.0
 11
299.7203292893984
 21
190.7286307484669
 31
0.0
  0
LINE
  5
201
330
1F
100
AcDbEntity
  8
9
  6
Continuous
 62
     7
370
    35
100
AcDbLine
 10
302.2203292893984
 20
192.9286307484672
 30
0.0
 11
299.7203292893984
 21
192.9286307484672
 31
0.0
  0
LINE
  5
202
330
1F
100
AcDbEntity
  8
9
  6
Continuous
 62
     7
370
    35
100
AcDbLine
 10
315.4703292893987
 20
282.0570648766761
 30
0.0
 11
315.3013430911498
 21
275.1286307484679
 31
0.0
  0
LINE
  5
203
330
1F
100
AcDbEntity
  8
8
  6
Continuous
 62
     4
370
    25
100
AcDbLine
 10
313.397010868643
 20
279.0570648766761
 30
0.0
 11
313.3012851500602
 21
275.1286307484679
 31
0.0
  0
LINE
  5
204
330
1F
100
AcDbEntity
  8
9
  6
Continuous
 62
     7
370
    35
100
AcDbLine
 10
281.6393216520574
 20
275.1283780076683
 30
0.0
 11
281.4703292893986
 21
282.0570648766761
 31
0.0
  0
LINE
  5
205
330
1F
100
AcDbEntity
  8
8
  6
Continuous
 62
     4
370
    25
100
AcDbLine
 10
283.5436477101545
 20
279.0570648766761
 30
0.0
 11
283.6393867863559
 21
275.1280825726408
 31
0.0
  0
LINE
  5
206
330
1F
100
AcDbEntity
  8
8
  6
Continuous
 62
     4
370
    25
100
AcDbLine
 10
312.4703292893983
 20
239.6286307484675
 30
0.0
 11
308.178573208872
 21
239.6286307484675
 31
0.0
  0
LINE
  5
207
330
1F
100
AcDbEntity
  8
8
  6
Continuous
 62
     4
370
    25
100
AcDbLine
 10
288.4703292893984
 20
245.6286306716675
 30
0.0
 11
283.4703292893984
 21
245.6286306716675
 31
0.0
  0
LINE
  5
208
330
1F
100
AcDbEntity
  8
8
  6
Continuous
 62
     4
370
    25
100
AcDbLine
 10
309.4703292893983
 20
245.6286307484675
 30
0.0
 11
283.4703292893983
 21
245.6286307484675
 31
0.0
  0
ARC
  5
209
330
1F
100
AcDbEntity
  8
8
  6
Continuous
 62
     4
370
    25
100
AcDbCircle
 10
309.4703292893983
 20
241.6286307484675
 30
0.0
 40
4.0
100
AcDbArc
 50
0.0
 51
89.99999999999991
  0
ARC
  5
20A
330
1F
100
AcDbEntity
  8
8
  6
Continuous
 62
     4
370
    25
100
AcDbCircle
 10
312.4703292893983
 20
240.6286307484675
 30
0.0
 40
1.0
100
AcDbArc
 50
269.9999999999998
 51
0.0000000000260551
  0
LINE
  5
20B
330
1F
100
AcDbEntity
  8
8
  6
Continuous
 62
     4
370
    25
100
AcDbLine
 10
313.4703292893983
 20
241.6286307484675
 30
0.0
 11
313.4703292893983
 21
240.6286307484675
 31
0.0
  0
LINE
  5
20C
330
1F
100
AcDbEntity
  8
8
  6
Continuous
 62
     4
370
    25
100
AcDbLine
 10
276.8288935610175
 20
224.4786307484674
 30
0.0
 11
288.4703292893981
 21
224.4786307484674
 31
0.0
  0
LINE
  5
20D
330
1F
100
AcDbEntity
  8
8
  6
Continuous
 62
     4
370
    25
100
AcDbLine
 10
187.7763561307718
 20
221.9362154429327
 30
0.0
 11
271.8644628688894
 21
219.7342908749879
 31
0.0
  0
LINE
  5
20E
330
1F
100
AcDbEntity
  8
8
  6
Continuous
 62
     4
370
    25
100
AcDbLine
 10
187.7763561307713
 20
244.3210461624803
 30
0.0
 11
271.8644628688903
 21
246.5229707304256
 31
0.0
  0
LINE
  5
20F
330
1F
100
AcDbEntity
  8
8
  6
Continuous
 62
     4
370
    25
100
AcDbLine
 10
271.8644628688894
 20
219.7342908749879
 30
0.0
 11
276.7861881257811
 21
219.4765758173553
 31
0.0
  0
LINE
  5
210
330
1F
100
AcDbEntity
  8
8
  6
Continuous
 62
     4
370
    25
100
AcDbLine
 10
271.8644628688903
 20
246.5229707304256
 30
0.0
 11
276.7861881257809
 21
246.7806857880578
 31
0.0
  0
LINE
  5
211
330
1F
100
AcDbEntity
  8
8
  6
Continuous
 62
     4
370
    25
100
AcDbLine
 10
276.7861881257809
 20
246.7806857880578
 30
0.0
 11
276.7861881257811
 21
219.4765758173553
 31
0.0
  0
LINE
  5
212
330
1F
100
AcDbEntity
  8
8
  6
Continuous
 62
     4
370
    25
100
AcDbLine
 10
271.9233239626724
 20
219.7312087463879
 30
0.0
 11
271.9233239626722
 21
246.5260528590256
 31
0.0
  0
LINE
  5
213
330
1F
100
AcDbEntity
  8
8
  6
Continuous
 62
     4
370
    25
100
AcDbLine
 10
182.4203293464647
 20
238.8229308751143
 30
0.0
 11
182.420329346465
 21
227.4343307302979
 31
0.0
  0
ARC
  5
214
330
1F
100
AcDbEntity
  8
8
  6
Continuous
 62
     4
370
    25
100
AcDbCircle
 10
187.9203293464647
 20
238.8229308751147
 30
0.0
 40
5.5
100
AcDbArc
 50
91.49999999999916
 51
179.9999999999998
  0
ARC
  5
215
330
1F
100
AcDbEntity
  8
8
  6
Continuous
 62
     4
370
    25
100
AcDbCircle
 10
187.920329346465
 20
227.4343307302979
 30
0.0
 40
5.5
100
AcDbArc
 50
179.9999999999998
 51
268.500000000001
  0
LINE
  5
216
330
1F
100
AcDbEntity
  8
8
  6
Continuous
 62
     4
370
    25
100
AcDbLine
 10
283.4703292893984
 20
245.6286306716675
 30
0.0
 11
283.4703292893984
 21
220.6286306716675
 31
0.0
  0
LINE
  5
217
330
1F
100
AcDbEntity
  8
8
  6
Continuous
 62
     4
370
    25
100
AcDbLine
 10
276.7861880687143
 20
245.2786306716671
 30
0.0
 11
283.4703292893984
 21
245.6286306716675
 31
0.0
  0
LINE
  5
218
330
1F
100
AcDbEntity
  8
8
  6
Continuous
 62
     4
370
    25
100
AcDbLine
 10
276.7861880687145
 20
220.9786306716674
 30
0.0
 11
283.4703292893981
 21
220.6286306716675
 31
0.0
  0
LINE
  5
219
330
1F
100
AcDbEntity
  8
8
  6
Continuous
 62
     4
370
    25
100
AcDbLine
 10
288.4703292934198
 20
220.6286306716675
 30
0.0
 11
283.4703292893981
 21
220.6286306716675
 31
0.0
  0
DIMENSION
  5
221
330
1F
100
AcDbEntity
  8
6
  6
Continuous
 62
     3
370
    25
100
AcDbDimension
  2
Dim1
 10
212.1310039869128
 20
149.2893054459826
 30
0.0
 11
214.8887204335403
 21
152.0470218926105
 31
0.0
 70
   165
 71
     5
 42
-1.0
  3
Standard
100
AcDb3PointAngularDimension
 13
298.4703292893984
 23
235.6286307484675
 33
0.0
 14
298.4703292893984
 24
235.6286307484675
 34
0.0
 15
298.4703292893984
 25
235.6286307484675
 35
0.0
1001
ACAD
1000
DSTYLE
1002
{
1070
   340
1005
21A
1070
   140
1040
6.600000000000001
1070
    40
1040
1.0
1070
   147
1040
0.0
1070
    76
1070
     1
1070
    75
1070
     1
1070
   344
1005
7C
1070
   343
1005
7C
1070
   173
1070
     1
1070
   289
1070
     2
1070
   288
1070
     1
1070
    77
1070
     1
1070
   172
1070
     1
1070
   174
1070
     0
1070
    74
1070
     0
1070
    73
1070
     0
1070
   284
1070
     8
1070
    78
1070
     8
1070
    42
1040
2.0
1070
    44
1040
2.0
1070
    43
1040
30.0
1070
   271
1070
     2
1070
    41
1040
4.600000000000001
1002
}
  0
MTEXT
  5
222
330
1F
100
AcDbEntity
  8
6
  6
Continuous
 62
     3
370
     9
100
AcDbMText
 10
162.5069129658529
 20
222.2927490112352
 30
0.0
 40
10.0
 41
12.1612905788
 71
     7
 72
     1
  1
{\fＭＳ Ｐゴシック;\W0.714286;開}
 73
     1
 44
1.0
1001
ACAD
1000
ACAD_MTEXT_DEFINED_HEIGHT_BEGIN
1070
    46
1040
10.0
1000
ACAD_MTEXT_DEFINED_HEIGHT_END
  0
MTEXT
  5
223
330
1F
100
AcDbEntity
  8
6
  6
Continuous
 62
     3
370
     9
100
AcDbMText
 10
284.267406793017
 20
96.64830456678874
 30
0.0
 40
10.0
 41
12.0395762444
 71
     7
 72
     1
  1
{\fＭＳ Ｐゴシック;\W0.714286;閉}
 73
     1
 44
1.0
1001
ACAD
1000
ACAD_MTEXT_DEFINED_HEIGHT_BEGIN
1070
    46
1040
10.0
1000
ACAD_MTEXT_DEFINED_HEIGHT_END
  0
LINE
  5
224
330
1F
100
AcDbEntity
  8
9
  6
Continuous
 62
     7
370
    35
100
AcDbLine
 10
94.49804718922758
 20
324.0170648766762
 30
0.0
 11
150.2480471892272
 21
324.0170648766762
 31
0.0
  0
LINE
  5
225
330
1F
100
AcDbEntity
  8
9
  6
Continuous
 62
     7
370
    35
100
AcDbLine
 10
94.49804718922758
 20
341.0170648766762
 30
0.0
 11
150.2480471892272
 21
341.0170648766762
 31
0.0
  0
LINE
  5
226
330
1F
100
AcDbEntity
  8
9
  6
Continuous
 62
     7
370
    35
100
AcDbLine
 10
116.5753193884174
 20
213.9444895277838
 30
0.0
 11
120.2480471892276
 21
211.8240391433255
 31
0.0
  0
LINE
  5
227
330
1F
100
AcDbEntity
  8
9
  6
Continuous
 62
     7
370
    35
100
AcDbLine
 10
117.4980471892276
 20
119.5786307484673
 30
0.0
 11
123.4980471892276
 21
119.5786307484673
 31
0.0
  0
LINE
  5
228
330
1F
100
AcDbEntity
  8
9
  6
Continuous
 62
     7
370
    35
100
AcDbLine
 10
73.24804718922746
 20
293.0570648766761
 30
0.0
 11
73.24804718922746
 21
282.0570648766761
 31
0.0
  0
LINE
  5
229
330
1F
100
AcDbEntity
  8
9
  6
Continuous
 62
     7
370
    35
100
AcDbLine
 10
51.24804718922746
 20
293.0570648766761
 30
0.0
 11
51.24804718922746
 21
282.0570648766761
 31
0.0
  0
POLYLINE
  5
22A
330
1F
100
AcDbEntity
  8
9
  6
Continuous
 62
     7
370
    35
100
AcDb2dPolyline
 66
     1
 10
0.0
 20
0.0
 30
0.0
  0
VERTEX
  5
22B
330
22A
100
AcDbEntity
  8
9
  6
Continuous
 62
     7
370
    35
100
AcDbVertex
100
AcDb2dVertex
 10
40.74804718922746
 20
293.0570648766761
 30
0.0
  0
VERTEX
  5
22C
330
22A
100
AcDbEntity
  8
9
  6
Continuous
 62
     7
370
    35
100
AcDbVertex
100
AcDb2dVertex
 10
83.74804718922746
 20
293.0570648766761
 30
0.0
  0
VERTEX
  5
22D
330
22A
100
AcDbEntity
  8
9
  6
Continuous
 62
     7
370
    35
100
AcDbVertex
100
AcDb2dVertex
 10
83.74804718922746
 20
282.0570648766761
 30
0.0
  0
VERTEX
  5
22E
330
22A
100
AcDbEntity
  8
9
  6
Continuous
 62
     7
370
    35
100
AcDbVertex
100
AcDb2dVertex
 10
40.74804718922746
 20
282.0570648766761
 30
0.0
  0
VERTEX
  5
22F
330
22A
100
AcDbEntity
  8
9
  6
Continuous
 62
     7
370
    35
100
AcDbVertex
100
AcDb2dVertex
 10
40.74804718922746
 20
293.0570648766761
 30
0.0
  0
SEQEND
  5
230
330
22A
100
AcDbEntity
  8
9
  6
Continuous
 62
     7
370
    35
  0
LINE
  5
231
330
1F
100
AcDbEntity
  8
9
  6
Continuous
 62
     7
370
    35
100
AcDbLine
 10
63.57439518922752
 20
274.2048697484674
 30
0.0
 11
62.24804718922746
 21
274.2048697484674
 31
0.0
  0
LINE
  5
232
330
1F
100
AcDbEntity
  8
9
  6
Continuous
 62
     7
370
    35
100
AcDbLine
 10
81.24804718922746
 20
275.1286307484675
 30
0.0
 11
62.24804718922746
 21
275.1286307484675
 31
0.0
  0
LINE
  5
233
330
1F
100
AcDbEntity
  8
9
  6
Continuous
 62
     7
370
    35
100
AcDbLine
 10
45.32121792093483
 20
279.0570648766761
 30
0.0
 11
79.17487645752021
 21
279.0570648766761
 31
0.0
  0
MTEXT
  5
234
330
1F
100
AcDbEntity
  8
9
  6
Continuous
 62
     7
370
     9
100
AcDbMText
 10
57.25925118922737
 20
235.3043167484675
 30
0.0
 40
10.0
 41
3.0530012212
 71
     8
 72
     1
  1
{\fＭＳ Ｐゴシック;\W0.714286;1}
 11
1.615544574432587E-15
 21
-1.0
 31
0.0
 73
     1
 44
1.0
1001
ACAD
1000
ACAD_MTEXT_DEFINED_HEIGHT_BEGIN
1070
    46
1040
10.0
1000
ACAD_MTEXT_DEFINED_HEIGHT_END
  0
LINE
  5
235
330
1F
100
AcDbEntity
  8
9
  6
Continuous
 62
     7
370
    35
100
AcDbLine
 10
85.99804718922746
 20
256.6286307484675
 30
0.0
 11
62.24804718922746
 21
256.6286307484675
 31
0.0
  0
LINE
  5
236
330
1F
100
AcDbEntity
  8
9
  6
Continuous
 62
     7
370
    35
100
AcDbLine
 10
85.49804718922746
 20
249.6286307484675
 30
0.0
 11
62.24804718922746
 21
249.6286307484675
 31
0.0
  0
LINE
  5
237
330
1F
100
AcDbEntity
  8
9
  6
Continuous
 62
     7
370
    35
100
AcDbLine
 10
83.69083318922753
 20
242.1286307484675
 30
0.0
 11
62.24804718922746
 21
242.1286307484675
 31
0.0
  0
LINE
  5
238
330
1F
100
AcDbEntity
  8
9
  6
Continuous
 62
     7
370
    35
100
AcDbLine
 10
86.99804718922746
 20
253.6286307484675
 30
0.0
 11
62.24804718922746
 21
253.6286307484675
 31
0.0
  0
LINE
  5
239
330
1F
100
AcDbEntity
  8
9
  6
Continuous
 62
     7
370
    35
100
AcDbLine
 10
63.57439518922752
 20
209.0286307484675
 30
0.0
 11
62.24804718922746
 21
209.0286307484675
 31
0.0
  0
LINE
  5
23A
330
1F
100
AcDbEntity
  8
9
  6
Continuous
 62
     7
370
    35
100
AcDbLine
 10
80.47866518922751
 20
213.628630748467
 30
0.0
 11
62.24804718922746
 21
213.628630748467
 31
0.0
  0
LINE
  5
23B
330
1F
100
AcDbEntity
  8
9
  6
Continuous
 62
     7
370
    35
100
AcDbLine
 10
80.54522418922738
 20
210.6286307484675
 30
0.0
 11
62.24804718922746
 21
210.6286307484675
 31
0.0
  0
POLYLINE
  5
23C
330
1F
100
AcDbEntity
  8
9
  6
Continuous
 62
     7
370
    35
100
AcDb2dPolyline
 66
     1
 10
0.0
 20
0.0
 30
0.0
  0
VERTEX
  5
23D
330
23C
100
AcDbEntity
  8
9
  6
Continuous
 62
     7
370
    35
100
AcDbVertex
100
AcDb2dVertex
 10
78.09758380677113
 20
178.1324421067438
 30
0.0
  0
VERTEX
  5
23E
330
23C
100
AcDbEntity
  8
9
  6
Continuous
 62
     7
370
    35
100
AcDbVertex
100
AcDb2dVertex
 10
46.39851057168369
 20
178.1324421067438
 30
0.0
  0
SEQEND
  5
23F
330
23C
100
AcDbEntity
  8
9
  6
Continuous
 62
     7
370
    35
  0
ARC
  5
240
330
1F
100
AcDbEntity
  8
9
  6
Continuous
 62
     7
370
    35
100
AcDbCircle
 10
62.24804718922746
 20
212.2157754400769
 30
0.0
 40
34.0833333333328
100
AcDbArc
 50
252.9384687801027
 51
287.0615312198964
  0
LINE
  5
241
330
1F
100
AcDbEntity
  8
9
  6
Continuous
 62
     7
370
    35
100
AcDbLine
 10
63.57439518922729
 20
197.0523907484676
 30
0.0
 11
62.24804718922746
 21
197.0523907484676
 31
0.0
  0
LINE
  5
242
330
1F
100
AcDbEntity
  8
9
  6
Continuous
 62
     7
370
    35
100
AcDbLine
 10
81.24804718922746
 20
196.128630748467
 30
0.0
 11
62.24804718922746
 21
196.128630748467
 31
0.0
  0
POLYLINE
  5
243
330
1F
100
AcDbEntity
  8
9
  6
Continuous
 62
     7
370
    35
100
AcDb2dPolyline
 66
     1
 10
0.0
 20
0.0
 30
0.0
  0
VERTEX
  5
244
330
243
100
AcDbEntity
  8
9
  6
Continuous
 62
     7
370
    35
100
AcDbVertex
100
AcDb2dVertex
 10
46.39851057168391
 20
188.1324421067438
 30
0.0
  0
VERTEX
  5
245
330
243
100
AcDbEntity
  8
9
  6
Continuous
 62
     7
370
    35
100
AcDbVertex
100
AcDb2dVertex
 10
78.09758380677113
 20
188.1324421067438
 30
0.0
  0
SEQEND
  5
246
330
243
100
AcDbEntity
  8
9
  6
Continuous
 62
     7
370
    35
  0
LINE
  5
247
330
1F
100
AcDbEntity
  8
9
  6
Continuous
 62
     7
370
    35
100
AcDbLine
 10
45.24804718922746
 20
191.1324421067438
 30
0.0
 11
79.14073913031598
 21
191.1324421067438
 31
0.0
  0
ARC
  5
248
330
1F
100
AcDbEntity
  8
9
  6
Continuous
 62
     7
370
    35
100
AcDbCircle
 10
62.24804718922746
 20
154.0491087734104
 30
0.0
 40
34.0833333333334
100
AcDbArc
 50
72.9384687801031
 51
107.0615312198969
  0
LINE
  5
249
330
1F
100
AcDbEntity
  8
9
  6
Continuous
 62
     7
370
    35
100
AcDbLine
 10
45.24804718922746
 20
175.1324421067438
 30
0.0
 11
79.24804718922746
 21
175.1324421067438
 31
0.0
  0
LINE
  5
24A
330
1F
100
AcDbEntity
  8
9
  6
Continuous
 62
     7
370
    35
100
AcDbLine
 10
83.88948318922758
 20
224.4786307484674
 30
0.0
 11
62.24804718922746
 21
224.4786307484674
 31
0.0
  0
LINE
  5
24B
330
1F
100
AcDbEntity
  8
9
  6
Continuous
 62
     7
370
    35
100
AcDbLine
 10
82.3017991892275
 20
222.6286307484675
 30
0.0
 11
62.24804718922746
 21
222.6286307484675
 31
0.0
  0
LINE
  5
24C
330
1F
100
AcDbEntity
  8
9
  6
Continuous
 62
     7
370
    35
100
AcDbLine
 10
81.42712018922748
 20
215.628630748467
 30
0.0
 11
62.24804718922746
 21
215.628630748467
 31
0.0
  0
LINE
  5
24D
330
1F
100
AcDbEntity
  8
9
  6
Continuous
 62
     7
370
    35
100
AcDbLine
 10
48.64974118922737
 20
197.0523907484676
 30
0.0
 11
48.6497411892276
 21
209.0286307484675
 31
0.0
  0
LINE
  5
24E
330
1F
100
AcDbEntity
  8
9
  6
Continuous
 62
     7
370
    35
100
AcDbLine
 10
60.92169918922741
 20
197.0523907484676
 30
0.0
 11
60.92169918922741
 21
209.0286307484675
 31
0.0
  0
LINE
  5
24F
330
1F
100
AcDbEntity
  8
9
  6
Continuous
 62
     7
370
    35
100
AcDbLine
 10
46.77400218922753
 20
197.0523907484676
 30
0.0
 11
46.77400218922753
 21
209.0286307484675
 31
0.0
  0
LINE
  5
250
330
1F
100
AcDbEntity
  8
9
  6
Continuous
 62
     7
370
    35
100
AcDbLine
 10
41.64804718922733
 20
197.0523907484676
 30
0.0
 11
41.64804718922733
 21
209.0286307484675
 31
0.0
  0
LINE
  5
251
330
1F
100
AcDbEntity
  8
9
  6
Continuous
 62
     7
370
    35
100
AcDbLine
 10
46.77400218922753
 20
197.0523907484676
 30
0.0
 11
48.64974118922737
 21
197.0523907484676
 31
0.0
  0
ARC
  5
252
330
1F
100
AcDbEntity
  8
9
  6
Continuous
 62
     7
370
    35
100
AcDbCircle
 10
46.20337971600748
 20
190.75755698177
 30
0.0
 40
12.66120791411041
100
AcDbArc
 50
274.3272801182948
 51
298.5167942723193
  0
ARC
  5
253
330
1F
100
AcDbEntity
  8
9
  6
Continuous
 62
     7
370
    35
100
AcDbCircle
 10
46.20337971600759
 20
175.5073272317177
 30
0.0
 40
12.66120791411041
100
AcDbArc
 50
61.48320572768042
 51
85.6727198817049
  0
LINE
  5
254
330
1F
100
AcDbEntity
  8
9
  6
Continuous
 62
     7
370
    35
100
AcDbLine
 10
43.24804718922746
 20
196.128630748467
 30
0.0
 11
62.24804718922746
 21
196.128630748467
 31
0.0
  0
POLYLINE
  5
255
330
1F
100
AcDbEntity
  8
8
  6
Continuous
 62
     4
370
    25
100
AcDb2dPolyline
 66
     1
 10
0.0
 20
0.0
 30
0.0
  0
VERTEX
  5
256
330
255
100
AcDbEntity
  8
8
  6
Continuous
 62
     4
370
    25
100
AcDbVertex
100
AcDb2dVertex
 10
47.55955505750501
 20
168.6324421067438
 30
0.0
  0
VERTEX
  5
257
330
255
100
AcDbEntity
  8
8
  6
Continuous
 62
     4
370
    25
100
AcDbVertex
100
AcDb2dVertex
 10
47.35535524813895
 20
175.1324421067438
 30
0.0
  0
VERTEX
  5
258
330
255
100
AcDbEntity
  8
8
  6
Continuous
 62
     4
370
    25
100
AcDbVertex
100
AcDb2dVertex
 10
45.26110918227778
 20
178.1324421067438
 30
0.0
  0
SEQEND
  5
259
330
255
100
AcDbEntity
  8
8
  6
Continuous
 62
     4
370
    25
  0
POLYLINE
  5
25A
330
1F
100
AcDbEntity
  8
9
  6
Continuous
 62
     7
370
    35
100
AcDb2dPolyline
 66
     1
 10
0.0
 20
0.0
 30
0.0
  0
VERTEX
  5
25B
330
25A
100
AcDbEntity
  8
9
  6
Continuous
 62
     7
370
    35
100
AcDbVertex
100
AcDb2dVertex
 10
45.24804718922746
 20
178.5482258192274
 30
0.0
  0
VERTEX
  5
25C
330
25A
100
AcDbEntity
  8
9
  6
Continuous
 62
     7
370
    35
100
AcDbVertex
100
AcDb2dVertex
 10
45.55955505750501
 20
168.6324421067438
 30
0.0
  0
SEQEND
  5
25D
330
25A
100
AcDbEntity
  8
9
  6
Continuous
 62
     7
370
    35
  0
LINE
  5
25E
330
1F
100
AcDbEntity
  8
9
  6
Continuous
 62
     7
370
    35
100
AcDbLine
 10
46.3985105716838
 20
188.1324421067438
 30
0.0
 11
42.24804718922746
 21
186.6324421067438
 31
0.0
  0
LINE
  5
25F
330
1F
100
AcDbEntity
  8
9
  6
Continuous
 62
     7
370
    35
100
AcDbLine
 10
46.3985105716838
 20
178.1324421067438
 30
0.0
 11
42.24804718922746
 21
179.6324421067438
 31
0.0
  0
POLYLINE
  5
260
330
1F
100
AcDbEntity
  8
9
  6
Continuous
 62
     7
370
    35
100
AcDb2dPolyline
 66
     1
 10
0.0
 20
0.0
 30
0.0
  0
VERTEX
  5
261
330
260
100
AcDbEntity
  8
9
  6
Continuous
 62
     7
370
    35
100
AcDbVertex
100
AcDb2dVertex
 10
42.24804718922746
 20
179.6324421067438
 30
0.0
  0
VERTEX
  5
262
330
260
100
AcDbEntity
  8
9
  6
Continuous
 62
     7
370
    35
100
AcDbVertex
100
AcDb2dVertex
 10
42.24804718922746
 20
186.6324421067438
 30
0.0
  0
SEQEND
  5
263
330
260
100
AcDbEntity
  8
9
  6
Continuous
 62
     7
370
    35
  0
ARC
  5
264
330
1F
100
AcDbEntity
  8
9
  6
Continuous
 62
     7
370
    35
100
AcDbCircle
 10
44.21102418922737
 20
201.9061197484675
 30
0.0
 40
5.488855000000001
100
AcDbArc
 50
242.1640190000001
 51
297.8359809999969
  0
LINE
  5
265
330
1F
100
AcDbEntity
  8
9
  6
Continuous
 62
     7
370
    35
100
AcDbLine
 10
43.24804718922746
 20
196.128630748467
 30
0.0
 11
41.64804718922733
 21
197.0523907484676
 31
0.0
  0
POLYLINE
  5
266
330
1F
100
AcDbEntity
  8
9
  6
Continuous
 62
     7
370
    35
100
AcDb2dPolyline
 66
     1
 10
0.0
 20
0.0
 30
0.0
  0
VERTEX
  5
267
330
266
100
AcDbEntity
  8
9
  6
Continuous
 62
     7
370
    35
100
AcDbVertex
100
AcDb2dVertex
 10
45.24804718922746
 20
187.7166583942603
 30
0.0
  0
VERTEX
  5
268
330
266
100
AcDbEntity
  8
9
  6
Continuous
 62
     7
370
    35
100
AcDbVertex
100
AcDb2dVertex
 10
45.51231228939992
 20
196.128630748467
 30
0.0
  0
SEQEND
  5
269
330
266
100
AcDbEntity
  8
9
  6
Continuous
 62
     7
370
    35
  0
POLYLINE
  5
26A
330
1F
100
AcDbEntity
  8
8
  6
Continuous
 62
     4
370
    25
100
AcDb2dPolyline
 66
     1
 10
0.0
 20
0.0
 30
0.0
  0
VERTEX
  5
26B
330
26A
100
AcDbEntity
  8
8
  6
Continuous
 62
     4
370
    25
100
AcDbVertex
100
AcDb2dVertex
 10
47.51231228939992
 20
196.128630748467
 30
0.0
  0
VERTEX
  5
26C
330
26A
100
AcDbEntity
  8
8
  6
Continuous
 62
     4
370
    25
100
AcDbVertex
100
AcDb2dVertex
 10
47.35535524813895
 20
191.1324421067438
 30
0.0
  0
VERTEX
  5
26D
330
26A
100
AcDbEntity
  8
8
  6
Continuous
 62
     4
370
    25
100
AcDbVertex
100
AcDb2dVertex
 10
45.26110918227778
 20
188.1324421067438
 30
0.0
  0
SEQEND
  5
26E
330
26A
100
AcDbEntity
  8
8
  6
Continuous
 62
     4
370
    25
  0
ARC
  5
26F
330
1F
100
AcDbEntity
  8
9
  6
Continuous
 62
     7
370
    35
100
AcDbCircle
 10
54.78572018922728
 20
226.3767247484675
 30
0.0
 40
29.95941900000001
100
AcDbArc
 50
258.1816419999996
 51
281.8183579999996
  0
LINE
  5
270
330
1F
100
AcDbEntity
  8
9
  6
Continuous
 62
     7
370
    35
100
AcDbLine
 10
52.24804718922746
 20
186.6324421067438
 30
0.0
 11
52.24804718922746
 21
179.6324421067438
 31
0.0
  0
LINE
  5
271
330
1F
100
AcDbEntity
  8
9
  6
Continuous
 62
     7
370
    35
100
AcDbLine
 10
62.24804718922746
 20
197.0523907484676
 30
0.0
 11
60.92169918922741
 21
197.0523907484676
 31
0.0
  0
ARC
  5
272
330
1F
100
AcDbEntity
  8
9
  6
Continuous
 62
     7
370
    35
100
AcDbCircle
 10
37.24804718922735
 20
240.8647077484675
 30
0.0
 40
2.0
100
AcDbArc
 50
0.0
 51
35.6590879999923
  0
LINE
  5
273
330
1F
100
AcDbEntity
  8
9
  6
Continuous
 62
     7
370
    35
100
AcDbLine
 10
46.77400218922753
 20
209.0286307484675
 30
0.0
 11
48.6497411892276
 21
209.0286307484675
 31
0.0
  0
LINE
  5
274
330
1F
100
AcDbEntity
  8
9
  6
Continuous
 62
     7
370
    35
100
AcDbLine
 10
40.60661118922758
 20
224.4786307484674
 30
0.0
 11
62.24804718922746
 21
224.4786307484674
 31
0.0
  0
LINE
  5
275
330
1F
100
AcDbEntity
  8
9
  6
Continuous
 62
     7
370
    35
100
AcDbLine
 10
43.06897418922745
 20
215.628630748467
 30
0.0
 11
62.24804718922746
 21
215.628630748467
 31
0.0
  0
LINE
  5
276
330
1F
100
AcDbEntity
  8
9
  6
Continuous
 62
     7
370
    35
100
AcDbLine
 10
44.01742818922753
 20
213.628630748467
 30
0.0
 11
62.24804718922746
 21
213.628630748467
 31
0.0
  0
LINE
  5
277
330
1F
100
AcDbEntity
  8
9
  6
Continuous
 62
     7
370
    35
100
AcDbLine
 10
42.70172918922731
 20
222.6286307484675
 30
0.0
 11
62.24804718922746
 21
222.6286307484675
 31
0.0
  0
LINE
  5
278
330
1F
100
AcDbEntity
  8
9
  6
Continuous
 62
     7
370
    35
100
AcDbLine
 10
43.95087018922754
 20
210.6286307484675
 30
0.0
 11
62.24804718922746
 21
210.6286307484675
 31
0.0
  0
LINE
  5
279
330
1F
100
AcDbEntity
  8
9
  6
Continuous
 62
     7
370
    35
100
AcDbLine
 10
41.24804718922746
 20
221.8002027484677
 30
0.0
 11
41.24804718922746
 21
216.4570577484674
 31
0.0
  0
ARC
  5
27A
330
1F
100
AcDbEntity
  8
9
  6
Continuous
 62
     7
370
    35
100
AcDbCircle
 10
43.24804718922724
 20
216.4570577484674
 30
0.0
 40
2.0
100
AcDbArc
 50
179.9999999999998
 51
225.0000000000089
  0
ARC
  5
27B
330
1F
100
AcDbEntity
  8
9
  6
Continuous
 62
     7
370
    35
100
AcDbCircle
 10
44.21102418922737
 20
206.5929957484677
 30
0.0
 40
3.535698999999994
100
AcDbArc
 50
43.54067199999707
 51
136.459328000003
  0
LINE
  5
27C
330
1F
100
AcDbEntity
  8
9
  6
Continuous
 62
     7
370
    35
100
AcDbLine
 10
41.83383318922756
 20
215.0428437484675
 30
0.0
 11
42.66226018922748
 21
214.2144167484676
 31
0.0
  0
ARC
  5
27D
330
1F
100
AcDbEntity
  8
9
  6
Continuous
 62
     7
370
    35
100
AcDbCircle
 10
41.24804718922724
 20
211.4570577484674
 30
0.0
 40
2.0
100
AcDbArc
 50
314.9999999999905
 51
0.0
  0
LINE
  5
27E
330
1F
100
AcDbEntity
  8
9
  6
Continuous
 62
     7
370
    35
100
AcDbLine
 10
43.24804718922746
 20
212.8002027484672
 30
0.0
 11
43.24804718922746
 21
211.4570577484674
 31
0.0
  0
ARC
  5
27F
330
1F
100
AcDbEntity
  8
9
  6
Continuous
 62
     7
370
    35
100
AcDbCircle
 10
41.24804718922724
 20
212.8002027484677
 30
0.0
 40
2.0
100
AcDbArc
 50
0.0
 51
45.00000000000922
  0
LINE
  5
280
330
1F
100
AcDbEntity
  8
9
  6
Continuous
 62
     7
370
    35
100
AcDbLine
 10
42.66226018922748
 20
210.0428437484675
 30
0.0
 11
41.64804718922733
 21
209.0286307484675
 31
0.0
  0
ARC
  5
281
330
1F
100
AcDbEntity
  8
9
  6
Continuous
 62
     7
370
    35
100
AcDbCircle
 10
39.24804718922724
 20
221.8002027484677
 30
0.0
 40
2.0
100
AcDbArc
 50
0.0
 51
45.00000000000922
  0
LINE
  5
282
330
1F
100
AcDbEntity
  8
9
  6
Continuous
 62
     7
370
    35
100
AcDbLine
 10
39.24804718922746
 20
240.8647077484675
 30
0.0
 11
39.24804718922746
 21
225.4570577484674
 31
0.0
  0
LINE
  5
283
330
1F
100
AcDbEntity
  8
9
  6
Continuous
 62
     7
370
    35
100
AcDbLine
 10
40.66226018922748
 20
223.2144167484676
 30
0.0
 11
39.83383318922733
 21
224.0428437484675
 31
0.0
  0
ARC
  5
284
330
1F
100
AcDbEntity
  8
9
  6
Continuous
 62
     7
370
    35
100
AcDbCircle
 10
41.24804718922724
 20
225.4570577484674
 30
0.0
 40
2.0
100
AcDbArc
 50
179.9999999999998
 51
225.0000000000089
  0
ARC
  5
285
330
1F
100
AcDbEntity
  8
9
  6
Continuous
 62
     7
370
    35
100
AcDbCircle
 10
54.78572018922728
 20
192.4648847484677
 30
0.0
 40
17.66374499999999
100
AcDbArc
 50
69.67303500000139
 51
110.3269649999986
  0
LINE
  5
286
330
1F
100
AcDbEntity
  8
9
  6
Continuous
 62
     7
370
    35
100
AcDbLine
 10
62.24804718922746
 20
209.0286307484675
 30
0.0
 11
60.92169918922741
 21
209.0286307484675
 31
0.0
  0
LINE
  5
287
330
1F
100
AcDbEntity
  8
9
  6
Continuous
 62
     7
370
    35
100
AcDbLine
 10
46.77400218922753
 20
274.2048697484674
 30
0.0
 11
48.6497411892276
 21
274.2048697484674
 31
0.0
  0
LINE
  5
288
330
1F
100
AcDbEntity
  8
9
  6
Continuous
 62
     7
370
    35
100
AcDbLine
 10
43.24804718922746
 20
275.1286307484675
 30
0.0
 11
62.24804718922746
 21
275.1286307484675
 31
0.0
  0
LINE
  5
289
330
1F
100
AcDbEntity
  8
9
  6
Continuous
 62
     7
370
    35
100
AcDbLine
 10
39.94804718922728
 20
242.1286307484675
 30
0.0
 11
62.24804718922746
 21
242.1286307484675
 31
0.0
  0
LINE
  5
28A
330
1F
100
AcDbEntity
  8
9
  6
Continuous
 62
     7
370
    35
100
AcDbLine
 10
38.99804718922746
 20
249.6286307484675
 30
0.0
 11
62.24804718922746
 21
249.6286307484675
 31
0.0
  0
LINE
  5
28B
330
1F
100
AcDbEntity
  8
9
  6
Continuous
 62
     7
370
    35
100
AcDbLine
 10
38.49804718922746
 20
256.6286307484675
 30
0.0
 11
62.24804718922746
 21
256.6286307484675
 31
0.0
  0
LINE
  5
28C
330
1F
100
AcDbEntity
  8
9
  6
Continuous
 62
     7
370
    35
100
AcDbLine
 10
37.49804718922746
 20
253.6286307484675
 30
0.0
 11
62.24804718922746
 21
253.6286307484675
 31
0.0
  0
LINE
  5
28D
330
1F
100
AcDbEntity
  8
9
  6
Continuous
 62
     7
370
    35
100
AcDbLine
 10
41.64804718922733
 20
274.2048697484674
 30
0.0
 11
41.64804718922733
 21
258.6286307484675
 31
0.0
  0
LINE
  5
28E
330
1F
100
AcDbEntity
  8
9
  6
Continuous
 62
     7
370
    35
100
AcDbLine
 10
46.77400218922753
 20
274.2048697484674
 30
0.0
 11
46.77400218922753
 21
258.6286307484675
 31
0.0
  0
ARC
  5
28F
330
1F
100
AcDbEntity
  8
9
  6
Continuous
 62
     7
370
    35
100
AcDbCircle
 10
39.64804718922733
 20
258.6286307484675
 30
0.0
 40
2.0
100
AcDbArc
 50
269.9999999999998
 51
0.0
  0
LINE
  5
290
330
1F
100
AcDbEntity
  8
9
  6
Continuous
 62
     7
370
    35
100
AcDbLine
 10
37.49804718922746
 20
253.6286307484675
 30
0.0
 11
37.49804718922746
 21
250.9515057484678
 31
0.0
  0
ARC
  5
291
330
1F
100
AcDbEntity
  8
9
  6
Continuous
 62
     7
370
    35
100
AcDbCircle
 10
39.49804718922724
 20
250.9515057484678
 30
0.0
 40
2.0
100
AcDbArc
 50
179.9999999999998
 51
221.4096219999955
  0
LINE
  5
292
330
1F
100
AcDbEntity
  8
9
  6
Continuous
 62
     7
370
    35
100
AcDbLine
 10
38.49804718922746
 20
248.3057547484677
 30
0.0
 11
38.49804718922746
 21
243.1965527484672
 31
0.0
  0
ARC
  5
293
330
1F
100
AcDbEntity
  8
9
  6
Continuous
 62
     7
370
    35
100
AcDbCircle
 10
40.49804718922724
 20
243.1965527484676
 30
0.0
 40
2.0
100
AcDbArc
 50
179.9999999999998
 51
215.6590879999919
  0
ARC
  5
294
330
1F
100
AcDbEntity
  8
9
  6
Continuous
 62
     7
370
    35
100
AcDbCircle
 10
36.49804718922724
 20
248.3057547484677
 30
0.0
 40
2.0
100
AcDbArc
 50
0.0
 51
41.40962199999586
  0
ARC
  5
295
330
1F
100
AcDbEntity
  8
9
  6
Continuous
 62
     7
370
    35
100
AcDbCircle
 10
38.49804718922724
 20
255.6286307484675
 30
0.0
 40
1.0
100
AcDbArc
 50
89.99999999999991
 51
179.9999999999998
  0
LINE
  5
296
330
1F
100
AcDbEntity
  8
9
  6
Continuous
 62
     7
370
    35
100
AcDbLine
 10
37.49804718922746
 20
255.6286307484675
 30
0.0
 11
37.49804718922746
 21
253.6286307484675
 31
0.0
  0
LINE
  5
297
330
1F
100
AcDbEntity
  8
9
  6
Continuous
 62
     7
370
    35
100
AcDbLine
 10
38.49804718922746
 20
256.6286307484675
 30
0.0
 11
38.74804718922746
 21
256.6286307484675
 31
0.0
  0
ARC
  5
298
330
1F
100
AcDbEntity
  8
9
  6
Continuous
 62
     7
370
    35
100
AcDbCircle
 10
44.21102418922737
 20
269.3511407484675
 30
0.0
 40
5.488855000000001
100
AcDbArc
 50
62.16401900000275
 51
117.8359809999972
  0
LINE
  5
299
330
1F
100
AcDbEntity
  8
9
  6
Continuous
 62
     7
370
    35
100
AcDbLine
 10
43.24804718922746
 20
275.1286307484675
 30
0.0
 11
41.64804718922733
 21
274.2048697484674
 31
0.0
  0
POLYLINE
  5
29A
330
1F
100
AcDbEntity
  8
8
  6
Continuous
 62
     4
370
    25
100
AcDb2dPolyline
 66
     1
 10
0.0
 20
0.0
 30
0.0
  0
VERTEX
  5
29B
330
29A
100
AcDbEntity
  8
8
  6
Continuous
 62
     4
370
    25
100
AcDbVertex
100
AcDb2dVertex
 10
45.24804718922746
 20
282.0570648766761
 30
0.0
  0
VERTEX
  5
29C
330
29A
100
AcDbEntity
  8
8
  6
Continuous
 62
     4
370
    25
100
AcDbVertex
100
AcDb2dVertex
 10
47.32136560998322
 20
279.0570648766761
 30
0.0
  0
VERTEX
  5
29D
330
29A
100
AcDbEntity
  8
8
  6
Continuous
 62
     4
370
    25
100
AcDbVertex
100
AcDb2dVertex
 10
47.41709132856602
 20
275.1286307484675
 30
0.0
  0
SEQEND
  5
29E
330
29A
100
AcDbEntity
  8
8
  6
Continuous
 62
     4
370
    25
  0
POLYLINE
  5
29F
330
1F
100
AcDbEntity
  8
9
  6
Continuous
 62
     7
370
    35
100
AcDb2dPolyline
 66
     1
 10
0.0
 20
0.0
 30
0.0
  0
VERTEX
  5
2A0
330
29F
100
AcDbEntity
  8
9
  6
Continuous
 62
     7
370
    35
100
AcDbVertex
100
AcDb2dVertex
 10
45.41703338747652
 20
275.1286307484675
 30
0.0
  0
VERTEX
  5
2A1
330
29F
100
AcDbEntity
  8
9
  6
Continuous
 62
     7
370
    35
100
AcDbVertex
100
AcDb2dVertex
 10
45.24804718922746
 20
282.0570648766761
 30
0.0
  0
SEQEND
  5
2A2
330
29F
100
AcDbEntity
  8
9
  6
Continuous
 62
     7
370
    35
  0
LINE
  5
2A3
330
1F
100
AcDbEntity
  8
9
  6
Continuous
 62
     7
370
    35
100
AcDbLine
 10
48.6497411892276
 20
274.2048697484674
 30
0.0
 11
48.6497411892276
 21
258.6286307484675
 31
0.0
  0
LINE
  5
2A4
330
1F
100
AcDbEntity
  8
9
  6
Continuous
 62
     7
370
    35
100
AcDbLine
 10
60.92169918922741
 20
274.2048697484674
 30
0.0
 11
60.92169918922741
 21
258.6286307484675
 31
0.0
  0
ARC
  5
2A5
330
1F
100
AcDbEntity
  8
9
  6
Continuous
 62
     7
370
    35
100
AcDbCircle
 10
54.78572018922728
 20
244.8805357484675
 30
0.0
 40
29.95941900000001
100
AcDbArc
 50
78.18164199999985
 51
101.8183580000001
  0
LINE
  5
2A6
330
1F
100
AcDbEntity
  8
9
  6
Continuous
 62
     7
370
    35
100
AcDbLine
 10
60.92169918922741
 20
274.2048697484674
 30
0.0
 11
62.24804718922746
 21
274.2048697484674
 31
0.0
  0
LINE
  5
2A7
330
1F
100
AcDbEntity
  8
9
  6
Continuous
 62
     7
370
    35
100
AcDbLine
 10
82.84804718922737
 20
197.0523907484676
 30
0.0
 11
82.84804718922737
 21
209.0286307484675
 31
0.0
  0
LINE
  5
2A8
330
1F
100
AcDbEntity
  8
9
  6
Continuous
 62
     7
370
    35
100
AcDbLine
 10
75.84635318922733
 20
197.0523907484676
 30
0.0
 11
75.84635318922756
 21
209.0286307484675
 31
0.0
  0
LINE
  5
2A9
330
1F
100
AcDbEntity
  8
9
  6
Continuous
 62
     7
370
    35
100
AcDbLine
 10
77.7220921892274
 20
197.0523907484676
 30
0.0
 11
77.7220921892274
 21
209.0286307484675
 31
0.0
  0
LINE
  5
2AA
330
1F
100
AcDbEntity
  8
9
  6
Continuous
 62
     7
370
    35
100
AcDbLine
 10
63.57439518922729
 20
197.0523907484676
 30
0.0
 11
63.57439518922752
 21
209.0286307484675
 31
0.0
  0
LINE
  5
2AB
330
1F
100
AcDbEntity
  8
9
  6
Continuous
 62
     7
370
    35
100
AcDbLine
 10
117.4980471892276
 20
206.1948740187268
 30
0.0
 11
117.4980471892276
 21
119.5786307484673
 31
0.0
  0
LINE
  5
2AC
330
1F
100
AcDbEntity
  8
9
  6
Continuous
 62
     7
370
    35
100
AcDbLine
 10
77.7220921892274
 20
197.0523907484676
 30
0.0
 11
75.84635318922733
 21
197.0523907484676
 31
0.0
  0
ARC
  5
2AD
330
1F
100
AcDbEntity
  8
9
  6
Continuous
 62
     7
370
    35
100
AcDbCircle
 10
78.29271466244734
 20
190.75755698177
 30
0.0
 40
12.66120791411041
100
AcDbArc
 50
241.48320572768
 51
265.6727198817045
  0
ARC
  5
2AE
330
1F
100
AcDbEntity
  8
9
  6
Continuous
 62
     7
370
    35
100
AcDbCircle
 10
78.29271466244734
 20
175.5073272317177
 30
0.0
 40
12.66120791411041
100
AcDbArc
 50
94.32728011829461
 51
118.5167942723196
  0
ARC
  5
2AF
330
1F
100
AcDbEntity
  8
9
  6
Continuous
 62
     7
370
    35
100
AcDbCircle
 10
69.7103741892272
 20
226.3767247484675
 30
0.0
 40
29.959419
100
AcDbArc
 50
258.1816419999996
 51
281.8183579999996
  0
LINE
  5
2B0
330
1F
100
AcDbEntity
  8
9
  6
Continuous
 62
     7
370
    35
100
AcDbLine
 10
72.24804718922746
 20
186.6324421067438
 30
0.0
 11
72.24804718922746
 21
179.6324421067438
 31
0.0
  0
POLYLINE
  5
2B1
330
1F
100
AcDbEntity
  8
9
  6
Continuous
 62
     7
370
    35
100
AcDb2dPolyline
 66
     1
 10
0.0
 20
0.0
 30
0.0
  0
VERTEX
  5
2B2
330
2B1
100
AcDbEntity
  8
9
  6
Continuous
 62
     7
370
    35
100
AcDbVertex
100
AcDb2dVertex
 10
78.93653932094992
 20
168.6324421067438
 30
0.0
  0
VERTEX
  5
2B3
330
2B1
100
AcDbEntity
  8
9
  6
Continuous
 62
     7
370
    35
100
AcDbVertex
100
AcDb2dVertex
 10
79.24804718922746
 20
178.5482258192274
 30
0.0
  0
SEQEND
  5
2B4
330
2B1
100
AcDbEntity
  8
9
  6
Continuous
 62
     7
370
    35
  0
POLYLINE
  5
2B5
330
1F
100
AcDbEntity
  8
8
  6
Continuous
 62
     4
370
    25
100
AcDb2dPolyline
 66
     1
 10
0.0
 20
0.0
 30
0.0
  0
VERTEX
  5
2B6
330
2B5
100
AcDbEntity
  8
8
  6
Continuous
 62
     4
370
    25
100
AcDbVertex
100
AcDb2dVertex
 10
76.93653932095003
 20
168.6324421067438
 30
0.0
  0
VERTEX
  5
2B7
330
2B5
100
AcDbEntity
  8
8
  6
Continuous
 62
     4
370
    25
100
AcDbVertex
100
AcDb2dVertex
 10
77.14073913031598
 20
175.1324421067438
 30
0.0
  0
VERTEX
  5
2B8
330
2B5
100
AcDbEntity
  8
8
  6
Continuous
 62
     4
370
    25
100
AcDbVertex
100
AcDb2dVertex
 10
79.23498519617715
 20
178.1324421067438
 30
0.0
  0
SEQEND
  5
2B9
330
2B5
100
AcDbEntity
  8
8
  6
Continuous
 62
     4
370
    25
  0
LINE
  5
2BA
330
1F
100
AcDbEntity
  8
9
  6
Continuous
 62
     7
370
    35
100
AcDbLine
 10
78.09758380677113
 20
188.1324421067438
 30
0.0
 11
82.24804718922746
 21
186.6324421067438
 31
0.0
  0
LINE
  5
2BB
330
1F
100
AcDbEntity
  8
9
  6
Continuous
 62
     7
370
    35
100
AcDbLine
 10
78.09758380677113
 20
178.1324421067438
 30
0.0
 11
82.24804718922746
 21
179.6324421067438
 31
0.0
  0
POLYLINE
  5
2BC
330
1F
100
AcDbEntity
  8
9
  6
Continuous
 62
     7
370
    35
100
AcDb2dPolyline
 66
     1
 10
0.0
 20
0.0
 30
0.0
  0
VERTEX
  5
2BD
330
2BC
100
AcDbEntity
  8
9
  6
Continuous
 62
     7
370
    35
100
AcDbVertex
100
AcDb2dVertex
 10
82.24804718922746
 20
186.6324421067438
 30
0.0
  0
VERTEX
  5
2BE
330
2BC
100
AcDbEntity
  8
9
  6
Continuous
 62
     7
370
    35
100
AcDbVertex
100
AcDb2dVertex
 10
82.24804718922746
 20
179.6324421067438
 30
0.0
  0
SEQEND
  5
2BF
330
2BC
100
AcDbEntity
  8
9
  6
Continuous
 62
     7
370
    35
  0
ARC
  5
2C0
330
1F
100
AcDbEntity
  8
9
  6
Continuous
 62
     7
370
    35
100
AcDbCircle
 10
80.28506918922699
 20
201.9061197484675
 30
0.0
 40
5.488855000000001
100
AcDbArc
 50
242.1640190000001
 51
297.8359809999959
  0
POLYLINE
  5
2C1
330
1F
100
AcDbEntity
  8
8
  6
Continuous
 62
     4
370
    25
100
AcDb2dPolyline
 66
     1
 10
0.0
 20
0.0
 30
0.0
  0
VERTEX
  5
2C2
330
2C1
100
AcDbEntity
  8
8
  6
Continuous
 62
     4
370
    25
100
AcDbVertex
100
AcDb2dVertex
 10
76.98378208905501
 20
196.128630748467
 30
0.0
  0
VERTEX
  5
2C3
330
2C1
100
AcDbEntity
  8
8
  6
Continuous
 62
     4
370
    25
100
AcDbVertex
100
AcDb2dVertex
 10
77.14073913031598
 20
191.1324421067438
 30
0.0
  0
VERTEX
  5
2C4
330
2C1
100
AcDbEntity
  8
8
  6
Continuous
 62
     4
370
    25
100
AcDbVertex
100
AcDb2dVertex
 10
79.23498519617715
 20
188.1324421067438
 30
0.0
  0
SEQEND
  5
2C5
330
2C1
100
AcDbEntity
  8
8
  6
Continuous
 62
     4
370
    25
  0
POLYLINE
  5
2C6
330
1F
100
AcDbEntity
  8
9
  6
Continuous
 62
     7
370
    35
100
AcDb2dPolyline
 66
     1
 10
0.0
 20
0.0
 30
0.0
  0
VERTEX
  5
2C7
330
2C6
100
AcDbEntity
  8
9
  6
Continuous
 62
     7
370
    35
100
AcDbVertex
100
AcDb2dVertex
 10
78.98378208905501
 20
196.128630748467
 30
0.0
  0
VERTEX
  5
2C8
330
2C6
100
AcDbEntity
  8
9
  6
Continuous
 62
     7
370
    35
100
AcDbVertex
100
AcDb2dVertex
 10
79.24804718922746
 20
187.7166583942603
 30
0.0
  0
SEQEND
  5
2C9
330
2C6
100
AcDbEntity
  8
9
  6
Continuous
 62
     7
370
    35
  0
LINE
  5
2CA
330
1F
100
AcDbEntity
  8
9
  6
Continuous
 62
     7
370
    35
100
AcDbLine
 10
81.24804718922746
 20
196.128630748467
 30
0.0
 11
82.84804718922737
 21
197.0523907484676
 31
0.0
  0
LINE
  5
2CB
330
1F
100
AcDbEntity
  8
9
  6
Continuous
 62
     7
370
    35
100
AcDbLine
 10
97.99804718922758
 20
245.1286307484675
 30
0.0
 11
88.49804718922758
 21
245.1286307484675
 31
0.0
  0
LINE
  5
2CC
330
1F
100
AcDbEntity
  8
9
  6
Continuous
 62
     7
370
    35
100
AcDbLine
 10
97.99804718922758
 20
226.128630748467
 30
0.0
 11
88.49804718922758
 21
226.128630748467
 31
0.0
  0
LINE
  5
2CD
330
1F
100
AcDbEntity
  8
9
  6
Continuous
 62
     7
370
    35
100
AcDbLine
 10
87.49804718922746
 20
235.6286307484675
 30
0.0
 11
87.49804718922746
 21
244.1286307484675
 31
0.0
  0
LINE
  5
2CE
330
1F
100
AcDbEntity
  8
9
  6
Continuous
 62
     7
370
    35
100
AcDbLine
 10
77.7220921892274
 20
209.0286307484675
 30
0.0
 11
75.84635318922756
 21
209.0286307484675
 31
0.0
  0
ARC
  5
2CF
330
1F
100
AcDbEntity
  8
9
  6
Continuous
 62
     7
370
    35
100
AcDbCircle
 10
69.7103741892272
 20
192.4648847484677
 30
0.0
 40
17.66374499999998
100
AcDbArc
 50
69.67303500000139
 51
110.3269649999986
  0
LINE
  5
2D0
330
1F
100
AcDbEntity
  8
9
  6
Continuous
 62
     7
370
    35
100
AcDbLine
 10
83.24804718922746
 20
221.8002027484677
 30
0.0
 11
83.24804718922746
 21
216.4570577484674
 31
0.0
  0
ARC
  5
2D1
330
1F
100
AcDbEntity
  8
9
  6
Continuous
 62
     7
370
    35
100
AcDbCircle
 10
80.28506918922699
 20
206.5929957484677
 30
0.0
 40
3.535698999999994
100
AcDbArc
 50
43.54067199999707
 51
136.459328000003
  0
LINE
  5
2D2
330
1F
100
AcDbEntity
  8
9
  6
Continuous
 62
     7
370
    35
100
AcDbLine
 10
82.66226018922748
 20
215.0428437484675
 30
0.0
 11
81.83383318922756
 21
214.2144167484676
 31
0.0
  0
ARC
  5
2D3
330
1F
100
AcDbEntity
  8
9
  6
Continuous
 62
     7
370
    35
100
AcDbCircle
 10
81.24804718922724
 20
216.4570577484674
 30
0.0
 40
2.0
100
AcDbArc
 50
314.9999999999905
 51
0.0
  0
LINE
  5
2D4
330
1F
100
AcDbEntity
  8
9
  6
Continuous
 62
     7
370
    35
100
AcDbLine
 10
81.24804718922746
 20
212.8002027484672
 30
0.0
 11
81.24804718922746
 21
211.4570577484674
 31
0.0
  0
LINE
  5
2D5
330
1F
100
AcDbEntity
  8
9
  6
Continuous
 62
     7
370
    35
100
AcDbLine
 10
81.24804718922746
 20
212.8002027484672
 30
0.0
 11
81.24804718922746
 21
211.4570577484674
 31
0.0
  0
ARC
  5
2D6
330
1F
100
AcDbEntity
  8
9
  6
Continuous
 62
     7
370
    35
100
AcDbCircle
 10
83.24804718922724
 20
212.8002027484677
 30
0.0
 40
2.0
100
AcDbArc
 50
134.9999999999908
 51
179.9999999999998
  0
ARC
  5
2D7
330
1F
100
AcDbEntity
  8
9
  6
Continuous
 62
     7
370
    35
100
AcDbCircle
 10
83.24804718922724
 20
211.4570577484674
 30
0.0
 40
2.0
100
AcDbArc
 50
179.9999999999998
 51
225.0000000000089
  0
LINE
  5
2D8
330
1F
100
AcDbEntity
  8
9
  6
Continuous
 62
     7
370
    35
100
AcDbLine
 10
81.83383318922756
 20
210.0428437484675
 30
0.0
 11
82.84804718922737
 21
209.0286307484675
 31
0.0
  0
SPLINE
  5
2D9
330
1F
100
AcDbEntity
  8
9
  6
Continuous
 62
     7
370
    35
100
AcDbSpline
210
0.0
220
0.0
230
1.0
 70
    12
 71
     3
 72
     8
 73
     4
 74
     0
 42
0.000000001
 43
0.0000002
 40
1.210314090895789
 40
1.210314090895789
 40
1.210314090895789
 40
1.210314090895789
 40
10.80205680575085
 40
10.80205680575085
 40
10.80205680575085
 40
10.80205680575085
 10
84.75084798436728
 20
226.2382203883799
 30
0.0
 41
1.0
 10
83.48695615709744
 20
229.2053783253414
 30
0.0
 41
1.0
 10
82.63714349539714
 20
232.4440577636888
 30
0.0
 41
1.0
 10
82.71142897912887
 20
235.6286302638664
 30
0.0
 41
1.0
  0
ARC
  5
2DA
330
1F
100
AcDbEntity
  8
9
  6
Continuous
 62
     7
370
    35
100
AcDbCircle
 10
85.24804718922724
 20
221.8002027484677
 30
0.0
 40
2.0
100
AcDbArc
 50
134.9999999999908
 51
179.9999999999998
  0
SPLINE
  5
2DB
330
1F
100
AcDbEntity
  8
9
  6
Continuous
 62
     7
370
    35
100
AcDbSpline
210
0.0
220
0.0
230
1.0
 70
    12
 71
     3
 72
     8
 73
     4
 74
     0
 42
0.000000001
 43
0.0000002
 40
5.526513857442442
 40
5.526513857442442
 40
5.526513857442442
 40
5.526513857442442
 40
10.80205680575085
 40
10.80205680575085
 40
10.80205680575085
 40
10.80205680575085
 10
83.34264340376853
 20
240.8781835944292
 30
0.0
 41
1.0
 10
82.9092622782598
 20
239.1480839671322
 30
0.0
 41
1.0
 10
82.67057130899411
 20
237.3801731790732
 30
0.0
 41
1.0
 10
82.71142897912887
 20
235.6286302638664
 30
0.0
 41
1.0
  0
LINE
  5
2DC
330
1F
100
AcDbEntity
  8
9
  6
Continuous
 62
     7
370
    35
100
AcDbLine
 10
87.49804718922746
 20
235.6286307484675
 30
0.0
 11
87.49804718922746
 21
227.1286307484675
 31
0.0
  0
ARC
  5
2DD
330
1F
100
AcDbEntity
  8
9
  6
Continuous
 62
     7
370
    35
100
AcDbCircle
 10
86.76599618922728
 20
226.1286307484675
 30
0.0
 40
1.0
100
AcDbArc
 50
269.9999999999998
 51
329.9999999999991
  0
LINE
  5
2DE
330
1F
100
AcDbEntity
  8
9
  6
Continuous
 62
     7
370
    35
100
AcDbLine
 10
86.76599618922751
 20
225.1286307484675
 30
0.0
 11
86.5004961892273
 21
225.1286307484675
 31
0.0
  0
ARC
  5
2DF
330
1F
100
AcDbEntity
  8
9
  6
Continuous
 62
     7
370
    35
100
AcDbCircle
 10
83.24804718922724
 20
225.4570577484674
 30
0.0
 40
2.0
100
AcDbArc
 50
314.9999999999905
 51
324.4011410000004
  0
LINE
  5
2E0
330
1F
100
AcDbEntity
  8
9
  6
Continuous
 62
     7
370
    35
100
AcDbLine
 10
83.83383318922756
 20
223.2144167484676
 30
0.0
 11
84.66226018922748
 21
224.0428437484675
 31
0.0
  0
ARC
  5
2E1
330
1F
100
AcDbEntity
  8
9
  6
Continuous
 62
     7
370
    35
100
AcDbCircle
 10
86.50049618922708
 20
223.1286307484675
 30
0.0
 40
2.0
100
AcDbArc
 50
89.99999999999991
 51
144.4011410000008
  0
ARC
  5
2E2
330
1F
100
AcDbEntity
  8
9
  6
Continuous
 62
     7
370
    35
100
AcDbCircle
 10
88.49804718922735
 20
225.1286307484675
 30
0.0
 40
1.0
100
AcDbArc
 50
89.99999999999991
 51
149.9999999999995
  0
LINE
  5
2E3
330
1F
100
AcDbEntity
  8
9
  6
Continuous
 62
     7
370
    35
100
AcDbLine
 10
77.7220921892274
 20
274.2048697484674
 30
0.0
 11
75.84635318922756
 21
274.2048697484674
 31
0.0
  0
LINE
  5
2E4
330
1F
100
AcDbEntity
  8
9
  6
Continuous
 62
     7
370
    35
100
AcDbLine
 10
75.84635318922756
 20
274.2048697484674
 30
0.0
 11
75.84635318922756
 21
258.6286307484675
 31
0.0
  0
LINE
  5
2E5
330
1F
100
AcDbEntity
  8
9
  6
Continuous
 62
     7
370
    35
100
AcDbLine
 10
63.57439518922752
 20
274.2048697484674
 30
0.0
 11
63.57439518922752
 21
258.6286307484675
 31
0.0
  0
ARC
  5
2E6
330
1F
100
AcDbEntity
  8
9
  6
Continuous
 62
     7
370
    35
100
AcDbCircle
 10
69.7103741892272
 20
244.8805357484675
 30
0.0
 40
29.959419
100
AcDbArc
 50
78.18164199999985
 51
101.8183580000001
  0
LINE
  5
2E7
330
1F
100
AcDbEntity
  8
9
  6
Continuous
 62
     7
370
    35
100
AcDbLine
 10
82.84804718922737
 20
274.2048697484674
 30
0.0
 11
82.84804718922737
 21
258.6286307484675
 31
0.0
  0
LINE
  5
2E8
330
1F
100
AcDbEntity
  8
9
  6
Continuous
 62
     7
370
    35
100
AcDbLine
 10
77.7220921892274
 20
274.2048697484674
 30
0.0
 11
77.7220921892274
 21
258.6286307484675
 31
0.0
  0
ARC
  5
2E9
330
1F
100
AcDbEntity
  8
9
  6
Continuous
 62
     7
370
    35
100
AcDbCircle
 10
84.84804718922737
 20
258.6286307484675
 30
0.0
 40
2.0
100
AcDbArc
 50
179.9999999999998
 51
269.9999999999998
  0
LINE
  5
2EA
330
1F
100
AcDbEntity
  8
9
  6
Continuous
 62
     7
370
    35
100
AcDbLine
 10
86.99804718922746
 20
253.6286307484675
 30
0.0
 11
86.99804718922746
 21
250.9515057484678
 31
0.0
  0
ARC
  5
2EB
330
1F
100
AcDbEntity
  8
9
  6
Continuous
 62
     7
370
    35
100
AcDbCircle
 10
86.76599618922728
 20
245.1286307484675
 30
0.0
 40
1.0
100
AcDbArc
 50
30.00000000000054
 51
65.75221499998898
  0
ARC
  5
2EC
330
1F
100
AcDbEntity
  8
9
  6
Continuous
 62
     7
370
    35
100
AcDbCircle
 10
84.99804718922724
 20
250.9515057484678
 30
0.0
 40
2.0
100
AcDbArc
 50
318.5903780000037
 51
0.0
  0
SPLINE
  5
2ED
330
1F
100
AcDbEntity
  8
9
  6
Continuous
 62
     7
370
    35
100
AcDbSpline
210
0.0
220
0.0
230
1.0
 70
    12
 71
     3
 72
     8
 73
     4
 74
     0
 42
0.000000001
 43
0.0000002
 40
0.5678758884252421
 40
0.5678758884252421
 40
0.5678758884252421
 40
0.5678758884252421
 40
3.08188610348608
 40
3.08188610348608
 40
3.08188610348608
 40
3.08188610348608
 10
85.80078569744319
 20
245.5947703551633
 30
0.0
 41
1.0
 10
85.51094620616709
 20
244.8046427240743
 30
0.0
 41
1.0
 10
85.22773550907823
 20
244.0044238093506
 30
0.0
 41
1.0
 10
84.9653876702721
 20
243.1965525600863
 30
0.0
 41
1.0
  0
ARC
  5
2EE
330
1F
100
AcDbEntity
  8
9
  6
Continuous
 62
     7
370
    35
100
AcDbCircle
 10
83.2778811892274
 20
243.9160297484677
 30
0.0
 40
1.834482000000008
100
AcDbArc
 50
283.0090819999965
 51
336.9087820000072
  0
LINE
  5
2EF
330
1F
100
AcDbEntity
  8
9
  6
Continuous
 62
     7
370
    35
100
AcDbLine
 10
85.99804718922746
 20
248.3057547484677
 30
0.0
 11
85.99804718922746
 21
247.8639637484675
 31
0.0
  0
ARC
  5
2F0
330
1F
100
AcDbEntity
  8
9
  6
Continuous
 62
     7
370
    35
100
AcDbCircle
 10
87.99804718922701
 20
247.8639637484675
 30
0.0
 40
2.0
100
AcDbArc
 50
179.9999999999998
 51
245.752214999994
  0
ARC
  5
2F1
330
1F
100
AcDbEntity
  8
9
  6
Continuous
 62
     7
370
    35
100
AcDbCircle
 10
87.99804718922701
 20
248.3057547484677
 30
0.0
 40
2.0
100
AcDbArc
 50
138.5903780000042
 51
179.9999999999998
  0
ARC
  5
2F2
330
1F
100
AcDbEntity
  8
9
  6
Continuous
 62
     7
370
    35
100
AcDbCircle
 10
88.49804718922735
 20
246.1286307484675
 30
0.0
 40
1.0
100
AcDbArc
 50
210.0000000000002
 51
269.9999999999998
  0
ARC
  5
2F3
330
1F
100
AcDbEntity
  8
9
  6
Continuous
 62
     7
370
    35
100
AcDbCircle
 10
85.99804718922724
 20
255.6286307484675
 30
0.0
 40
1.0
100
AcDbArc
 50
0.0
 51
89.99999999999991
  0
LINE
  5
2F4
330
1F
100
AcDbEntity
  8
9
  6
Continuous
 62
     7
370
    35
100
AcDbLine
 10
86.99804718922746
 20
255.6286307484675
 30
0.0
 11
86.99804718922746
 21
253.6286307484675
 31
0.0
  0
LINE
  5
2F5
330
1F
100
AcDbEntity
  8
9
  6
Continuous
 62
     7
370
    35
100
AcDbLine
 10
85.99804718922746
 20
256.6286307484675
 30
0.0
 11
85.74804718922724
 21
256.6286307484675
 31
0.0
  0
ARC
  5
2F6
330
1F
100
AcDbEntity
  8
9
  6
Continuous
 62
     7
370
    35
100
AcDbCircle
 10
80.28506918922699
 20
269.3511407484675
 30
0.0
 40
5.488855000000001
100
AcDbArc
 50
62.16401900000275
 51
117.8359809999972
  0
POLYLINE
  5
2F7
330
1F
100
AcDbEntity
  8
9
  6
Continuous
 62
     7
370
    35
100
AcDb2dPolyline
 66
     1
 10
0.0
 20
0.0
 30
0.0
  0
VERTEX
  5
2F8
330
2F7
100
AcDbEntity
  8
9
  6
Continuous
 62
     7
370
    35
100
AcDbVertex
100
AcDb2dVertex
 10
79.24804718922746
 20
282.0570648766761
 30
0.0
  0
VERTEX
  5
2F9
330
2F7
100
AcDbEntity
  8
9
  6
Continuous
 62
     7
370
    35
100
AcDbVertex
100
AcDb2dVertex
 10
79.07906099097852
 20
275.1286307484675
 30
0.0
  0
SEQEND
  5
2FA
330
2F7
100
AcDbEntity
  8
9
  6
Continuous
 62
     7
370
    35
  0
POLYLINE
  5
2FB
330
1F
100
AcDbEntity
  8
8
  6
Continuous
 62
     4
370
    25
100
AcDb2dPolyline
 66
     1
 10
0.0
 20
0.0
 30
0.0
  0
VERTEX
  5
2FC
330
2FB
100
AcDbEntity
  8
8
  6
Continuous
 62
     4
370
    25
100
AcDbVertex
100
AcDb2dVertex
 10
79.24804718922746
 20
282.0570648766761
 30
0.0
  0
VERTEX
  5
2FD
330
2FB
100
AcDbEntity
  8
8
  6
Continuous
 62
     4
370
    25
100
AcDbVertex
100
AcDb2dVertex
 10
77.17472876847182
 20
279.0570648766761
 30
0.0
  0
VERTEX
  5
2FE
330
2FB
100
AcDbEntity
  8
8
  6
Continuous
 62
     4
370
    25
100
AcDbVertex
100
AcDb2dVertex
 10
77.07900304988902
 20
275.1286307484675
 30
0.0
  0
SEQEND
  5
2FF
330
2FB
100
AcDbEntity
  8
8
  6
Continuous
 62
     4
370
    25
  0
LINE
  5
300
330
1F
100
AcDbEntity
  8
9
  6
Continuous
 62
     7
370
    35
100
AcDbLine
 10
81.24804718922746
 20
275.1286307484675
 30
0.0
 11
82.84804718922737
 21
274.2048697484674
 31
0.0
  0
ARC
  5
301
330
1F
100
AcDbEntity
  8
9
  6
Continuous
 62
     7
370
    35
100
AcDbCircle
 10
107.3206167621772
 20
241.2577958730662
 30
0.0
 40
3.322569572950016
100
AcDbArc
 50
145.6157525319601
 51
214.3842474680395
  0
ARC
  5
302
330
1F
100
AcDbEntity
  8
9
  6
Continuous
 62
     7
370
    35
100
AcDbCircle
 10
105.6754776162772
 20
241.2577958730662
 30
0.0
 40
3.322569572950016
100
AcDbArc
 50
325.6157525319598
 51
34.38424746803875
  0
LINE
  5
303
330
1F
100
AcDbEntity
  8
9
  6
Continuous
 62
     7
370
    35
100
AcDbLine
 10
103.9980471892276
 20
227.9286307484672
 30
0.0
 11
103.9980471892276
 21
243.3286307484677
 31
0.0
  0
LINE
  5
304
330
1F
100
AcDbEntity
  8
9
  6
Continuous
 62
     7
370
    35
100
AcDbLine
 10
108.9980471892277
 20
229.1286307484675
 30
0.0
 11
108.9980471892276
 21
242.1286307484675
 31
0.0
  0
LINE
  5
305
330
1F
100
AcDbEntity
  8
9
  6
Continuous
 62
     7
370
    35
100
AcDbLine
 10
97.99804718922758
 20
235.6286307484675
 30
0.0
 11
97.99804718922758
 21
245.1286307484675
 31
0.0
  0
LINE
  5
306
330
1F
100
AcDbEntity
  8
9
  6
Continuous
 62
     7
370
    35
100
AcDbLine
 10
101.9980471892276
 20
250.6286307484675
 30
0.0
 11
101.9980471892276
 21
221.783331286847
 31
0.0
  0
LINE
  5
307
330
1F
100
AcDbEntity
  8
9
  6
Continuous
 62
     7
370
    35
100
AcDbLine
 10
98.99804718922758
 20
250.6286307484675
 30
0.0
 11
98.99804718922758
 21
221.783331286847
 31
0.0
  0
LINE
  5
308
330
1F
100
AcDbEntity
  8
9
  6
Continuous
 62
     7
370
    35
100
AcDbLine
 10
104.5786037728284
 20
239.3814074982001
 30
0.0
 11
108.417490605627
 21
239.3814074982001
 31
0.0
  0
LINE
  5
309
330
1F
100
AcDbEntity
  8
9
  6
Continuous
 62
     7
370
    35
100
AcDbLine
 10
104.5786037728284
 20
228.1230772490026
 30
0.0
 11
108.417490605627
 21
228.1230772490026
 31
0.0
  0
LINE
  5
30A
330
1F
100
AcDbEntity
  8
9
  6
Continuous
 62
     7
370
    35
100
AcDbLine
 10
104.5786037728284
 20
231.8758539987348
 30
0.0
 11
108.417490605627
 21
231.8758539987348
 31
0.0
  0
LINE
  5
30B
330
1F
100
AcDbEntity
  8
9
  6
Continuous
 62
     7
370
    35
100
AcDbLine
 10
107.5753193884174
 20
213.9444895277838
 30
0.0
 11
101.4980471892276
 21
217.4532042679248
 31
0.0
  0
LINE
  5
30C
330
1F
100
AcDbEntity
  8
9
  6
Continuous
 62
     7
370
    35
100
AcDbLine
 10
113.575319388417
 20
213.9444895277838
 30
0.0
 11
102.9980471892276
 21
220.0512804792779
 31
0.0
  0
LINE
  5
30D
330
1F
100
AcDbEntity
  8
9
  6
Continuous
 62
     7
370
    35
100
AcDbLine
 10
116.5753193884174
 20
213.9444895277838
 30
0.0
 11
104.5753193884174
 21
213.9444895277838
 31
0.0
  0
LINE
  5
30E
330
1F
100
AcDbEntity
  8
9
  6
Continuous
 62
     7
370
    35
100
AcDbLine
 10
104.5753193884174
 20
213.9444895277838
 30
0.0
 11
117.2480471892276
 21
206.6278867206192
 31
0.0
  0
ARC
  5
30F
330
1F
100
AcDbEntity
  8
9
  6
Continuous
 62
     7
370
    35
100
AcDbCircle
 10
103.9980471892276
 20
221.783331286847
 30
0.0
 40
5.0
100
AcDbArc
 50
179.9999999999998
 51
239.9999999999915
  0
LINE
  5
310
330
1F
100
AcDbEntity
  8
9
  6
Continuous
 62
     7
370
    35
100
AcDbLine
 10
104.1530244173954
 20
219.3844540656874
 30
0.0
 11
102.6530244173954
 21
216.7863778543342
 31
0.0
  0
ARC
  5
311
330
1F
100
AcDbEntity
  8
9
  6
Continuous
 62
     7
370
    35
100
AcDbCircle
 10
107.3206167621772
 20
229.9994656238687
 30
0.0
 40
3.322569572950073
100
AcDbArc
 50
145.6157525319612
 51
214.3842474680384
  0
LINE
  5
312
330
1F
100
AcDbEntity
  8
9
  6
Continuous
 62
     7
370
    35
100
AcDbLine
 10
97.99804718922758
 20
235.6286307484675
 30
0.0
 11
97.99804718922758
 21
226.128630748467
 31
0.0
  0
LINE
  5
313
330
1F
100
AcDbEntity
  8
9
  6
Continuous
 62
     7
370
    35
100
AcDbLine
 10
97.99804718922758
 20
226.6286307484675
 30
0.0
 11
98.99804718922758
 21
226.6286307484675
 31
0.0
  0
LINE
  5
314
330
1F
100
AcDbEntity
  8
9
  6
Continuous
 62
     7
370
    35
100
AcDbLine
 10
103.9980471892277
 20
229.1286307484675
 30
0.0
 11
104.5786037728284
 21
228.1230772490026
 31
0.0
  0
LINE
  5
315
330
1F
100
AcDbEntity
  8
9
  6
Continuous
 62
     7
370
    35
100
AcDbLine
 10
103.9980471892276
 20
227.9286307484672
 30
0.0
 11
101.9980471892276
 21
227.9286307484672
 31
0.0
  0
ARC
  5
316
330
1F
100
AcDbEntity
  8
9
  6
Continuous
 62
     7
370
    35
100
AcDbCircle
 10
103.9980471892276
 20
221.783331286847
 30
0.0
 40
2.0
100
AcDbArc
 50
179.9999999999998
 51
239.9999999999967
  0
LINE
  5
317
330
1F
100
AcDbEntity
  8
9
  6
Continuous
 62
     7
370
    35
100
AcDbLine
 10
103.9980471892276
 20
236.244656152252
 30
0.0
 11
101.9980471892276
 21
232.7805545371143
 31
0.0
  0
ARC
  5
318
330
1F
100
AcDbEntity
  8
9
  6
Continuous
 62
     7
370
    35
100
AcDbCircle
 10
116.4174906056262
 20
235.6286307484675
 30
0.0
 40
12.41944341639882
100
AcDbArc
 50
162.4120462260095
 51
197.587953773988
  0
LINE
  5
319
330
1F
100
AcDbEntity
  8
9
  6
Continuous
 62
     7
370
    35
100
AcDbLine
 10
103.9980471892276
 20
238.244656152252
 30
0.0
 11
101.9980471892276
 21
234.7805545371143
 31
0.0
  0
LINE
  5
31A
330
1F
100
AcDbEntity
  8
9
  6
Continuous
 62
     7
370
    35
100
AcDbLine
 10
108.4831514363174
 20
216.8844540656874
 30
0.0
 11
106.9831514363174
 21
214.2863778543342
 31
0.0
  0
ARC
  5
31B
330
1F
100
AcDbEntity
  8
9
  6
Continuous
 62
     7
370
    35
100
AcDbCircle
 10
116.9980471892276
 20
206.1948740187272
 30
0.0
 40
0.5
100
AcDbArc
 50
0.0
 51
59.9999999999897
  0
ARC
  5
31C
330
1F
100
AcDbEntity
  8
9
  6
Continuous
 62
     7
370
    35
100
AcDbCircle
 10
105.6754776162776
 20
229.9994656238687
 30
0.0
 40
3.322569572950073
100
AcDbArc
 50
325.6157525319598
 51
34.38424746803986
  0
LINE
  5
31D
330
1F
100
AcDbEntity
  8
9
  6
Continuous
 62
     7
370
    35
100
AcDbLine
 10
108.9980471892277
 20
229.1286307484675
 30
0.0
 11
108.417490605627
 21
228.1230772490026
 31
0.0
  0
LINE
  5
31E
330
1F
100
AcDbEntity
  8
9
  6
Continuous
 62
     7
370
    35
100
AcDbLine
 10
111.3480471892278
 20
238.9286307484672
 30
0.0
 11
108.9980471892277
 21
238.9286307484672
 31
0.0
  0
LINE
  5
31F
330
1F
100
AcDbEntity
  8
9
  6
Continuous
 62
     7
370
    35
100
AcDbLine
 10
108.9980471892277
 20
239.6286307484679
 30
0.0
 11
110.6480471892277
 21
239.6286307484679
 31
0.0
  0
LINE
  5
320
330
1F
100
AcDbEntity
  8
9
  6
Continuous
 62
     7
370
    35
100
AcDbLine
 10
110.6480471892277
 20
239.6286307484679
 30
0.0
 11
111.6480471891761
 21
238.6286307485193
 31
0.0
  0
LINE
  5
321
330
1F
100
AcDbEntity
  8
9
  6
Continuous
 62
     7
370
    35
100
AcDbLine
 10
111.6480471892277
 20
232.6286307484679
 30
0.0
 11
111.6480471892277
 21
235.1286307484675
 31
0.0
  0
LINE
  5
322
330
1F
100
AcDbEntity
  8
9
  6
Continuous
 62
     7
370
    35
100
AcDbLine
 10
110.6480471892277
 20
231.6286307484679
 30
0.0
 11
110.648047189228
 21
235.6286307484679
 31
0.0
  0
LINE
  5
323
330
1F
100
AcDbEntity
  8
9
  6
Continuous
 62
     7
370
    35
100
AcDbLine
 10
108.9980471892277
 20
231.6286307484679
 30
0.0
 11
110.6480471892277
 21
231.6286307484679
 31
0.0
  0
LINE
  5
324
330
1F
100
AcDbEntity
  8
9
  6
Continuous
 62
     7
370
    35
100
AcDbLine
 10
111.3480471892278
 20
232.3286307484677
 30
0.0
 11
108.9980471892277
 21
232.3286307484677
 31
0.0
  0
LINE
  5
325
330
1F
100
AcDbEntity
  8
9
  6
Continuous
 62
     7
370
    35
100
AcDbLine
 10
110.6480471892277
 20
231.6286307484679
 30
0.0
 11
111.6480471891761
 21
232.6286307484161
 31
0.0
  0
LINE
  5
326
330
1F
100
AcDbEntity
  8
9
  6
Continuous
 62
     7
370
    35
100
AcDbLine
 10
111.1480471892277
 20
236.128630748467
 30
0.0
 11
111.1480471892277
 21
235.6286307484679
 31
0.0
  0
LINE
  5
327
330
1F
100
AcDbEntity
  8
9
  6
Continuous
 62
     7
370
    35
100
AcDbLine
 10
111.1480471892277
 20
236.128630748467
 30
0.0
 11
111.6480471892277
 21
236.128630748467
 31
0.0
  0
LINE
  5
328
330
1F
100
AcDbEntity
  8
9
  6
Continuous
 62
     7
370
    35
100
AcDbLine
 10
111.1480471892277
 20
235.1286307484675
 30
0.0
 11
111.6480471892277
 21
235.1286307484675
 31
0.0
  0
LINE
  5
329
330
1F
100
AcDbEntity
  8
9
  6
Continuous
 62
     7
370
    35
100
AcDbLine
 10
111.1480471892277
 20
235.1286307484675
 30
0.0
 11
111.1480471892277
 21
235.6286307484679
 31
0.0
  0
ARC
  5
32A
330
1F
100
AcDbEntity
  8
9
  6
Continuous
 62
     7
370
    35
100
AcDbCircle
 10
96.5786037728285
 20
235.6286307484675
 30
0.0
 40
12.41944341639882
100
AcDbArc
 50
342.4120462260092
 51
17.58795377398821
  0
LINE
  5
32B
330
1F
100
AcDbEntity
  8
9
  6
Continuous
 62
     7
370
    35
100
AcDbLine
 10
111.6480471892277
 20
238.6286307484679
 30
0.0
 11
111.6480471892277
 21
236.128630748467
 31
0.0
  0
LINE
  5
32C
330
1F
100
AcDbEntity
  8
9
  6
Continuous
 62
     7
370
    35
100
AcDbLine
 10
110.6480471892277
 20
239.6286307484679
 30
0.0
 11
110.648047189228
 21
235.6286307484679
 31
0.0
  0
LINE
  5
32D
330
1F
100
AcDbEntity
  8
9
  6
Continuous
 62
     7
370
    35
100
AcDbLine
 10
104.5786037728284
 20
243.1341842479328
 30
0.0
 11
108.417490605627
 21
243.1341842479328
 31
0.0
  0
LINE
  5
32E
330
1F
100
AcDbEntity
  8
9
  6
Continuous
 62
     7
370
    35
100
AcDbLine
 10
101.9980471892276
 20
250.6286307484675
 30
0.0
 11
98.99804718922758
 21
250.6286307484675
 31
0.0
  0
LINE
  5
32F
330
1F
100
AcDbEntity
  8
9
  6
Continuous
 62
     7
370
    35
100
AcDbLine
 10
97.99804718922758
 20
244.628630748467
 30
0.0
 11
98.99804718922758
 21
244.628630748467
 31
0.0
  0
LINE
  5
330
330
1F
100
AcDbEntity
  8
9
  6
Continuous
 62
     7
370
    35
100
AcDbLine
 10
103.9980471892277
 20
242.1286307484675
 30
0.0
 11
104.5786037728284
 21
243.1341842479328
 31
0.0
  0
LINE
  5
331
330
1F
100
AcDbEntity
  8
9
  6
Continuous
 62
     7
370
    35
100
AcDbLine
 10
103.9980471892276
 20
243.3286307484677
 30
0.0
 11
101.9980471892276
 21
243.3286307484677
 31
0.0
  0
LINE
  5
332
330
1F
100
AcDbEntity
  8
9
  6
Continuous
 62
     7
370
    35
100
AcDbLine
 10
108.9980471892276
 20
242.1286307484675
 30
0.0
 11
108.4174906056268
 21
243.1341842479328
 31
0.0
  0
LINE
  5
333
330
1F
100
AcDbEntity
  8
9
  6
Continuous
 62
     7
370
    35
100
AcDbLine
 10
45.32121792093483
 20
296.0570648766761
 30
0.0
 11
79.17487645752021
 21
296.0570648766761
 31
0.0
  0
POLYLINE
  5
334
330
1F
100
AcDbEntity
  8
9
  6
Continuous
 62
     7
370
    35
100
AcDb2dPolyline
 66
     1
 10
0.0
 20
0.0
 30
0.0
  0
VERTEX
  5
335
330
334
100
AcDbEntity
  8
9
  6
Continuous
 62
     7
370
    35
100
AcDbVertex
100
AcDb2dVertex
 10
82.99804718922746
 20
320.5170648766762
 30
0.0
  0
VERTEX
  5
336
330
334
100
AcDbEntity
  8
9
  6
Continuous
 62
     7
370
    35
100
AcDbVertex
100
AcDb2dVertex
 10
94.49804718922758
 20
320.5170648766762
 30
0.0
  0
VERTEX
  5
337
330
334
100
AcDbEntity
  8
9
  6
Continuous
 62
     7
370
    35
100
AcDbVertex
100
AcDb2dVertex
 10
94.49804718922758
 20
344.5170648766762
 30
0.0
  0
VERTEX
  5
338
330
334
100
AcDbEntity
  8
9
  6
Continuous
 62
     7
370
    35
100
AcDbVertex
100
AcDb2dVertex
 10
82.99804718922746
 20
344.5170648766762
 30
0.0
  0
VERTEX
  5
339
330
334
100
AcDbEntity
  8
9
  6
Continuous
 62
     7
370
    35
100
AcDbVertex
100
AcDb2dVertex
 10
82.99804718922746
 20
362.5170648766762
 30
0.0
  0
VERTEX
  5
33A
330
334
100
AcDbEntity
  8
9
  6
Continuous
 62
     7
370
    35
100
AcDbVertex
100
AcDb2dVertex
 10
41.49804718922746
 20
362.5170648766762
 30
0.0
  0
VERTEX
  5
33B
330
334
100
AcDbEntity
  8
9
  6
Continuous
 62
     7
370
    35
100
AcDbVertex
100
AcDb2dVertex
 10
41.49804718922746
 20
302.5170648766762
 30
0.0
  0
VERTEX
  5
33C
330
334
100
AcDbEntity
  8
9
  6
Continuous
 62
     7
370
    35
100
AcDbVertex
100
AcDb2dVertex
 10
82.99804718922746
 20
302.5170648766762
 30
0.0
  0
VERTEX
  5
33D
330
334
100
AcDbEntity
  8
9
  6
Continuous
 62
     7
370
    35
100
AcDbVertex
100
AcDb2dVertex
 10
82.99804718922746
 20
320.5170648766762
 30
0.0
  0
SEQEND
  5
33E
330
334
100
AcDbEntity
  8
9
  6
Continuous
 62
     7
370
    35
  0
POLYLINE
  5
33F
330
1F
100
AcDbEntity
  8
8
  6
Continuous
 62
     4
370
    25
100
AcDb2dPolyline
 66
     1
 10
0.0
 20
0.0
 30
0.0
  0
VERTEX
  5
340
330
33F
100
AcDbEntity
  8
8
  6
Continuous
 62
     4
370
    25
100
AcDbVertex
100
AcDb2dVertex
 10
45.24804718922746
 20
293.0570648766761
 30
0.0
  0
VERTEX
  5
341
330
33F
100
AcDbEntity
  8
8
  6
Continuous
 62
     4
370
    25
100
AcDbVertex
100
AcDb2dVertex
 10
47.32136560998322
 20
296.0570648766761
 30
0.0
  0
VERTEX
  5
342
330
33F
100
AcDbEntity
  8
8
  6
Continuous
 62
     4
370
    25
100
AcDbVertex
100
AcDb2dVertex
 10
47.47889164703065
 20
302.5216876466079
 30
0.0
  0
SEQEND
  5
343
330
33F
100
AcDbEntity
  8
8
  6
Continuous
 62
     4
370
    25
  0
POLYLINE
  5
344
330
1F
100
AcDbEntity
  8
9
  6
Continuous
 62
     7
370
    35
100
AcDb2dPolyline
 66
     1
 10
0.0
 20
0.0
 30
0.0
  0
VERTEX
  5
345
330
344
100
AcDbEntity
  8
9
  6
Continuous
 62
     7
370
    35
100
AcDbVertex
100
AcDb2dVertex
 10
45.47877889654455
 20
302.5170648766762
 30
0.0
  0
VERTEX
  5
346
330
344
100
AcDbEntity
  8
9
  6
Continuous
 62
     7
370
    35
100
AcDbVertex
100
AcDb2dVertex
 10
45.24804718922746
 20
293.0570648766761
 30
0.0
  0
SEQEND
  5
347
330
344
100
AcDbEntity
  8
9
  6
Continuous
 62
     7
370
    35
  0
POLYLINE
  5
348
330
1F
100
AcDbEntity
  8
8
  6
Continuous
 62
     4
370
    25
100
AcDb2dPolyline
 66
     1
 10
0.0
 20
0.0
 30
0.0
  0
VERTEX
  5
349
330
348
100
AcDbEntity
  8
8
  6
Continuous
 62
     4
370
    25
100
AcDbVertex
100
AcDb2dVertex
 10
79.24804718922746
 20
293.0570648766761
 30
0.0
  0
VERTEX
  5
34A
330
348
100
AcDbEntity
  8
8
  6
Continuous
 62
     4
370
    25
100
AcDbVertex
100
AcDb2dVertex
 10
77.17472876847182
 20
296.0570648766761
 30
0.0
  0
VERTEX
  5
34B
330
348
100
AcDbEntity
  8
8
  6
Continuous
 62
     4
370
    25
100
AcDbVertex
100
AcDb2dVertex
 10
77.01720273142428
 20
302.5216876466084
 30
0.0
  0
SEQEND
  5
34C
330
348
100
AcDbEntity
  8
8
  6
Continuous
 62
     4
370
    25
  0
POLYLINE
  5
34D
330
1F
100
AcDbEntity
  8
9
  6
Continuous
 62
     7
370
    35
100
AcDb2dPolyline
 66
     1
 10
0.0
 20
0.0
 30
0.0
  0
VERTEX
  5
34E
330
34D
100
AcDbEntity
  8
9
  6
Continuous
 62
     7
370
    35
100
AcDbVertex
100
AcDb2dVertex
 10
79.24804718922746
 20
293.0570648766761
 30
0.0
  0
VERTEX
  5
34F
330
34D
100
AcDbEntity
  8
9
  6
Continuous
 62
     7
370
    35
100
AcDbVertex
100
AcDb2dVertex
 10
79.01731548191037
 20
302.5170648766762
 30
0.0
  0
SEQEND
  5
350
330
34D
100
AcDbEntity
  8
9
  6
Continuous
 62
     7
370
    35
  0
LINE
  5
351
330
1F
100
AcDbEntity
  8
9
  6
Continuous
 62
     7
370
    35
100
AcDbLine
 10
98.49804718922758
 20
341.0170648766762
 30
0.0
 11
98.49804718922758
 21
324.0170648766762
 31
0.0
  0
POLYLINE
  5
352
330
1F
100
AcDbEntity
  8
8
  6
Continuous
 62
     4
370
    25
100
AcDb2dPolyline
 66
     1
 10
0.0
 20
0.0
 30
0.0
  0
VERTEX
  5
353
330
352
100
AcDbEntity
  8
8
  6
Continuous
 62
     4
370
    25
100
AcDbVertex
100
AcDb2dVertex
 10
94.49804718922758
 20
326.0170648766762
 30
0.0
  0
VERTEX
  5
354
330
352
100
AcDbEntity
  8
8
  6
Continuous
 62
     4
370
    25
100
AcDbVertex
100
AcDb2dVertex
 10
98.49804718922758
 20
326.0170648766762
 30
0.0
  0
VERTEX
  5
355
330
352
100
AcDbEntity
  8
8
  6
Continuous
 62
     4
370
    25
100
AcDbVertex
100
AcDb2dVertex
 10
100.4980471892276
 20
324.0170648766762
 30
0.0
  0
SEQEND
  5
356
330
352
100
AcDbEntity
  8
8
  6
Continuous
 62
     4
370
    25
  0
POLYLINE
  5
357
330
1F
100
AcDbEntity
  8
8
  6
Continuous
 62
     4
370
    25
100
AcDb2dPolyline
 66
     1
 10
0.0
 20
0.0
 30
0.0
  0
VERTEX
  5
358
330
357
100
AcDbEntity
  8
8
  6
Continuous
 62
     4
370
    25
100
AcDbVertex
100
AcDb2dVertex
 10
94.49804718922758
 20
339.0170648766762
 30
0.0
  0
VERTEX
  5
359
330
357
100
AcDbEntity
  8
8
  6
Continuous
 62
     4
370
    25
100
AcDbVertex
100
AcDb2dVertex
 10
98.49804718922758
 20
339.0170648766762
 30
0.0
  0
VERTEX
  5
35A
330
357
100
AcDbEntity
  8
8
  6
Continuous
 62
     4
370
    25
100
AcDbVertex
100
AcDb2dVertex
 10
100.4980471892276
 20
341.0170648766757
 30
0.0
  0
SEQEND
  5
35B
330
357
100
AcDbEntity
  8
8
  6
Continuous
 62
     4
370
    25
  0
LINE
  5
35C
330
1F
100
AcDbEntity
  8
9
  6
Continuous
 62
     7
370
    35
100
AcDbLine
 10
123.4980471892276
 20
206.1948740187268
 30
0.0
 11
123.4980471892276
 21
119.5786307484673
 31
0.0
  0
ARC
  5
35D
330
1F
100
AcDbEntity
  8
9
  6
Continuous
 62
     7
370
    35
100
AcDbCircle
 10
116.9980471892276
 20
206.1948740187272
 30
0.0
 40
6.5
100
AcDbArc
 50
0.0
 51
59.9999999999925
  0
CIRCLE
  5
35E
330
1F
100
AcDbEntity
  8
9
  6
Continuous
 62
     7
370
    35
100
AcDbCircle
 10
175.2480471892272
 20
419.5170648766762
 30
0.0
 40
41.99999999999997
  0
CIRCLE
  5
35F
330
1F
100
AcDbEntity
  8
9
  6
Continuous
 62
     7
370
    35
100
AcDbCircle
 10
175.2480471892272
 20
419.5170648766762
 30
0.0
 40
37.49999999999997
  0
CIRCLE
  5
360
330
1F
100
AcDbEntity
  8
9
  6
Continuous
 62
     7
370
    35
100
AcDbCircle
 10
175.2480471892272
 20
419.5170648766762
 30
0.0
 40
34.99999999999997
  0
LINE
  5
361
330
1F
100
AcDbEntity
  8
9
  6
Continuous
 62
     7
370
    35
100
AcDbLine
 10
167.7774589539333
 20
358.5170648766762
 30
0.0
 11
182.7186354245215
 21
358.5170648766762
 31
0.0
  0
LINE
  5
362
330
1F
100
AcDbEntity
  8
9
  6
Continuous
 62
     7
370
    35
100
AcDbLine
 10
168.3674228578113
 20
365.5170648766757
 30
0.0
 11
182.1286715206435
 21
365.5170648766757
 31
0.0
  0
LINE
  5
363
330
1F
100
AcDbEntity
  8
9
  6
Continuous
 62
     7
370
    35
100
AcDbLine
 10
166.7480471892272
 20
367.5170648766757
 30
0.0
 11
183.7480471892272
 21
367.5170648766757
 31
0.0
  0
ARC
  5
364
330
1F
100
AcDbEntity
  8
9
  6
Continuous
 62
     7
370
    35
100
AcDbCircle
 10
175.2480471892272
 20
386.5795648766757
 30
0.0
 40
19.06249999999997
100
AcDbArc
 50
243.5189601696264
 51
296.4810398303732
  0
ARC
  5
365
330
1F
100
AcDbEntity
  8
9
  6
Continuous
 62
     7
370
    35
100
AcDbCircle
 10
175.2480471892272
 20
419.5170648766762
 30
0.0
 40
25.00000000000003
100
AcDbArc
 50
314.6844194460194
 51
89.99999999999991
  0
ARC
  5
366
330
1F
100
AcDbEntity
  8
9
  6
Continuous
 62
     7
370
    35
100
AcDbCircle
 10
175.2480471892286
 20
419.5170648766853
 30
0.0
 40
28.00000000000125
100
AcDbArc
 50
314.7826520576681
 51
180.0000000000192
  0
CIRCLE
  5
367
330
1F
100
AcDbEntity
  8
9
  6
Continuous
 62
     7
370
    35
100
AcDbCircle
 10
175.2480471892272
 20
419.5170648766762
 30
0.0
 40
4.0
  0
CIRCLE
  5
368
330
1F
100
AcDbEntity
  8
9
  6
Continuous
 62
     7
370
    35
100
AcDbCircle
 10
175.2480471892272
 20
419.5170648766762
 30
0.0
 40
2.0
  0
CIRCLE
  5
369
330
1F
100
AcDbEntity
  8
9
  6
Continuous
 62
     7
370
    35
100
AcDbCircle
 10
175.2480471892272
 20
419.5170648766762
 30
0.0
 40
2.75
  0
LINE
  5
36A
330
1F
100
AcDbEntity
  8
9
  6
Continuous
 62
     7
370
    35
100
AcDbLine
 10
185.6980471892275
 20
358.5170648766762
 30
0.0
 11
175.2480471892277
 21
358.5170648766762
 31
0.0
  0
ARC
  5
36B
330
1F
100
AcDbEntity
  8
9
  6
Continuous
 62
     7
370
    35
100
AcDbCircle
 10
175.2480471892276
 20
329.7428181569317
 30
0.0
 40
19.62990915244714
100
AcDbArc
 50
80.16177301475182
 51
89.99999999999991
  0
ARC
  5
36C
330
1F
100
AcDbEntity
  8
9
  6
Continuous
 62
     7
370
    35
100
AcDbCircle
 10
175.2480471892276
 20
365.2913115964166
 30
0.0
 40
19.62990915244282
100
AcDbArc
 50
269.9999999999998
 51
279.8382269852478
  0
LINE
  5
36D
330
1F
100
AcDbEntity
  8
9
  6
Continuous
 62
     7
370
    35
100
AcDbLine
 10
185.9980471892277
 20
345.5170648766762
 30
0.0
 11
175.2480471892277
 21
345.5170648766762
 31
0.0
  0
ARC
  5
36E
330
1F
100
AcDbEntity
  8
9
  6
Continuous
 62
     7
370
    35
100
AcDbCircle
 10
175.2480471892272
 20
328.3048099764583
 30
0.0
 40
17.2122549002172
100
AcDbArc
 50
71.74751347163593
 51
108.2524865283641
  0
LINE
  5
36F
330
1F
100
AcDbEntity
  8
9
  6
Continuous
 62
     7
370
    35
100
AcDbLine
 10
185.9980471892277
 20
349.5170648766762
 30
0.0
 11
164.4980471892277
 21
349.5170648766762
 31
0.0
  0
LINE
  5
370
330
1F
100
AcDbEntity
  8
9
  6
Continuous
 62
     7
370
    35
100
AcDbLine
 10
164.4980471892272
 20
321.5170648766757
 30
0.0
 11
185.9980471892272
 21
321.5170648766757
 31
0.0
  0
ARC
  5
371
330
1F
100
AcDbEntity
  8
9
  6
Continuous
 62
     7
370
    35
100
AcDbCircle
 10
175.2480471892272
 20
338.7293197768931
 30
0.0
 40
17.2122549002172
100
AcDbArc
 50
251.7475134716355
 51
288.2524865283637
  0
LINE
  5
372
330
1F
100
AcDbEntity
  8
9
  6
Continuous
 62
     7
370
    35
100
AcDbLine
 10
166.7480471892272
 20
378.3861762405186
 30
0.0
 11
166.7480471892272
 21
367.5170648766757
 31
0.0
  0
POLYLINE
  5
373
330
1F
100
AcDbEntity
  8
8
  6
Continuous
 62
     4
370
    25
100
AcDb2dPolyline
 66
     1
 10
0.0
 20
0.0
 30
0.0
  0
VERTEX
  5
374
330
373
100
AcDbEntity
  8
8
  6
Continuous
 62
     4
370
    25
100
AcDbVertex
100
AcDb2dVertex
 10
144.2480471892276
 20
341.0170648766757
 30
0.0
  0
VERTEX
  5
375
330
373
100
AcDbEntity
  8
8
  6
Continuous
 62
     4
370
    25
100
AcDbVertex
100
AcDb2dVertex
 10
146.2480471892276
 20
339.0170648766762
 30
0.0
  0
VERTEX
  5
376
330
373
100
AcDbEntity
  8
8
  6
Continuous
 62
     4
370
    25
100
AcDbVertex
100
AcDb2dVertex
 10
150.2480471892272
 20
339.0170648766762
 30
0.0
  0
SEQEND
  5
377
330
373
100
AcDbEntity
  8
8
  6
Continuous
 62
     4
370
    25
  0
POLYLINE
  5
378
330
1F
100
AcDbEntity
  8
8
  6
Continuous
 62
     4
370
    25
100
AcDb2dPolyline
 66
     1
 10
0.0
 20
0.0
 30
0.0
  0
VERTEX
  5
379
330
378
100
AcDbEntity
  8
8
  6
Continuous
 62
     4
370
    25
100
AcDbVertex
100
AcDb2dVertex
 10
144.2480471892276
 20
324.0170648766762
 30
0.0
  0
VERTEX
  5
37A
330
378
100
AcDbEntity
  8
8
  6
Continuous
 62
     4
370
    25
100
AcDbVertex
100
AcDb2dVertex
 10
146.2480471892276
 20
326.0170648766762
 30
0.0
  0
VERTEX
  5
37B
330
378
100
AcDbEntity
  8
8
  6
Continuous
 62
     4
370
    25
100
AcDbVertex
100
AcDb2dVertex
 10
150.2480471892276
 20
326.0170648766762
 30
0.0
  0
SEQEND
  5
37C
330
378
100
AcDbEntity
  8
8
  6
Continuous
 62
     4
370
    25
  0
LINE
  5
37D
330
1F
100
AcDbEntity
  8
9
  6
Continuous
 62
     7
370
    35
100
AcDbLine
 10
146.2480471892276
 20
341.0170648766762
 30
0.0
 11
146.2480471892276
 21
324.0170648766762
 31
0.0
  0
ARC
  5
37E
330
1F
100
AcDbEntity
  8
9
  6
Continuous
 62
     7
370
    35
100
AcDbCircle
 10
158.101491256018
 20
332.5170648766757
 30
0.0
 40
11.75559126999715
100
AcDbArc
 50
300.4302842044909
 51
328.3121121663194
  0
LINE
  5
37F
330
1F
100
AcDbEntity
  8
9
  6
Continuous
 62
     7
370
    35
100
AcDbLine
 10
169.8570825260151
 20
326.5170648766757
 30
0.0
 11
169.8570825260149
 21
322.3830902804602
 31
0.0
  0
LINE
  5
380
330
1F
100
AcDbEntity
  8
6
  6
Continuous
 62
     3
370
    25
100
AcDbLine
 10
150.2480471892272
 20
341.0170648766762
 30
0.0
 11
150.2480471892272
 21
324.0170648766762
 31
0.0
  0
LINE
  5
381
330
1F
100
AcDbEntity
  8
9
  6
Continuous
 62
     7
370
    35
100
AcDbLine
 10
150.2480471892272
 20
322.2670648766762
 30
0.0
 11
150.2480471892272
 21
332.5170648766762
 31
0.0
  0
LINE
  5
382
330
1F
100
AcDbEntity
  8
9
  6
Continuous
 62
     7
370
    35
100
AcDbLine
 10
150.7480471892272
 20
321.7670648766762
 30
0.0
 11
150.7480471892272
 21
332.5170648766762
 31
0.0
  0
LINE
  5
383
330
1F
100
AcDbEntity
  8
9
  6
Continuous
 62
     7
370
    35
100
AcDbLine
 10
150.7480471892272
 20
321.7670648766762
 30
0.0
 11
164.0650344873351
 21
321.7670648766757
 31
0.0
  0
LINE
  5
384
330
1F
100
AcDbEntity
  8
9
  6
Continuous
 62
     7
370
    35
100
AcDbLine
 10
150.2480471892272
 20
322.2670648766762
 30
0.0
 11
150.7480471892272
 21
321.7670648766762
 31
0.0
  0
LINE
  5
385
330
1F
100
AcDbEntity
  8
9
  6
Continuous
 62
     7
370
    35
100
AcDbLine
 10
168.4172500792046
 20
322.3830902804602
 30
0.0
 11
169.8570825260151
 21
322.3830902804602
 31
0.0
  0
ARC
  5
386
330
1F
100
AcDbEntity
  8
9
  6
Continuous
 62
     7
370
    35
100
AcDbCircle
 10
165.7076486342163
 20
326.1888335141543
 30
0.0
 40
4.671789972964433
100
AcDbArc
 50
241.7631501484943
 51
305.4499895235989
  0
LINE
  5
387
330
1F
100
AcDbEntity
  8
9
  6
Continuous
 62
     7
370
    35
100
AcDbLine
 10
164.4980471892272
 20
321.5170648766757
 30
0.0
 11
164.0650344873351
 21
321.7670648766757
 31
0.0
  0
LINE
  5
388
330
1F
100
AcDbEntity
  8
9
  6
Continuous
 62
     7
370
    35
100
AcDbLine
 10
168.4172500792046
 20
325.7551979275377
 30
0.0
 11
168.4172500792046
 21
322.3830902804602
 31
0.0
  0
LINE
  5
389
330
1F
100
AcDbEntity
  8
9
  6
Continuous
 62
     7
370
    35
100
AcDbLine
 10
150.7480471892272
 20
343.2670648766762
 30
0.0
 11
162.9980471892272
 21
343.2670648766757
 31
0.0
  0
LINE
  5
38A
330
1F
100
AcDbEntity
  8
9
  6
Continuous
 62
     7
370
    35
100
AcDbLine
 10
150.2480471892272
 20
342.7670648766762
 30
0.0
 11
150.2480471892272
 21
332.5170648766762
 31
0.0
  0
LINE
  5
38B
330
1F
100
AcDbEntity
  8
9
  6
Continuous
 62
     7
370
    35
100
AcDbLine
 10
150.7480471892272
 20
343.2670648766762
 30
0.0
 11
150.7480471892272
 21
332.5170648766762
 31
0.0
  0
LINE
  5
38C
330
1F
100
AcDbEntity
  8
9
  6
Continuous
 62
     7
370
    35
100
AcDbLine
 10
150.2480471892272
 20
342.7670648766762
 30
0.0
 11
150.7480471892272
 21
343.2670648766762
 31
0.0
  0
LINE
  5
38D
330
1F
100
AcDbEntity
  8
9
  6
Continuous
 62
     7
370
    35
100
AcDbLine
 10
171.8939452229779
 20
349.0840521747841
 30
0.0
 11
171.8939452229779
 21
345.9500775785687
 31
0.0
  0
LINE
  5
38E
330
1F
100
AcDbEntity
  8
9
  6
Continuous
 62
     7
370
    35
100
AcDbLine
 10
167.3988187307237
 20
349.0840521747841
 30
0.0
 11
167.3988187307237
 21
345.9500775785687
 31
0.0
  0
LINE
  5
38F
330
1F
100
AcDbEntity
  8
9
  6
Continuous
 62
     7
370
    35
100
AcDbLine
 10
163.7480471892276
 20
348.9397146074862
 30
0.0
 11
163.7480471892276
 21
345.8057400112702
 31
0.0
  0
LINE
  5
390
330
1F
100
AcDbEntity
  8
9
  6
Continuous
 62
     7
370
    35
100
AcDbLine
 10
168.4172500792048
 20
344.6510394728912
 30
0.0
 11
169.8570825260153
 21
344.6510394728912
 31
0.0
  0
LINE
  5
391
330
1F
100
AcDbEntity
  8
9
  6
Continuous
 62
     7
370
    35
100
AcDbLine
 10
167.3988187307237
 20
345.9500775785687
 30
0.0
 11
171.8939452229779
 21
345.9500775785687
 31
0.0
  0
LINE
  5
392
330
1F
100
AcDbEntity
  8
9
  6
Continuous
 62
     7
370
    35
100
AcDbLine
 10
164.4980471892276
 20
345.5170648766757
 30
0.0
 11
175.2480471892276
 21
345.5170648766757
 31
0.0
  0
LINE
  5
393
330
1F
100
AcDbEntity
  8
9
  6
Continuous
 62
     7
370
    35
100
AcDbLine
 10
164.2480471892273
 20
337.5170648766762
 30
0.0
 11
168.8570825260155
 21
337.5170648766757
 31
0.0
  0
LINE
  5
394
330
1F
100
AcDbEntity
  8
9
  6
Continuous
 62
     7
370
    35
100
AcDbLine
 10
164.2480471892273
 20
327.5170648766757
 30
0.0
 11
168.8570825260151
 21
327.5170648766757
 31
0.0
  0
ARC
  5
395
330
1F
100
AcDbEntity
  8
9
  6
Continuous
 62
     7
370
    35
100
AcDbCircle
 10
164.2480471892273
 20
336.5170648766757
 30
0.0
 40
1.0
100
AcDbArc
 50
89.99999999999991
 51
179.9999999999998
  0
LINE
  5
396
330
1F
100
AcDbEntity
  8
9
  6
Continuous
 62
     7
370
    35
100
AcDbLine
 10
163.2480471892272
 20
332.5170648766762
 30
0.0
 11
163.2480471892272
 21
336.5170648766762
 31
0.0
  0
ARC
  5
397
330
1F
100
AcDbEntity
  8
9
  6
Continuous
 62
     7
370
    35
100
AcDbCircle
 10
164.2480471892273
 20
328.5170648766757
 30
0.0
 40
1.0
100
AcDbArc
 50
179.9999999999998
 51
269.9999999999998
  0
LINE
  5
398
330
1F
100
AcDbEntity
  8
9
  6
Continuous
 62
     7
370
    35
100
AcDbLine
 10
163.2480471892272
 20
332.5170648766762
 30
0.0
 11
163.2480471892272
 21
328.5170648766762
 31
0.0
  0
ARC
  5
399
330
1F
100
AcDbEntity
  8
9
  6
Continuous
 62
     7
370
    35
100
AcDbCircle
 10
165.7076486342163
 20
340.8452962391975
 30
0.0
 40
4.671789972964433
100
AcDbArc
 50
54.5500104763918
 51
114.5500104764524
  0
ARC
  5
39A
330
1F
100
AcDbEntity
  8
9
  6
Continuous
 62
     7
370
    35
100
AcDbCircle
 10
165.5734329599755
 20
351.3945425834504
 30
0.0
 40
5.879349232938495
100
AcDbArc
 50
251.9121946092736
 51
288.0878053907334
  0
ARC
  5
39B
330
1F
100
AcDbEntity
  8
9
  6
Continuous
 62
     7
370
    35
100
AcDbCircle
 10
158.101491256018
 20
332.5170648766757
 30
0.0
 40
11.75559126999715
100
AcDbArc
 50
30.62571585058842
 51
58.75041058843321
  0
LINE
  5
39C
330
1F
100
AcDbEntity
  8
9
  6
Continuous
 62
     7
370
    35
100
AcDbLine
 10
162.9980471892272
 20
343.5170648766757
 30
0.0
 11
162.9980471892272
 21
344.6510394728912
 31
0.0
  0
LINE
  5
39D
330
1F
100
AcDbEntity
  8
9
  6
Continuous
 62
     7
370
    35
100
AcDbLine
 10
162.9980471892272
 20
343.2670648766757
 30
0.0
 11
162.9980471892272
 21
344.6510394728916
 31
0.0
  0
LINE
  5
39E
330
1F
100
AcDbEntity
  8
9
  6
Continuous
 62
     7
370
    35
100
AcDbLine
 10
164.4980471892272
 20
345.5170648766757
 30
0.0
 11
162.9980471892272
 21
344.6510394728912
 31
0.0
  0
LINE
  5
39F
330
1F
100
AcDbEntity
  8
9
  6
Continuous
 62
     7
370
    35
100
AcDbLine
 10
164.4980471892276
 20
345.3727273093782
 30
0.0
 11
163.7480471892276
 21
345.8057400112702
 31
0.0
  0
LINE
  5
3A0
330
1F
100
AcDbEntity
  8
9
  6
Continuous
 62
     7
370
    35
100
AcDbLine
 10
168.4172500792048
 20
344.6510394728912
 30
0.0
 11
168.4172500792048
 21
339.7207371384916
 31
0.0
  0
ARC
  5
3A1
330
1F
100
AcDbEntity
  8
9
  6
Continuous
 62
     7
370
    35
100
AcDbCircle
 10
168.8570825260149
 20
326.5170648766757
 30
0.0
 40
1.0
100
AcDbArc
 50
0.0
 51
89.99999999999991
  0
ARC
  5
3A2
330
1F
100
AcDbEntity
  8
9
  6
Continuous
 62
     7
370
    35
100
AcDbCircle
 10
175.2480471892276
 20
365.2913115964166
 30
0.0
 40
19.62990915244282
100
AcDbArc
 50
260.1617730147508
 51
269.9999999999998
  0
ARC
  5
3A3
330
1F
100
AcDbEntity
  8
9
  6
Continuous
 62
     7
370
    35
100
AcDbCircle
 10
168.8570825260151
 20
338.5170648766757
 30
0.0
 40
1.0
100
AcDbArc
 50
269.9999999999998
 51
0.0
  0
LINE
  5
3A4
330
1F
100
AcDbEntity
  8
9
  6
Continuous
 62
     7
370
    35
100
AcDbLine
 10
169.8570825260153
 20
344.6510394728912
 30
0.0
 11
169.8570825260153
 21
338.5170648766757
 31
0.0
  0
LINE
  5
3A5
330
1F
100
AcDbEntity
  8
5
  6
Continuous
 62
     4
370
    25
100
AcDbLine
 10
168.3674228578113
 20
365.5170648766757
 30
0.0
 11
168.7791875636935
 21
358.5170648766762
 31
0.0
  0
LINE
  5
3A6
330
1F
100
AcDbEntity
  8
9
  6
Continuous
 62
     7
370
    35
100
AcDbLine
 10
167.3988187307237
 20
349.0840521747841
 30
0.0
 11
171.8939452229779
 21
349.0840521747841
 31
0.0
  0
LINE
  5
3A7
330
1F
100
AcDbEntity
  8
9
  6
Continuous
 62
     7
370
    35
100
AcDbLine
 10
164.7980471892278
 20
358.5170648766762
 30
0.0
 11
175.2480471892277
 21
358.5170648766762
 31
0.0
  0
LINE
  5
3A8
330
1F
100
AcDbEntity
  8
9
  6
Continuous
 62
     7
370
    35
100
AcDbLine
 10
164.4980471892277
 20
358.217064876676
 30
0.0
 11
164.7980471892278
 21
358.5170648766762
 31
0.0
  0
ARC
  5
3A9
330
1F
100
AcDbEntity
  8
9
  6
Continuous
 62
     7
370
    35
100
AcDbCircle
 10
165.5734329599755
 20
343.3509120353046
 30
0.0
 40
5.879349232940115
100
AcDbArc
 50
71.9121946092739
 51
108.0878053907261
  0
LINE
  5
3AA
330
1F
100
AcDbEntity
  8
9
  6
Continuous
 62
     7
370
    35
100
AcDbLine
 10
164.4980471892276
 20
349.3727273093782
 30
0.0
 11
163.7480471892276
 21
348.9397146074862
 31
0.0
  0
LINE
  5
3AB
330
1F
100
AcDbEntity
  8
9
  6
Continuous
 62
     7
370
    35
100
AcDbLine
 10
164.4980471892277
 20
349.5170648766762
 30
0.0
 11
164.4980471892277
 21
358.217064876676
 31
0.0
  0
LINE
  5
3AC
330
1F
100
AcDbEntity
  8
9
  6
Continuous
 62
     7
370
    35
100
AcDbLine
 10
167.2480471892272
 20
367.5170648766757
 30
0.0
 11
167.7774589539333
 21
358.5170648766762
 31
0.0
  0
LINE
  5
3AD
330
1F
100
AcDbEntity
  8
5
  6
Continuous
 62
     4
370
    25
100
AcDbLine
 10
167.2480471892272
 20
367.5170648766757
 30
0.0
 11
168.3674228578113
 21
365.5170648766757
 31
0.0
  0
ARC
  5
3AE
330
1F
100
AcDbEntity
  8
9
  6
Continuous
 62
     7
370
    35
100
AcDbCircle
 10
175.2480471892276
 20
329.7428181569317
 30
0.0
 40
19.62990915244714
100
AcDbArc
 50
89.99999999999991
 51
99.83822698524199
  0
ARC
  5
3AF
330
1F
100
AcDbEntity
  8
9
  6
Continuous
 62
     7
370
    35
100
AcDbCircle
 10
175.2480471892272
 20
419.5170648766762
 30
0.0
 40
24.99999999999997
100
AcDbArc
 50
89.99999999999991
 51
224.6844194460191
  0
ARC
  5
3B0
330
1F
100
AcDbEntity
  8
9
  6
Continuous
 62
     7
370
    35
100
AcDbCircle
 10
175.2480471892276
 20
419.5170648766743
 30
0.0
 40
28.00000000000014
100
AcDbArc
 50
179.9999999999963
 51
225.2173479423132
  0
LINE
  5
3B1
330
1F
100
AcDbEntity
  8
9
  6
Continuous
 62
     7
370
    35
100
AcDbLine
 10
173.1980040815058
 20
416.0823417063921
 30
0.0
 11
155.1265475035834
 21
399.3955651910319
 31
0.0
  0
LINE
  5
3B2
330
1F
100
AcDbEntity
  8
9
  6
Continuous
 62
     7
370
    35
100
AcDbLine
 10
155.1265475035834
 20
399.3955651910319
 30
0.0
 11
171.8133240189436
 21
417.4670217689545
 31
0.0
  0
LINE
  5
3B3
330
1F
100
AcDbEntity
  8
9
  6
Continuous
 62
     7
370
    35
100
AcDbLine
 10
157.6680124965421
 20
401.7422967993143
 30
0.0
 11
155.524305816097
 21
399.6431114137654
 31
0.0
  0
LINE
  5
3B4
330
1F
100
AcDbEntity
  8
9
  6
Continuous
 62
     7
370
    35
100
AcDbLine
 10
183.7480471892272
 20
367.5170648766757
 30
0.0
 11
183.7480471892272
 21
378.3861762405186
 31
0.0
  0
ARC
  5
3B5
330
1F
100
AcDbEntity
  8
9
  6
Continuous
 62
     7
370
    35
100
AcDbCircle
 10
203.3480471892273
 20
337.5170648766757
 30
0.0
 40
1.0
100
AcDbArc
 50
0.0
 51
89.99999999999991
  0
ARC
  5
3B6
330
1F
100
AcDbEntity
  8
9
  6
Continuous
 62
     7
370
    35
100
AcDbCircle
 10
203.3480471892273
 20
327.5170648766757
 30
0.0
 40
1.0
100
AcDbArc
 50
269.9999999999998
 51
315.3757911071917
  0
ARC
  5
3B7
330
1F
100
AcDbEntity
  8
9
  6
Continuous
 62
     7
370
    35
100
AcDbCircle
 10
203.3480471892273
 20
308.7488780759709
 30
0.0
 40
1.0
100
AcDbArc
 50
271.9999999999961
 51
0.0
  0
LINE
  5
3B8
330
1F
100
AcDbEntity
  8
9
  6
Continuous
 62
     7
370
    35
100
AcDbLine
 10
194.8478057015292
 20
325.7134892158801
 30
0.0
 11
194.8478057015292
 21
332.5170648766757
 31
0.0
  0
ARC
  5
3B9
330
1F
100
AcDbEntity
  8
9
  6
Continuous
 62
     7
370
    35
100
AcDbCircle
 10
188.998047189227
 20
325.5170648766757
 30
0.0
 40
1.5
100
AcDbArc
 50
95.73917047726647
 51
179.9999999999998
  0
LINE
  5
3BA
330
1F
100
AcDbEntity
  8
9
  6
Continuous
 62
     7
370
    35
100
AcDbLine
 10
188.8480471892273
 20
325.0084135082334
 30
0.0
 11
188.8480471892275
 21
332.5170648766757
 31
0.0
  0
LINE
  5
3BB
330
1F
100
AcDbEntity
  8
9
  6
Continuous
 62
     7
370
    35
100
AcDbLine
 10
180.6390118524397
 20
344.6510394728912
 30
0.0
 11
180.6390118524391
 21
322.3830902804602
 31
0.0
  0
LINE
  5
3BC
330
1F
100
AcDbEntity
  8
9
  6
Continuous
 62
     7
370
    35
100
AcDbLine
 10
182.0788442992501
 20
344.6510394728912
 30
0.0
 11
182.0788442992498
 21
322.3830902804602
 31
0.0
  0
LINE
  5
3BD
330
1F
100
AcDbEntity
  8
9
  6
Continuous
 62
     7
370
    35
100
AcDbLine
 10
189.3393209860087
 20
324.5084896606554
 30
0.0
 11
192.8603963931811
 21
324.447029060806
 31
0.0
  0
ARC
  5
3BE
330
1F
100
AcDbEntity
  8
9
  6
Continuous
 62
     7
370
    35
100
AcDbCircle
 10
184.7884457442382
 20
326.1888335141539
 30
0.0
 40
4.671789972964433
100
AcDbArc
 50
234.5500104763992
 51
294.5500104764433
  0
LINE
  5
3BF
330
1F
100
AcDbEntity
  8
9
  6
Continuous
 62
     7
370
    35
100
AcDbLine
 10
182.0788442992501
 20
322.3830902804602
 30
0.0
 11
180.6390118524395
 21
322.3830902804602
 31
0.0
  0
LINE
  5
3C0
330
1F
100
AcDbEntity
  8
9
  6
Continuous
 62
     7
370
    35
100
AcDbLine
 10
185.9980471892272
 20
321.5170648766757
 30
0.0
 11
187.4980471892272
 21
322.3830902804602
 31
0.0
  0
ARC
  5
3C1
330
1F
100
AcDbEntity
  8
9
  6
Continuous
 62
     7
370
    35
100
AcDbCircle
 10
189.3480471892273
 20
325.0084135082334
 30
0.0
 40
0.5
100
AcDbArc
 50
179.9999999999998
 51
268.9999999999974
  0
LINE
  5
3C2
330
1F
100
AcDbEntity
  8
9
  6
Continuous
 62
     7
370
    35
100
AcDbLine
 10
187.4980471892272
 20
325.5170648766757
 30
0.0
 11
187.4980471892272
 21
322.3830902804602
 31
0.0
  0
LINE
  5
3C3
330
1F
100
AcDbEntity
  8
9
  6
Continuous
 62
     7
370
    35
100
AcDbLine
 10
196.7197584747887
 20
307.5168035893507
 30
0.0
 11
203.3829466859299
 21
307.7494872489519
 31
0.0
  0
LINE
  5
3C4
330
1F
100
AcDbEntity
  8
9
  6
Continuous
 62
     7
370
    35
100
AcDbLine
 10
192.8603963931811
 20
324.447029060806
 30
0.0
 11
195.7000512250738
 21
308.3425462387027
 31
0.0
  0
ARC
  5
3C5
330
1F
100
AcDbEntity
  8
9
  6
Continuous
 62
     7
370
    35
100
AcDbCircle
 10
196.6848589780859
 20
308.5161944163692
 30
0.0
 40
1.0
100
AcDbArc
 50
189.9999999999801
 51
272.0000000000036
  0
ARC
  5
3C6
330
1F
100
AcDbEntity
  8
9
  6
Continuous
 62
     7
370
    35
100
AcDbCircle
 10
193.6604243441317
 20
325.876627513032
 30
0.0
 40
1.198536020273451
100
AcDbArc
 50
265.8912338381562
 51
352.1769210358606
  0
LINE
  5
3C7
330
1F
100
AcDbEntity
  8
9
  6
Continuous
 62
     7
370
    35
100
AcDbLine
 10
189.3480471892273
 20
340.5170648766757
 30
0.0
 11
194.3478057015292
 21
340.5170648766757
 31
0.0
  0
LINE
  5
3C8
330
1F
100
AcDbEntity
  8
9
  6
Continuous
 62
     7
370
    35
100
AcDbLine
 10
186.7480471892277
 20
349.0840521747841
 30
0.0
 11
186.7480471892277
 21
345.9500775785682
 31
0.0
  0
LINE
  5
3C9
330
1F
100
AcDbEntity
  8
9
  6
Continuous
 62
     7
370
    35
100
AcDbLine
 10
183.0972756477319
 20
349.0840521747841
 30
0.0
 11
183.0972756477319
 21
345.9500775785687
 31
0.0
  0
LINE
  5
3CA
330
1F
100
AcDbEntity
  8
9
  6
Continuous
 62
     7
370
    35
100
AcDbLine
 10
178.6021491554774
 20
349.0840521747841
 30
0.0
 11
178.6021491554774
 21
345.9500775785687
 31
0.0
  0
ARC
  5
3CB
330
1F
100
AcDbEntity
  8
9
  6
Continuous
 62
     7
370
    35
100
AcDbCircle
 10
184.7884457442383
 20
340.8452962391971
 30
0.0
 40
4.671789972964433
100
AcDbArc
 50
65.44998952354992
 51
125.4499895235993
  0
LINE
  5
3CC
330
1F
100
AcDbEntity
  8
9
  6
Continuous
 62
     7
370
    35
100
AcDbLine
 10
183.0972756477319
 20
345.9500775785687
 30
0.0
 11
178.6021491554774
 21
345.9500775785687
 31
0.0
  0
LINE
  5
3CD
330
1F
100
AcDbEntity
  8
9
  6
Continuous
 62
     7
370
    35
100
AcDbLine
 10
182.0788442992501
 20
344.6510394728912
 30
0.0
 11
180.6390118524397
 21
344.6510394728912
 31
0.0
  0
LINE
  5
3CE
330
1F
100
AcDbEntity
  8
9
  6
Continuous
 62
     7
370
    35
100
AcDbLine
 10
188.8480471892273
 20
340.025716245118
 30
0.0
 11
188.8480471892275
 21
332.5170648766757
 31
0.0
  0
ARC
  5
3CF
330
1F
100
AcDbEntity
  8
9
  6
Continuous
 62
     7
370
    35
100
AcDbCircle
 10
191.9320636118288
 20
332.5170648766752
 30
0.0
 40
7.157736980972459
100
AcDbArc
 50
132.0791917640738
 51
226.6754408424856
  0
LINE
  5
3D0
330
1F
100
AcDbEntity
  8
9
  6
Continuous
 62
     7
370
    35
100
AcDbLine
 10
185.9980471892272
 20
345.5170648766757
 30
0.0
 11
187.4980471892272
 21
344.6510394728912
 31
0.0
  0
LINE
  5
3D1
330
1F
100
AcDbEntity
  8
9
  6
Continuous
 62
     7
370
    35
100
AcDbLine
 10
185.9980471892277
 20
345.5170648766762
 30
0.0
 11
186.7480471892277
 21
345.9500775785682
 31
0.0
  0
ARC
  5
3D2
330
1F
100
AcDbEntity
  8
9
  6
Continuous
 62
     7
370
    35
100
AcDbCircle
 10
184.9226614184795
 20
351.5388801507488
 30
0.0
 40
5.879349232938495
100
AcDbArc
 50
251.9121946092683
 51
288.0878053907267
  0
ARC
  5
3D3
330
1F
100
AcDbEntity
  8
9
  6
Continuous
 62
     7
370
    35
100
AcDbCircle
 10
189.3480471892273
 20
340.0170648766757
 30
0.0
 40
0.5
100
AcDbArc
 50
89.99999999999991
 51
179.9999999999998
  0
ARC
  5
3D4
330
1F
100
AcDbEntity
  8
9
  6
Continuous
 62
     7
370
    35
100
AcDbCircle
 10
188.9980471892273
 20
339.5170648766752
 30
0.0
 40
1.5
100
AcDbArc
 50
179.9999999999998
 51
264.2608295227332
  0
LINE
  5
3D5
330
1F
100
AcDbEntity
  8
9
  6
Continuous
 62
     7
370
    35
100
AcDbLine
 10
187.4980471892272
 20
339.5170648766757
 30
0.0
 11
187.4980471892272
 21
344.6510394728912
 31
0.0
  0
LINE
  5
3D6
330
1F
100
AcDbEntity
  8
5
  6
Continuous
 62
     4
370
    25
100
AcDbLine
 10
182.1286715206435
 20
365.5170648766757
 30
0.0
 11
183.2480471892272
 21
367.5170648766757
 31
0.0
  0
LINE
  5
3D7
330
1F
100
AcDbEntity
  8
9
  6
Continuous
 62
     7
370
    35
100
AcDbLine
 10
183.0972756477319
 20
349.0840521747841
 30
0.0
 11
178.6021491554774
 21
349.0840521747841
 31
0.0
  0
LINE
  5
3D8
330
1F
100
AcDbEntity
  8
5
  6
Continuous
 62
     4
370
    25
100
AcDbLine
 10
181.7169068147613
 20
358.5170648766762
 30
0.0
 11
182.1286715206435
 21
365.5170648766757
 31
0.0
  0
LINE
  5
3D9
330
1F
100
AcDbEntity
  8
9
  6
Continuous
 62
     7
370
    35
100
AcDbLine
 10
185.9980471892277
 20
358.217064876676
 30
0.0
 11
185.6980471892275
 21
358.5170648766762
 31
0.0
  0
LINE
  5
3DA
330
1F
100
AcDbEntity
  8
9
  6
Continuous
 62
     7
370
    35
100
AcDbLine
 10
185.9980471892277
 20
349.5170648766762
 30
0.0
 11
186.7480471892277
 21
349.0840521747841
 31
0.0
  0
ARC
  5
3DB
330
1F
100
AcDbEntity
  8
9
  6
Continuous
 62
     7
370
    35
100
AcDbCircle
 10
184.9226614184795
 20
343.4952496026026
 30
0.0
 40
5.879349232940115
100
AcDbArc
 50
71.91219460927283
 51
108.0878053907261
  0
LINE
  5
3DC
330
1F
100
AcDbEntity
  8
9
  6
Continuous
 62
     7
370
    35
100
AcDbLine
 10
185.9980471892277
 20
349.5170648766762
 30
0.0
 11
185.9980471892277
 21
358.217064876676
 31
0.0
  0
LINE
  5
3DD
330
1F
100
AcDbEntity
  8
9
  6
Continuous
 62
     7
370
    35
100
AcDbLine
 10
182.7186354245215
 20
358.5170648766762
 30
0.0
 11
183.2480471892272
 21
367.5170648766757
 31
0.0
  0
LINE
  5
3DE
330
1F
100
AcDbEntity
  8
9
  6
Continuous
 62
     7
370
    35
100
AcDbLine
 10
194.8478057015292
 20
338.6654371437489
 30
0.0
 11
203.3480471892273
 21
338.5170648766757
 31
0.0
  0
LINE
  5
3DF
330
1F
100
AcDbEntity
  8
9
  6
Continuous
 62
     7
370
    35
100
AcDbLine
 10
194.8478057015292
 20
326.368692609602
 30
0.0
 11
203.3480471892274
 21
326.5170648766757
 31
0.0
  0
LINE
  5
3E0
330
1F
100
AcDbEntity
  8
9
  6
Continuous
 62
     7
370
    35
100
AcDbLine
 10
194.8478057015292
 20
340.0170648766757
 30
0.0
 11
194.8478057015292
 21
332.5170648766757
 31
0.0
  0
ARC
  5
3E1
330
1F
100
AcDbEntity
  8
9
  6
Continuous
 62
     7
370
    35
100
AcDbCircle
 10
194.3478057015292
 20
340.0170648766757
 30
0.0
 40
0.5
100
AcDbArc
 50
0.0
 51
89.99999999999991
  0
POLYLINE
  5
3E2
330
1F
100
AcDbEntity
  8
9
  6
Continuous
 62
     7
370
    35
100
AcDb2dPolyline
 66
     1
 10
0.0
 20
0.0
 30
0.0
  0
VERTEX
  5
3E3
330
3E2
100
AcDbEntity
  8
9
  6
Continuous
 62
     7
370
    35
100
AcDbVertex
100
AcDb2dVertex
 10
204.3480471892271
 20
328.0170660477211
 30
0.0
  0
VERTEX
  5
3E4
330
3E2
100
AcDbEntity
  8
9
  6
Continuous
 62
     7
370
    35
100
AcDbVertex
100
AcDb2dVertex
 10
204.3480471892271
 20
325.0170648766757
 30
0.0
  0
SEQEND
  5
3E5
330
3E2
100
AcDbEntity
  8
9
  6
Continuous
 62
     7
370
    35
  0
LINE
  5
3E6
330
1F
100
AcDbEntity
  8
9
  6
Continuous
 62
     7
370
    35
100
AcDbLine
 10
204.3480471892274
 20
308.7488780759709
 30
0.0
 11
204.3480471892271
 21
332.5170648766757
 31
0.0
  0
ARC
  5
3E7
330
1F
100
AcDbEntity
  8
9
  6
Continuous
 62
     7
370
    35
100
AcDbCircle
 10
175.8480471892273
 20
332.5170648766757
 30
0.0
 40
30.0
100
AcDbArc
 50
0.0
 51
8.774289647844283
  0
LINE
  5
3E8
330
1F
100
AcDbEntity
  8
9
  6
Continuous
 62
     7
370
    35
100
AcDbLine
 10
204.3480471892271
 20
337.5170648766757
 30
0.0
 11
204.3480471892271
 21
332.5170648766757
 31
0.0
  0
LINE
  5
3E9
330
1F
100
AcDbEntity
  8
9
  6
Continuous
 62
     7
370
    35
100
AcDbLine
 10
204.3480471892271
 20
327.5170648766757
 30
0.0
 11
205.0028066634538
 21
327.5170648766757
 31
0.0
  0
ARC
  5
3EA
330
1F
100
AcDbEntity
  8
9
  6
Continuous
 62
     7
370
    35
100
AcDbCircle
 10
205.0028066634536
 20
328.0170648766757
 30
0.0
 40
0.5
100
AcDbArc
 50
269.9999999999998
 51
351.2257103521848
  0
LINE
  5
3EB
330
1F
100
AcDbEntity
  8
9
  6
Continuous
 62
     7
370
    35
100
AcDbLine
 10
204.3480471892271
 20
328.0170648766757
 30
0.0
 11
204.3480471892271
 21
327.5170648766757
 31
0.0
  0
ARC
  5
3EC
330
1F
100
AcDbEntity
  8
9
  6
Continuous
 62
     7
370
    35
100
AcDbCircle
 10
175.8480471892273
 20
332.5170648766757
 30
0.0
 40
30.0
100
AcDbArc
 50
351.2257103521554
 51
0.0
  0
LINE
  5
3ED
330
1F
100
AcDbEntity
  8
9
  6
Continuous
 62
     7
370
    35
100
AcDbLine
 10
204.3480471892271
 20
337.5170648766757
 30
0.0
 11
205.0028066634538
 21
337.5170648766757
 31
0.0
  0
ARC
  5
3EE
330
1F
100
AcDbEntity
  8
9
  6
Continuous
 62
     7
370
    35
100
AcDbCircle
 10
205.0028066634536
 20
337.0170648766757
 30
0.0
 40
0.5
100
AcDbArc
 50
8.774289647814864
 51
89.99999999999991
  0
LINE
  5
3EF
330
1F
100
AcDbEntity
  8
9
  6
Continuous
 62
     7
370
    35
100
AcDbLine
 10
192.8280818819123
 20
401.7422967993143
 30
0.0
 11
194.9717885623577
 21
399.6431114137654
 31
0.0
  0
ARC
  5
3F0
330
1F
100
AcDbEntity
  8
9
  6
Continuous
 62
     7
370
    35
100
AcDbCircle
 10
168.925940402518
 20
413.2115810912828
 30
0.0
 40
23.46788425528638
100
AcDbArc
 50
34.21595627096443
 51
55.78050194819038
  0
LINE
  5
3F1
330
1F
100
AcDbEntity
  8
9
  6
Continuous
 62
     7
370
    35
100
AcDbLine
 10
178.7471105842143
 20
421.4552483968473
 30
0.0
 11
183.2911566359419
 21
425.0552816448499
 31
0.0
  0
LINE
  5
3F2
330
1F
100
AcDbEntity
  8
9
  6
Continuous
 62
     7
370
    35
100
AcDbLine
 10
177.1852398869491
 20
423.0166769197303
 30
0.0
 11
180.7793786114443
 21
427.573455477062
 31
0.0
  0
ARC
  5
3F3
330
1F
100
AcDbEntity
  8
9
  6
Continuous
 62
     7
370
    35
100
AcDbCircle
 10
178.4238963913955
 20
429.431331552325
 30
0.0
 40
3.0
100
AcDbArc
 50
321.7355471921164
 51
26.57151486284185
  0
ARC
  5
3F4
330
1F
100
AcDbEntity
  8
9
  6
Continuous
 62
     7
370
    35
100
AcDbCircle
 10
181.4565586072323
 20
431.7510818822998
 30
0.0
 40
0.750000475963617
100
AcDbArc
 50
135.064549630755
 51
206.5715148628323
  0
LINE
  5
3F5
330
1F
100
AcDbEntity
  8
9
  6
Continuous
 62
     7
370
    35
100
AcDbLine
 10
180.7857756310559
 20
431.4155957979124
 30
0.0
 11
181.1070265933374
 21
430.7732750382534
 31
0.0
  0
ARC
  5
3F6
330
1F
100
AcDbEntity
  8
9
  6
Continuous
 62
     7
370
    35
100
AcDbCircle
 10
181.7016786868536
 20
431.9967548914096
 30
0.0
 40
0.750000475963617
100
AcDbArc
 50
55.78050194818287
 51
135.064549630755
  0
LINE
  5
3F7
330
1F
100
AcDbEntity
  8
9
  6
Continuous
 62
     7
370
    35
100
AcDbLine
 10
180.9256310493121
 20
432.2808144961591
 30
0.0
 11
181.1707511289335
 21
432.5264875052694
 31
0.0
  0
ARC
  5
3F8
330
1F
100
AcDbEntity
  8
9
  6
Continuous
 62
     7
370
    35
100
AcDbCircle
 10
185.1541126237795
 20
422.7038150838757
 30
0.0
 40
3.0
100
AcDbArc
 50
63.44139505543999
 51
128.3881241930473
  0
LINE
  5
3F9
330
1F
100
AcDbEntity
  8
9
  6
Continuous
 62
     7
370
    35
100
AcDbLine
 10
186.495451511194
 20
425.3872475851895
 30
0.0
 11
187.1312570050567
 21
425.0694342497204
 31
0.0
  0
LINE
  5
3FA
330
1F
100
AcDbEntity
  8
9
  6
Continuous
 62
     7
370
    35
100
AcDbLine
 10
187.9975194976398
 20
425.210560186928
 30
0.0
 11
188.2428314663536
 21
425.4564255179839
 31
0.0
  0
ARC
  5
3FB
330
1F
100
AcDbEntity
  8
9
  6
Continuous
 62
     7
370
    35
100
AcDbCircle
 10
187.4665919397196
 20
425.7402928007878
 30
0.0
 40
0.750000475963617
100
AcDbArc
 50
243.4413950554484
 51
315.0645496307608
  0
ARC
  5
3FC
330
1F
100
AcDbEntity
  8
9
  6
Continuous
 62
     7
370
    35
100
AcDbCircle
 10
187.7119039084336
 20
425.9861581318437
 30
0.0
 40
0.750000475963617
100
AcDbArc
 50
315.0645496307547
 51
34.2159562709597
  0
DIMENSION
  5
406
330
1F
100
AcDbEntity
  8
6
  6
Continuous
 62
     3
370
    25
100
AcDbDimension
  2
Dim2
 10
123.4980471892275
 20
109.3528351261612
 30
0.0
 11
92.87304718922815
 21
113.2528351261611
 31
0.0
 70
   160
  1
(<>
 71
     5
 42
-1.0
  3
Standard
100
AcDbAlignedDimension
 13
62.24804718922906
 23
138.690481297564
 33
0.0
 14
123.4980471892276
 24
119.5786307484673
 34
0.0
100
AcDbRotatedDimension
1001
ACAD
1000
DSTYLE
1002
{
1070
   279
1070
     2
1070
   340
1005
21A
1070
   140
1040
6.600000000000001
1070
    40
1040
1.0
1070
   147
1040
0.0
1070
    76
1070
     0
1070
    75
1070
     0
1070
   344
1005
7C
1070
   343
1005
7C
1070
   173
1070
     1
1070
   289
1070
     2
1070
   288
1070
     1
1070
    77
1070
     1
1070
   172
1070
     1
1070
   174
1070
     0
1070
    74
1070
     0
1070
    73
1070
     0
1070
   284
1070
     8
1070
    78
1070
     8
1070
    42
1040
2.0
1070
    44
1040
2.0
1070
    43
1040
30.0
1070
   271
1070
     2
1070
    41
1040
4.600000000000001
1002
}
  0
LINE
  5
407
330
1F
100
AcDbEntity
  8
9
  6
Continuous
 62
     7
370
    35
100
AcDbLine
 10
66.74804718922712
 20
101.8095947664597
 30
0.0
 11
57.74804718922707
 21
101.8095947664597
 31
0.0
  0
LINE
  5
408
330
1F
100
AcDbEntity
  8
9
  6
Continuous
 62
     7
370
    35
100
AcDbLine
 10
68.74804718922712
 20
88.36242391862925
 30
0.0
 11
66.74804718922712
 21
88.36242391862925
 31
0.0
  0
LINE
  5
409
330
1F
100
AcDbEntity
  8
9
  6
Continuous
 62
     7
370
    35
100
AcDbLine
 10
57.74804718922707
 20
88.36242391862925
 30
0.0
 11
55.74804718922707
 21
88.36242391862925
 31
0.0
  0
LINE
  5
40A
330
1F
100
AcDbEntity
  8
9
  6
Continuous
 62
     7
370
    35
100
AcDbLine
 10
55.74804718922707
 20
88.36242391862925
 30
0.0
 11
62.24804718922707
 21
79.85574016107557
 31
0.0
  0
LINE
  5
40B
330
1F
100
AcDbEntity
  8
9
  6
Continuous
 62
     7
370
    35
100
AcDbLine
 10
62.24804718922707
 20
79.85574016107557
 30
0.0
 11
68.74804718922712
 21
88.36242391862925
 31
0.0
  0
HATCH
  5
40C
330
1F
100
AcDbEntity
  8
9
  6
Continuous
 62
     7
370
    35
100
AcDbHatch
 10
0.0
 20
0.0
 30
0.0
210
0.0
220
0.0
230
1.0
  2
SOLID
 70
     1
 71
     0
 91
        1
 92
        0
 93
        7
 72
     1
 10
55.74804718922707
 20
88.36242391862925
 11
62.24804718922707
 21
79.85574016107557
 72
     1
 10
62.24804718922707
 20
79.85574016107557
 11
68.74804718922712
 21
88.36242391862925
 72
     1
 10
68.74804718922712
 20
88.36242391862925
 11
66.74804718922712
 21
88.36242391862925
 72
     1
 10
66.74804718922712
 20
88.36242391862925
 11
66.74804718922712
 21
101.8095947664597
 72
     1
 10
66.74804718922712
 20
101.8095947664597
 11
57.74804718922707
 21
101.8095947664597
 72
     1
 10
57.74804718922707
 20
101.8095947664597
 11
57.74804718922707
 21
88.36242391862925
 72
     1
 10
57.74804718922707
 20
88.36242391862925
 11
55.74804718922707
 21
88.36242391862925
 97
        0
 75
     0
 76
     1
 98
        0
  0
LINE
  5
40D
330
1F
100
AcDbEntity
  8
9
  6
Continuous
 62
     7
370
    35
100
AcDbLine
 10
57.74804718922707
 20
101.8095947664597
 30
0.0
 11
57.74804718922707
 21
88.36242391862925
 31
0.0
  0
LINE
  5
40E
330
1F
100
AcDbEntity
  8
9
  6
Continuous
 62
     7
370
    35
100
AcDbLine
 10
66.74804718922712
 20
88.36242391862925
 30
0.0
 11
66.74804718922712
 21
101.8095947664597
 31
0.0
  0
DIMENSION
  5
418
330
1F
100
AcDbEntity
  8
6
  6
Continuous
 62
     3
370
    25
100
AcDbDimension
  2
Dim3
 10
217.2480471892273
 20
483.3317086493898
 30
0.0
 11
139.7480471892275
 21
487.2317086493902
 31
0.0
 70
   160
  1
(<>
 71
     5
 42
-1.0
  3
Standard
100
AcDbAlignedDimension
 13
62.24804718922758
 23
399.1492227222216
 33
0.0
 14
217.2480471892272
 24
419.5170648766762
 34
0.0
100
AcDbRotatedDimension
1001
ACAD
1000
DSTYLE
1002
{
1070
   279
1070
     2
1070
   340
1005
21A
1070
   140
1040
6.600000000000001
1070
    40
1040
1.0
1070
   147
1040
0.0
1070
    76
1070
     0
1070
    75
1070
     0
1070
   344
1005
7C
1070
   343
1005
7C
1070
   173
1070
     1
1070
   289
1070
     2
1070
   288
1070
     1
1070
    77
1070
     1
1070
   172
1070
     1
1070
   174
1070
     0
1070
    74
1070
     0
1070
    73
1070
     0
1070
   284
1070
     8
1070
    78
1070
     8
1070
    42
1040
2.0
1070
    44
1040
2.0
1070
    43
1040
30.0
1070
   271
1070
     2
1070
    41
1040
4.600000000000001
1002
}
  0
DIMENSION
  5
422
330
1F
100
AcDbEntity
  8
6
  6
Continuous
 62
     3
370
    25
100
AcDbDimension
  2
Dim4
 10
19.79370093685003
 20
461.5170648766766
 30
0.0
 11
15.89370093685001
 21
315.07475349171
 31
0.0
 70
   160
  1
(<>
 71
     5
 42
-1.0
  3
Standard
100
AcDbAlignedDimension
 13
42.1818306033025
 23
168.6324421067438
 33
0.0
 14
175.2480471892272
 24
461.5170648766762
 34
0.0
 50
89.99999999999991
100
AcDbRotatedDimension
1001
ACAD
1000
DSTYLE
1002
{
1070
   279
1070
     2
1070
   340
1005
21A
1070
   140
1040
6.600000000000001
1070
    40
1040
1.0
1070
   147
1040
0.0
1070
    76
1070
     0
1070
    75
1070
     0
1070
   344
1005
7C
1070
   343
1005
7C
1070
   173
1070
     1
1070
   289
1070
     2
1070
   288
1070
     1
1070
    77
1070
     1
1070
   172
1070
     1
1070
   174
1070
     0
1070
    74
1070
     0
1070
    73
1070
     0
1070
   284
1070
     8
1070
    78
1070
     8
1070
    42
1040
2.0
1070
    44
1040
2.0
1070
    43
1040
30.0
1070
   271
1070
     2
1070
    41
1040
4.600000000000001
1002
}
  0
DIMENSION
  5
42C
330
1F
100
AcDbEntity
  8
6
  6
Continuous
 62
     3
370
    25
100
AcDbDimension
  2
Dim5
 10
298.470329289398
 20
71.25733509260499
 30
0.0
 11
240.4453293179307
 21
75.1573350926049
 31
0.0
 70
   160
  1
(<>
 71
     5
 42
-1.0
  3
Standard
100
AcDbAlignedDimension
 13
182.4203293464649
 23
235.6286307484679
 33
0.0
 14
298.4703292893984
 24
119.5786307484673
 34
0.0
100
AcDbRotatedDimension
1001
ACAD
1000
DSTYLE
1002
{
1070
   279
1070
     2
1070
   340
1005
21A
1070
   140
1040
6.600000000000001
1070
    40
1040
1.0
1070
   147
1040
0.0
1070
    76
1070
     0
1070
    75
1070
     0
1070
   344
1005
7C
1070
   343
1005
7C
1070
   173
1070
     1
1070
   289
1070
     2
1070
   288
1070
     1
1070
    77
1070
     1
1070
   172
1070
     1
1070
   174
1070
     0
1070
    74
1070
     0
1070
    73
1070
     0
1070
   284
1070
     8
1070
    78
1070
     8
1070
    42
1040
2.0
1070
    44
1040
2.0
1070
    43
1040
30.0
1070
   271
1070
     2
1070
    41
1040
4.600000000000001
1002
}
  0
MTEXT
  5
42D
330
1F
100
AcDbEntity
  8
9
  6
Continuous
 62
     7
370
     9
100
AcDbMText
 10
62.24804718922741
 20
183.1324421067438
 30
0.0
 40
3.5
 41
7.703503081399998
 71
     5
 72
     1
  1
{\fＭＳ Ｐゴシック;\W0.714286;K30}
 11
1.615544574432587E-15
 21
1.0
 31
0.0
 73
     1
 44
1.0
1001
ACAD
1000
ACAD_MTEXT_DEFINED_HEIGHT_BEGIN
1070
    46
1040
3.5
1000
ACAD_MTEXT_DEFINED_HEIGHT_END
  0
LINE
  5
42E
330
1F
100
AcDbEntity
  8
3
  6
DASHDOT
 62
     1
370
    25
100
AcDbLine
 10
175.2480471892272
 20
465.9952197308003
 30
0.0
 11
175.2480471892272
 21
321.5170648766757
 31
0.0
  0
LINE
  5
42F
330
1F
100
AcDbEntity
  8
3
  6
DASHDOT
 62
     1
370
    25
100
AcDbLine
 10
34.81869470643568
 20
332.5170648766757
 30
0.0
 11
213.112247518513
 21
332.5170648766757
 31
0.0
  0
LINE
  5
430
330
1F
100
AcDbEntity
  8
3
  6
DASHDOT
 62
     1
370
    25
100
AcDbLine
 10
62.24804718922746
 20
416.309461402649
 30
0.0
 11
62.24804718922746
 21
125.1700924040124
 31
0.0
  0
LINE
  5
431
330
1F
100
AcDbEntity
  8
3
  6
DASHDOT
 62
     1
370
    25
100
AcDbLine
 10
298.4703292893984
 20
103.9918230853064
 30
0.0
 11
298.4703292893984
 21
466.5170648766161
 31
0.0
  0
LINE
  5
432
330
1F
100
AcDbEntity
  8
3
  6
DASHDOT
 62
     1
370
    25
100
AcDbLine
 10
325.4703292893981
 20
235.6286307484675
 30
0.0
 11
165.4206303869794
 21
235.6286307484679
 31
0.0
  0
LINE
  5
433
330
1F
100
AcDbEntity
  8
3
  6
DASHDOT
 62
     1
370
    25
100
AcDbLine
 10
284.1562905383655
 20
332.5170648766757
 30
0.0
 11
313.3134718623509
 21
332.5170648766757
 31
0.0
  0
ARC
  5
434
330
1F
100
AcDbEntity
  8
11
  6
HIDDEN
 62
     2
370
    25
100
AcDbCircle
 10
51.87304718922746
 20
125.0632491547058
 30
0.0
 40
17.12723214285709
100
AcDbArc
 50
52.71641621260111
 51
127.2835837873992
  0
ARC
  5
435
330
1F
100
AcDbEntity
  8
11
  6
HIDDEN
 62
     2
370
    25
100
AcDbCircle
 10
72.62304718922746
 20
152.3177134404195
 30
0.0
 40
17.12723214285698
100
AcDbArc
 50
232.7164162125989
 51
307.2835837873985
  0
POLYLINE
  5
436
330
1F
100
AcDbEntity
  8
11
  6
HIDDEN
 62
     2
370
    25
100
AcDb2dPolyline
 66
     1
 10
0.0
 20
0.0
 30
0.0
  0
VERTEX
  5
437
330
436
100
AcDbEntity
  8
11
  6
HIDDEN
 62
     2
370
    25
100
AcDbVertex
100
AcDb2dVertex
 10
82.99804718922746
 20
138.6904812975627
 30
0.0
  0
VERTEX
  5
438
330
436
100
AcDbEntity
  8
11
  6
HIDDEN
 62
     2
370
    25
100
AcDbVertex
100
AcDb2dVertex
 10
82.99804718922746
 20
168.6324421067438
 30
0.0
  0
VERTEX
  5
439
330
436
100
AcDbEntity
  8
11
  6
HIDDEN
 62
     2
370
    25
100
AcDbVertex
100
AcDb2dVertex
 10
41.49804718922746
 20
168.6324421067438
 30
0.0
  0
VERTEX
  5
43A
330
436
100
AcDbEntity
  8
11
  6
HIDDEN
 62
     2
370
    25
100
AcDbVertex
100
AcDb2dVertex
 10
41.49804718922746
 20
138.6904812975627
 30
0.0
  0
SEQEND
  5
43B
330
436
100
AcDbEntity
  8
11
  6
HIDDEN
 62
     2
370
    25
  0
ARC
  5
43C
330
1F
100
AcDbEntity
  8
11
  6
HIDDEN
 62
     2
370
    25
100
AcDbCircle
 10
51.87304718922746
 20
152.31771344042
 30
0.0
 40
17.12723214285705
100
AcDbArc
 50
232.7164162126001
 51
307.2835837873976
  0
LINE
  5
43D
330
1F
100
AcDbEntity
  8
11
  6
HIDDEN
 62
     2
370
    25
100
AcDbLine
 10
45.24804718922746
 20
365.5170648766757
 30
0.0
 11
79.24804718922746
 21
365.5170648766762
 31
0.0
  0
POLYLINE
  5
43E
330
1F
100
AcDbEntity
  8
11
  6
HIDDEN
 62
     2
370
    25
100
AcDb2dPolyline
 66
     1
 10
0.0
 20
0.0
 30
0.0
  0
VERTEX
  5
43F
330
43E
100
AcDbEntity
  8
11
  6
HIDDEN
 62
     2
370
    25
100
AcDbVertex
100
AcDb2dVertex
 10
79.24804718922746
 20
362.5170648766762
 30
0.0
  0
VERTEX
  5
440
330
43E
100
AcDbEntity
  8
11
  6
HIDDEN
 62
     2
370
    25
100
AcDbVertex
100
AcDb2dVertex
 10
79.24804718922746
 20
399.1492227222207
 30
0.0
  0
SEQEND
  5
441
330
43E
100
AcDbEntity
  8
11
  6
HIDDEN
 62
     2
370
    25
  0
ARC
  5
442
330
1F
100
AcDbEntity
  8
11
  6
HIDDEN
 62
     2
370
    25
100
AcDbCircle
 10
70.74804718922701
 20
390.5777941507895
 30
0.0
 40
12.07142857143076
100
AcDbArc
 50
45.23972989608801
 51
134.7602701039089
  0
POLYLINE
  5
443
330
1F
100
AcDbEntity
  8
11
  6
HIDDEN
 62
     2
370
    25
100
AcDb2dPolyline
 66
     1
 10
0.0
 20
0.0
 30
0.0
  0
VERTEX
  5
444
330
443
100
AcDbEntity
  8
11
  6
HIDDEN
 62
     2
370
    25
100
AcDbVertex
100
AcDb2dVertex
 10
45.24804718922746
 20
362.5170648766762
 30
0.0
  0
VERTEX
  5
445
330
443
100
AcDbEntity
  8
11
  6
HIDDEN
 62
     2
370
    25
100
AcDbVertex
100
AcDb2dVertex
 10
45.24804718922746
 20
399.1492227222207
 30
0.0
  0
SEQEND
  5
446
330
443
100
AcDbEntity
  8
11
  6
HIDDEN
 62
     2
370
    25
  0
ARC
  5
447
330
1F
100
AcDbEntity
  8
11
  6
HIDDEN
 62
     2
370
    25
100
AcDbCircle
 10
53.7480471892278
 20
390.5777941507918
 30
0.0
 40
12.07142857142922
100
AcDbArc
 50
45.23972989608346
 51
134.7602701039192
  0
ARC
  5
448
330
1F
100
AcDbEntity
  8
11
  6
HIDDEN
 62
     2
370
    25
100
AcDbCircle
 10
70.74804718922701
 20
407.7206512936509
 30
0.0
 40
12.07142857142931
100
AcDbArc
 50
225.2397298960877
 51
314.7602701039143
  0
POLYLINE
  5
449
330
1F
100
AcDbEntity
  8
11
  6
HIDDEN
 62
     2
370
    25
100
AcDb2dPolyline
 66
     1
 10
0.0
 20
0.0
 30
0.0
  0
VERTEX
  5
44A
330
449
100
AcDbEntity
  8
11
  6
HIDDEN
 62
     2
370
    25
100
AcDbVertex
100
AcDb2dVertex
 10
45.24804718922746
 20
367.9005720618643
 30
0.0
  0
VERTEX
  5
44B
330
449
100
AcDbEntity
  8
11
  6
HIDDEN
 62
     2
370
    25
100
AcDbVertex
100
AcDb2dVertex
 10
47.24804718922746
 20
365.5170648766762
 30
0.0
  0
VERTEX
  5
44C
330
449
100
AcDbEntity
  8
11
  6
HIDDEN
 62
     2
370
    25
100
AcDbVertex
100
AcDb2dVertex
 10
47.24804718922746
 20
362.5170648766762
 30
0.0
  0
SEQEND
  5
44D
330
449
100
AcDbEntity
  8
11
  6
HIDDEN
 62
     2
370
    25
  0
POLYLINE
  5
44E
330
1F
100
AcDbEntity
  8
11
  6
HIDDEN
 62
     2
370
    25
100
AcDb2dPolyline
 66
     1
 10
0.0
 20
0.0
 30
0.0
  0
VERTEX
  5
44F
330
44E
100
AcDbEntity
  8
11
  6
HIDDEN
 62
     2
370
    25
100
AcDbVertex
100
AcDb2dVertex
 10
79.24804718922746
 20
367.9005720618643
 30
0.0
  0
VERTEX
  5
450
330
44E
100
AcDbEntity
  8
11
  6
HIDDEN
 62
     2
370
    25
100
AcDbVertex
100
AcDb2dVertex
 10
77.24804718922746
 20
365.5170648766762
 30
0.0
  0
VERTEX
  5
451
330
44E
100
AcDbEntity
  8
11
  6
HIDDEN
 62
     2
370
    25
100
AcDbVertex
100
AcDb2dVertex
 10
77.24804718922746
 20
362.5170648766762
 30
0.0
  0
SEQEND
  5
452
330
44E
100
AcDbEntity
  8
11
  6
HIDDEN
 62
     2
370
    25
  0
ARC
  5
453
330
1F
100
AcDbEntity
  8
9
  6
Continuous
 62
     7
370
    35
100
AcDbCircle
 10
282.4256618161783
 20
190.75755698177
 30
0.0
 40
12.66120791411041
100
AcDbArc
 50
274.3272801182948
 51
298.5167942723193
  0
ARC
  5
454
330
1F
100
AcDbEntity
  8
9
  6
Continuous
 62
     7
370
    35
100
AcDbCircle
 10
282.4256618161784
 20
175.5073272317177
 30
0.0
 40
12.66120791411041
100
AcDbArc
 50
61.48320572768042
 51
85.6727198817049
  0
POLYLINE
  5
455
330
1F
100
AcDbEntity
  8
8
  6
Continuous
 62
     4
370
    25
100
AcDb2dPolyline
 66
     1
 10
0.0
 20
0.0
 30
0.0
  0
VERTEX
  5
456
330
455
100
AcDbEntity
  8
8
  6
Continuous
 62
     4
370
    25
100
AcDbVertex
100
AcDb2dVertex
 10
283.7818371576759
 20
168.6324421067438
 30
0.0
  0
VERTEX
  5
457
330
455
100
AcDbEntity
  8
8
  6
Continuous
 62
     4
370
    25
100
AcDbVertex
100
AcDb2dVertex
 10
283.5776373483098
 20
175.1324421067438
 30
0.0
  0
VERTEX
  5
458
330
455
100
AcDbEntity
  8
8
  6
Continuous
 62
     4
370
    25
100
AcDbVertex
100
AcDb2dVertex
 10
281.4833912824486
 20
178.1324421067438
 30
0.0
  0
SEQEND
  5
459
330
455
100
AcDbEntity
  8
8
  6
Continuous
 62
     4
370
    25
  0
POLYLINE
  5
45A
330
1F
100
AcDbEntity
  8
9
  6
Continuous
 62
     7
370
    35
100
AcDb2dPolyline
 66
     1
 10
0.0
 20
0.0
 30
0.0
  0
VERTEX
  5
45B
330
45A
100
AcDbEntity
  8
9
  6
Continuous
 62
     7
370
    35
100
AcDbVertex
100
AcDb2dVertex
 10
281.4703292893983
 20
178.5482258192274
 30
0.0
  0
VERTEX
  5
45C
330
45A
100
AcDbEntity
  8
9
  6
Continuous
 62
     7
370
    35
100
AcDbVertex
100
AcDb2dVertex
 10
281.7818371576759
 20
168.6324421067438
 30
0.0
  0
SEQEND
  5
45D
330
45A
100
AcDbEntity
  8
9
  6
Continuous
 62
     7
370
    35
  0
LINE
  5
45E
330
1F
100
AcDbEntity
  8
9
  6
Continuous
 62
     7
370
    35
100
AcDbLine
 10
282.6207926718546
 20
188.1324421067438
 30
0.0
 11
278.4703292893983
 21
186.6324421067438
 31
0.0
  0
LINE
  5
45F
330
1F
100
AcDbEntity
  8
9
  6
Continuous
 62
     7
370
    35
100
AcDbLine
 10
282.6207926718546
 20
178.1324421067438
 30
0.0
 11
278.4703292893983
 21
179.6324421067438
 31
0.0
  0
POLYLINE
  5
460
330
1F
100
AcDbEntity
  8
9
  6
Continuous
 62
     7
370
    35
100
AcDb2dPolyline
 66
     1
 10
0.0
 20
0.0
 30
0.0
  0
VERTEX
  5
461
330
460
100
AcDbEntity
  8
9
  6
Continuous
 62
     7
370
    35
100
AcDbVertex
100
AcDb2dVertex
 10
278.4703292893983
 20
179.6324421067438
 30
0.0
  0
VERTEX
  5
462
330
460
100
AcDbEntity
  8
9
  6
Continuous
 62
     7
370
    35
100
AcDbVertex
100
AcDb2dVertex
 10
278.4703292893983
 20
186.6324421067438
 30
0.0
  0
SEQEND
  5
463
330
460
100
AcDbEntity
  8
9
  6
Continuous
 62
     7
370
    35
  0
POLYLINE
  5
464
330
1F
100
AcDbEntity
  8
9
  6
Continuous
 62
     7
370
    35
100
AcDb2dPolyline
 66
     1
 10
0.0
 20
0.0
 30
0.0
  0
VERTEX
  5
465
330
464
100
AcDbEntity
  8
9
  6
Continuous
 62
     7
370
    35
100
AcDbVertex
100
AcDb2dVertex
 10
281.4703292893983
 20
187.7166583942603
 30
0.0
  0
VERTEX
  5
466
330
464
100
AcDbEntity
  8
9
  6
Continuous
 62
     7
370
    35
100
AcDbVertex
100
AcDb2dVertex
 10
281.7345943895708
 20
196.128630748467
 30
0.0
  0
SEQEND
  5
467
330
464
100
AcDbEntity
  8
9
  6
Continuous
 62
     7
370
    35
  0
POLYLINE
  5
468
330
1F
100
AcDbEntity
  8
8
  6
Continuous
 62
     4
370
    25
100
AcDb2dPolyline
 66
     1
 10
0.0
 20
0.0
 30
0.0
  0
VERTEX
  5
469
330
468
100
AcDbEntity
  8
8
  6
Continuous
 62
     4
370
    25
100
AcDbVertex
100
AcDb2dVertex
 10
283.7345943895708
 20
196.128630748467
 30
0.0
  0
VERTEX
  5
46A
330
468
100
AcDbEntity
  8
8
  6
Continuous
 62
     4
370
    25
100
AcDbVertex
100
AcDb2dVertex
 10
283.5776373483098
 20
191.1324421067438
 30
0.0
  0
VERTEX
  5
46B
330
468
100
AcDbEntity
  8
8
  6
Continuous
 62
     4
370
    25
100
AcDbVertex
100
AcDb2dVertex
 10
281.4833912824486
 20
188.1324421067438
 30
0.0
  0
SEQEND
  5
46C
330
468
100
AcDbEntity
  8
8
  6
Continuous
 62
     4
370
    25
  0
POLYLINE
  5
46D
330
1F
100
AcDbEntity
  8
9
  6
Continuous
 62
     7
370
    35
100
AcDb2dPolyline
 66
     1
 10
0.0
 20
0.0
 30
0.0
  0
VERTEX
  5
46E
330
46D
100
AcDbEntity
  8
9
  6
Continuous
 62
     7
370
    35
100
AcDbVertex
100
AcDb2dVertex
 10
315.1588214211208
 20
168.6324421067438
 30
0.0
  0
VERTEX
  5
46F
330
46D
100
AcDbEntity
  8
9
  6
Continuous
 62
     7
370
    35
100
AcDbVertex
100
AcDb2dVertex
 10
315.4703292893983
 20
178.5482258192274
 30
0.0
  0
SEQEND
  5
470
330
46D
100
AcDbEntity
  8
9
  6
Continuous
 62
     7
370
    35
  0
POLYLINE
  5
471
330
1F
100
AcDbEntity
  8
8
  6
Continuous
 62
     4
370
    25
100
AcDb2dPolyline
 66
     1
 10
0.0
 20
0.0
 30
0.0
  0
VERTEX
  5
472
330
471
100
AcDbEntity
  8
8
  6
Continuous
 62
     4
370
    25
100
AcDbVertex
100
AcDb2dVertex
 10
313.1588214211209
 20
168.6324421067438
 30
0.0
  0
VERTEX
  5
473
330
471
100
AcDbEntity
  8
8
  6
Continuous
 62
     4
370
    25
100
AcDbVertex
100
AcDb2dVertex
 10
313.3630212304868
 20
175.1324421067438
 30
0.0
  0
VERTEX
  5
474
330
471
100
AcDbEntity
  8
8
  6
Continuous
 62
     4
370
    25
100
AcDbVertex
100
AcDb2dVertex
 10
315.457267296348
 20
178.1324421067438
 30
0.0
  0
SEQEND
  5
475
330
471
100
AcDbEntity
  8
8
  6
Continuous
 62
     4
370
    25
  0
LINE
  5
476
330
1F
100
AcDbEntity
  8
9
  6
Continuous
 62
     7
370
    35
100
AcDbLine
 10
314.319865906942
 20
188.1324421067438
 30
0.0
 11
318.4703292893983
 21
186.6324421067438
 31
0.0
  0
LINE
  5
477
330
1F
100
AcDbEntity
  8
9
  6
Continuous
 62
     7
370
    35
100
AcDbLine
 10
314.319865906942
 20
178.1324421067438
 30
0.0
 11
318.4703292893983
 21
179.6324421067438
 31
0.0
  0
POLYLINE
  5
478
330
1F
100
AcDbEntity
  8
9
  6
Continuous
 62
     7
370
    35
100
AcDb2dPolyline
 66
     1
 10
0.0
 20
0.0
 30
0.0
  0
VERTEX
  5
479
330
478
100
AcDbEntity
  8
9
  6
Continuous
 62
     7
370
    35
100
AcDbVertex
100
AcDb2dVertex
 10
318.4703292893983
 20
186.6324421067438
 30
0.0
  0
VERTEX
  5
47A
330
478
100
AcDbEntity
  8
9
  6
Continuous
 62
     7
370
    35
100
AcDbVertex
100
AcDb2dVertex
 10
318.4703292893983
 20
179.6324421067438
 30
0.0
  0
SEQEND
  5
47B
330
478
100
AcDbEntity
  8
9
  6
Continuous
 62
     7
370
    35
  0
POLYLINE
  5
47C
330
1F
100
AcDbEntity
  8
8
  6
Continuous
 62
     4
370
    25
100
AcDb2dPolyline
 66
     1
 10
0.0
 20
0.0
 30
0.0
  0
VERTEX
  5
47D
330
47C
100
AcDbEntity
  8
8
  6
Continuous
 62
     4
370
    25
100
AcDbVertex
100
AcDb2dVertex
 10
313.2060641892259
 20
196.128630748467
 30
0.0
  0
VERTEX
  5
47E
330
47C
100
AcDbEntity
  8
8
  6
Continuous
 62
     4
370
    25
100
AcDbVertex
100
AcDb2dVertex
 10
313.3630212304868
 20
191.1324421067438
 30
0.0
  0
VERTEX
  5
47F
330
47C
100
AcDbEntity
  8
8
  6
Continuous
 62
     4
370
    25
100
AcDbVertex
100
AcDb2dVertex
 10
315.457267296348
 20
188.1324421067438
 30
0.0
  0
SEQEND
  5
480
330
47C
100
AcDbEntity
  8
8
  6
Continuous
 62
     4
370
    25
  0
POLYLINE
  5
481
330
1F
100
AcDbEntity
  8
9
  6
Continuous
 62
     7
370
    35
100
AcDb2dPolyline
 66
     1
 10
0.0
 20
0.0
 30
0.0
  0
VERTEX
  5
482
330
481
100
AcDbEntity
  8
9
  6
Continuous
 62
     7
370
    35
100
AcDbVertex
100
AcDb2dVertex
 10
315.2060641892259
 20
196.128630748467
 30
0.0
  0
VERTEX
  5
483
330
481
100
AcDbEntity
  8
9
  6
Continuous
 62
     7
370
    35
100
AcDbVertex
100
AcDb2dVertex
 10
315.4703292893983
 20
187.7166583942603
 30
0.0
  0
SEQEND
  5
484
330
481
100
AcDbEntity
  8
9
  6
Continuous
 62
     7
370
    35
  0
LINE
  5
485
330
1F
100
AcDbEntity
  8
9
  6
Continuous
 62
     7
370
    35
100
AcDbLine
 10
281.4703292893983
 20
191.1324421067438
 30
0.0
 11
288.0444639347173
 21
191.1324421067438
 31
0.0
  0
LINE
  5
486
330
1F
100
AcDbEntity
  8
9
  6
Continuous
 62
     7
370
    35
100
AcDbLine
 10
313.8961946440793
 20
191.1324421067438
 30
0.0
 11
315.3630212304868
 21
191.1324421067438
 31
0.0
  0
POLYLINE
  5
487
330
1F
100
AcDbEntity
  8
9
  6
Continuous
 62
     7
370
    35
100
AcDb2dPolyline
 66
     1
 10
0.0
 20
0.0
 30
0.0
  0
VERTEX
  5
488
330
487
100
AcDbEntity
  8
9
  6
Continuous
 62
     7
370
    35
100
AcDbVertex
100
AcDb2dVertex
 10
282.6207926718548
 20
188.1324421067438
 30
0.0
  0
VERTEX
  5
489
330
487
100
AcDbEntity
  8
9
  6
Continuous
 62
     7
370
    35
100
AcDbVertex
100
AcDb2dVertex
 10
288.1230216994248
 20
188.1324421067438
 30
0.0
  0
SEQEND
  5
48A
330
487
100
AcDbEntity
  8
9
  6
Continuous
 62
     7
370
    35
  0
POLYLINE
  5
48B
330
1F
100
AcDbEntity
  8
9
  6
Continuous
 62
     7
370
    35
100
AcDb2dPolyline
 66
     1
 10
0.0
 20
0.0
 30
0.0
  0
VERTEX
  5
48C
330
48B
100
AcDbEntity
  8
9
  6
Continuous
 62
     7
370
    35
100
AcDbVertex
100
AcDb2dVertex
 10
314.319865906942
 20
188.1324421067438
 30
0.0
  0
VERTEX
  5
48D
330
48B
100
AcDbEntity
  8
9
  6
Continuous
 62
     7
370
    35
100
AcDbVertex
100
AcDb2dVertex
 10
313.8176368793718
 20
188.1324421067438
 30
0.0
  0
SEQEND
  5
48E
330
48B
100
AcDbEntity
  8
9
  6
Continuous
 62
     7
370
    35
  0
POLYLINE
  5
48F
330
1F
100
AcDbEntity
  8
9
  6
Continuous
 62
     7
370
    35
100
AcDb2dPolyline
 66
     1
 10
0.0
 20
0.0
 30
0.0
  0
VERTEX
  5
490
330
48F
100
AcDbEntity
  8
9
  6
Continuous
 62
     7
370
    35
100
AcDbVertex
100
AcDb2dVertex
 10
282.6207926718545
 20
178.1324421067438
 30
0.0
  0
VERTEX
  5
491
330
48F
100
AcDbEntity
  8
9
  6
Continuous
 62
     7
370
    35
100
AcDbVertex
100
AcDb2dVertex
 10
288.3848809151166
 20
178.1324421067438
 30
0.0
  0
SEQEND
  5
492
330
48F
100
AcDbEntity
  8
9
  6
Continuous
 62
     7
370
    35
  0
POLYLINE
  5
493
330
1F
100
AcDbEntity
  8
9
  6
Continuous
 62
     7
370
    35
100
AcDb2dPolyline
 66
     1
 10
0.0
 20
0.0
 30
0.0
  0
VERTEX
  5
494
330
493
100
AcDbEntity
  8
9
  6
Continuous
 62
     7
370
    35
100
AcDbVertex
100
AcDb2dVertex
 10
314.319865906942
 20
178.1324421067438
 30
0.0
  0
VERTEX
  5
495
330
493
100
AcDbEntity
  8
9
  6
Continuous
 62
     7
370
    35
100
AcDbVertex
100
AcDb2dVertex
 10
313.5557776636801
 20
178.1324421067438
 30
0.0
  0
SEQEND
  5
496
330
493
100
AcDbEntity
  8
9
  6
Continuous
 62
     7
370
    35
  0
LINE
  5
497
330
1F
100
AcDbEntity
  8
9
  6
Continuous
 62
     7
370
    35
100
AcDbLine
 10
281.4703292893983
 20
175.1324421067438
 30
0.0
 11
288.4634386798241
 21
175.1324421067438
 31
0.0
  0
LINE
  5
498
330
1F
100
AcDbEntity
  8
9
  6
Continuous
 62
     7
370
    35
100
AcDbLine
 10
313.4772198989726
 20
175.1324421067438
 30
0.0
 11
315.4703292893983
 21
175.1324421067438
 31
0.0
  0
LINE
  5
499
330
1F
100
AcDbEntity
  8
11
  6
HIDDEN
 62
     2
370
    25
100
AcDbLine
 10
319.2203292893983
 20
138.6904812975627
 30
0.0
 11
319.2203292893983
 21
168.6324421067438
 31
0.0
  0
LINE
  5
49A
330
1F
100
AcDbEntity
  8
11
  6
HIDDEN
 62
     2
370
    25
100
AcDbLine
 10
277.7203292893983
 20
168.6324421067438
 30
0.0
 11
277.7203292893983
 21
138.6904812975627
 31
0.0
  0
LINE
  5
49B
330
1F
100
AcDbEntity
  8
11
  6
HIDDEN
 62
     2
370
    25
100
AcDbLine
 10
319.2203292893983
 20
168.6324421067438
 30
0.0
 11
313.307011408773
 21
168.6324421067438
 31
0.0
  0
LINE
  5
49C
330
1F
100
AcDbEntity
  8
11
  6
HIDDEN
 62
     2
370
    25
100
AcDbLine
 10
288.6336471700238
 20
168.6324421067438
 30
0.0
 11
277.7203292893983
 21
168.6324421067438
 31
0.0
  0
ARC
  5
49D
330
1F
100
AcDbEntity
  8
11
  6
HIDDEN
 62
     2
370
    25
100
AcDbCircle
 10
308.8453292893983
 20
152.3177134404195
 30
0.0
 40
17.12723214285698
100
AcDbArc
 50
282.119790690878
 51
307.2835837873985
  0
ARC
  5
49E
330
1F
100
AcDbEntity
  8
11
  6
HIDDEN
 62
     2
370
    25
100
AcDbCircle
 10
288.0953292893983
 20
152.31771344042
 30
0.0
 40
17.12723214285705
100
AcDbArc
 50
232.7164162126001
 51
274.7306086865867
  0
ARC
  5
49F
330
1F
100
AcDbEntity
  8
11
  6
HIDDEN
 62
     2
370
    25
100
AcDbCircle
 10
288.0953292893983
 20
125.0632491547058
 30
0.0
 40
17.12723214285709
100
AcDbArc
 50
85.87540469679435
 51
127.2835837873992
  0
MTEXT
  5
4A0
330
1F
100
AcDbEntity
  8
6
  6
Continuous
 62
     3
370
     9
100
AcDbMText
 10
288.1625034902288
 20
6.188559942877873
 30
0.0
 40
6.0
 41
32.83852742112
 71
     7
 72
     1
  1
{\fＭＳ Ｐゴシック;\W0.714286;尺度 1/2}
 73
     1
 44
1.0
1001
ACAD
1000
ACAD_MTEXT_DEFINED_HEIGHT_BEGIN
1070
    46
1040
6.0
1000
ACAD_MTEXT_DEFINED_HEIGHT_END
  0
POLYLINE
  5
4A1
330
1F
100
AcDbEntity
  8
11
  6
HIDDEN
 62
     2
370
    25
100
AcDb2dPolyline
 66
     1
 10
0.0
 20
0.0
 30
0.0
  0
VERTEX
  5
4A2
330
4A1
100
AcDbEntity
  8
11
  6
HIDDEN
 62
     2
370
    25
100
AcDbVertex
100
AcDb2dVertex
 10
315.4703292893984
 20
362.5170648766762
 30
0.0
  0
VERTEX
  5
4A3
330
4A1
100
AcDbEntity
  8
11
  6
HIDDEN
 62
     2
370
    25
100
AcDbVertex
100
AcDb2dVertex
 10
315.4703292893984
 20
399.1492227222207
 30
0.0
  0
SEQEND
  5
4A4
330
4A1
100
AcDbEntity
  8
11
  6
HIDDEN
 62
     2
370
    25
  0
POLYLINE
  5
4A5
330
1F
100
AcDbEntity
  8
11
  6
HIDDEN
 62
     2
370
    25
100
AcDb2dPolyline
 66
     1
 10
0.0
 20
0.0
 30
0.0
  0
VERTEX
  5
4A6
330
4A5
100
AcDbEntity
  8
11
  6
HIDDEN
 62
     2
370
    25
100
AcDbVertex
100
AcDb2dVertex
 10
281.4703292893984
 20
367.9005720618643
 30
0.0
  0
VERTEX
  5
4A7
330
4A5
100
AcDbEntity
  8
11
  6
HIDDEN
 62
     2
370
    25
100
AcDbVertex
100
AcDb2dVertex
 10
283.4703292893984
 20
365.5170648766762
 30
0.0
  0
VERTEX
  5
4A8
330
4A5
100
AcDbEntity
  8
11
  6
HIDDEN
 62
     2
370
    25
100
AcDbVertex
100
AcDb2dVertex
 10
283.4703292893984
 20
362.5170648766762
 30
0.0
  0
SEQEND
  5
4A9
330
4A5
100
AcDbEntity
  8
11
  6
HIDDEN
 62
     2
370
    25
  0
POLYLINE
  5
4AA
330
1F
100
AcDbEntity
  8
11
  6
HIDDEN
 62
     2
370
    25
100
AcDb2dPolyline
 66
     1
 10
0.0
 20
0.0
 30
0.0
  0
VERTEX
  5
4AB
330
4AA
100
AcDbEntity
  8
11
  6
HIDDEN
 62
     2
370
    25
100
AcDbVertex
100
AcDb2dVertex
 10
315.4703292893984
 20
367.9005720618643
 30
0.0
  0
VERTEX
  5
4AC
330
4AA
100
AcDbEntity
  8
11
  6
HIDDEN
 62
     2
370
    25
100
AcDbVertex
100
AcDb2dVertex
 10
313.4703292893984
 20
365.5170648766762
 30
0.0
  0
VERTEX
  5
4AD
330
4AA
100
AcDbEntity
  8
11
  6
HIDDEN
 62
     2
370
    25
100
AcDbVertex
100
AcDb2dVertex
 10
313.4703292893984
 20
362.5170648766762
 30
0.0
  0
SEQEND
  5
4AE
330
4AA
100
AcDbEntity
  8
11
  6
HIDDEN
 62
     2
370
    25
  0
ARC
  5
4AF
330
1F
100
AcDbEntity
  8
11
  6
HIDDEN
 62
     2
370
    25
100
AcDbCircle
 10
306.9703292893979
 20
390.5777941507895
 30
0.0
 40
12.07142857143076
100
AcDbArc
 50
45.23972989608801
 51
62.89508299486662
  0
ARC
  5
4B0
330
1F
100
AcDbEntity
  8
11
  6
HIDDEN
 62
     2
370
    25
100
AcDbCircle
 10
306.9703292893979
 20
407.7206512936509
 30
0.0
 40
12.07142857142931
100
AcDbArc
 50
297.1049170051359
 51
314.7602701039143
  0
POLYLINE
  5
4B1
330
1F
100
AcDbEntity
  8
11
  6
HIDDEN
 62
     2
370
    25
100
AcDb2dPolyline
 66
     1
 10
0.0
 20
0.0
 30
0.0
  0
VERTEX
  5
4B2
330
4B1
100
AcDbEntity
  8
11
  6
HIDDEN
 62
     2
370
    25
100
AcDbVertex
100
AcDb2dVertex
 10
281.4703292893984
 20
362.5170648766762
 30
0.0
  0
VERTEX
  5
4B3
330
4B1
100
AcDbEntity
  8
11
  6
HIDDEN
 62
     2
370
    25
100
AcDbVertex
100
AcDb2dVertex
 10
281.4703292893984
 20
377.5170648766759
 30
0.0
  0
SEQEND
  5
4B4
330
4B1
100
AcDbEntity
  8
11
  6
HIDDEN
 62
     2
370
    25
  0
LINE
  5
4B5
330
1F
100
AcDbEntity
  8
11
  6
HIDDEN
 62
     2
370
    25
100
AcDbLine
 10
281.4703292893984
 20
365.5170648766757
 30
0.0
 11
289.9703292893986
 21
365.5170648766757
 31
0.0
  0
LINE
  5
4B6
330
1F
100
AcDbEntity
  8
11
  6
HIDDEN
 62
     2
370
    25
100
AcDbLine
 10
306.9703292893986
 20
365.5170648766757
 30
0.0
 11
315.4703292893984
 21
365.5170648766762
 31
0.0
  0
VIEWPORT
  5
6A
102
{ACAD_XDICTIONARY
360
4BE
102
}
330
1B
100
AcDbEntity
 67
     1
  8
0
100
AcDbViewport
 10
210.0
 20
297.0
 30
0.0
 40
420.0
 41
594.0
 68
     1
 69
     1
 12
210.0
 22
297.0
 13
0.0
 23
0.0
 14
0.5
 24
0.5
 15
0.5
 25
0.5
 16
0.0
 26
0.0
 36
1.0
 17
0.0
 27
0.0
 37
0.0
 42
50.0
 43
0.0
 44
0.0
 45
9.0
 50
0.0
 51
0.0
 72
   100
 90
   557152
  1

281
     0
 71
     1
 74
     0
110
0.0
120
0.0
130
0.0
111
1.0
121
0.0
131
0.0
112
0.0
122
1.0
132
0.0
 79
     0
146
0.0
  0
ENDSEC
  0
SECTION
  2
OBJECTS
  0
DICTIONARY
  5
C
330
0
100
AcDbDictionary
281
     1
  3
ACAD_GROUP
350
D
  3
ACAD_LAYOUT
350
1A
  3
ACAD_MATERIAL
350
43
  3
ACAD_MLEADERSTYLE
350
4B9
  3
ACAD_MLINESTYLE
350
17
  3
ACAD_PLOTSETTINGS
350
19
  3
ACAD_PLOTSTYLENAME
350
E
  3
ACAD_SCALELIST
350
47
  3
ACAD_VISUALSTYLE
350
2A
  3
AcDbVariableDictionary
350
4B7
  0
DICTIONARY
  5
4C0
330
8
100
AcDbDictionary
280
     1
281
     1
  3
ACAD_XREC_ROUNDTRIP
360
4C1
  0
DICTIONARY
  5
4BE
330
6A
100
AcDbDictionary
280
     1
281
     1
  3
ACAD_XREC_ROUNDTRIP
360
4BF
  0
DICTIONARY
  5
D
102
{ACAD_REACTORS
330
C
102
}
330
C
100
AcDbDictionary
281
     1
  0
DICTIONARY
  5
1A
102
{ACAD_REACTORS
330
C
102
}
330
C
100
AcDbDictionary
281
     1
  3
Layout1
350
1E
  3
Layout2
350
26
  3
Model
350
22
  0
DICTIONARY
  5
43
102
{ACAD_REACTORS
330
C
102
}
330
C
100
AcDbDictionary
281
     1
  3
ByBlock
350
45
  3
ByLayer
350
44
  3
Global
350
46
  0
DICTIONARY
  5
4B9
102
{ACAD_REACTORS
330
C
102
}
330
C
100
AcDbDictionary
281
     1
  0
DICTIONARY
  5
17
102
{ACAD_REACTORS
330
C
102
}
330
C
100
AcDbDictionary
281
     1
  3
Standard
350
18
  0
DICTIONARY
  5
19
102
{ACAD_REACTORS
330
C
102
}
330
C
100
AcDbDictionary
281
     1
  0
ACDBDICTIONARYWDFLT
  5
E
102
{ACAD_REACTORS
330
C
102
}
330
C
100
AcDbDictionary
281
     1
  3
Normal
350
F
100
AcDbDictionaryWithDefault
340
F
  0
DICTIONARY
  5
47
102
{ACAD_REACTORS
330
C
102
}
330
C
100
AcDbDictionary
281
     1
  3
A0
350
48
  3
A1
350
49
  3
A2
350
4A
  3
A3
350
4B
  3
A4
350
4C
  3
A5
350
4D
  3
A6
350
4E
  3
A7
350
4F
  3
A8
350
50
  3
A9
350
51
  3
B0
350
52
  3
B1
350
53
  3
B2
350
54
  3
B3
350
55
  3
B4
350
56
  3
B5
350
57
  3
B6
350
58
  3
B7
350
59
  3
B8
350
5A
  3
B9
350
5B
  3
C0
350
5C
  3
C1
350
5D
  3
C2
350
5E
  3
C3
350
5F
  3
C4
350
60
  3
C5
350
61
  3
C6
350
62
  3
C7
350
63
  3
C8
350
64
  3
C9
350
65
  3
D0
350
66
  3
D1
350
67
  3
D2
350
68
  0
DICTIONARY
  5
2A
102
{ACAD_REACTORS
330
C
102
}
330
C
100
AcDbDictionary
281
     1
  3
2dWireframe
350
2F
  3
Basic
350
32
  3
Brighten
350
36
  3
ColorChange
350
3A
  3
Conceptual
350
34
  3
Dim
350
35
  3
EdgeColorOff
350
3D
  3
Facepattern
350
39
  3
Flat
350
2B
  3
FlatWithEdges
350
2C
  3
Gouraud
350
2D
  3
GouraudWithEdges
350
2E
  3
Hidden
350
31
  3
JitterOff
350
3B
  3
Linepattern
350
38
  3
OverhangOff
350
3C
  3
Realistic
350
33
  3
Shaded
350
42
  3
Shaded with edges
350
41
  3
Shades of Gray
350
3E
  3
Sketchy
350
3F
  3
Thicken
350
37
  3
Wireframe
350
30
  3
X-Ray
350
40
  0
DICTIONARY
  5
4B7
102
{ACAD_REACTORS
330
C
102
}
330
C
100
AcDbDictionary
281
     1
  3
CANNOSCALE
350
4C2
  3
DIMASSOC
350
4BA
  3
HIDETEXT
350
4BD
  3
MSLTSCALE
350
4C3
  0
XRECORD
  5
4C1
102
{ACAD_REACTORS
330
4C0
102
}
330
4C0
100
AcDbXrecord
280
     1
102
VTR_0.000_0.000_1.000_1.000_GRIDDISPLAY
 70
     3
102
VTR_0.000_0.000_1.000_1.000_GRIDMAJOR
 70
     5
102
VTR_0.000_0.000_1.000_1.000_DEFAULTLIGHTING
280
     1
102
VTR_0.000_0.000_1.000_1.000_DEFAULTLIGHTINGTYPE
 70
     1
102
VTR_0.000_0.000_1.000_1.000_BRIGHTNESS
141
0.0
102
VTR_0.000_0.000_1.000_1.000_CONTRAST
142
0.0
  0
XRECORD
  5
4BF
102
{ACAD_REACTORS
330
4BE
102
}
330
4BE
100
AcDbXrecord
280
     1
102
GRIDDISPLAY
 70
     2
102
GRIDMAJOR
 70
     5
102
DEFAULTLIGHTING
280
     1
102
DEFAULTLIGHTINGTYPE
 70
     1
102
BRIGHTNESS
141
0.0
102
CONTRAST
142
0.0
  0
LAYOUT
  5
1E
102
{ACAD_REACTORS
330
1A
102
}
330
1A
100
AcDbPlotSettings
  1

  2
none_device
  4

  6

 40
0.0
 41
0.0
 42
0.0
 43
0.0
 44
0.0
 45
0.0
 46
0.0
 47
0.0
 48
0.0
 49
0.0
140
0.0
141
0.0
142
1.0
143
1.0
 70
   688
 72
     0
 73
     0
 74
     5
  7

 75
    16
147
1.0
148
0.0
149
0.0
100
AcDbLayout
  1
Layout1
 70
     1
 71
     1
 10
0.0
 20
0.0
 11
210.0
 21
297.0
 12
0.0
 22
0.0
 32
0.0
 14
0.0
 24
0.0
 34
0.0
 15
210.0
 25
297.0
 35
0.0
146
0.0
 13
0.0
 23
0.0
 33
0.0
 16
1.0
 26
0.0
 36
0.0
 17
0.0
 27
1.0
 37
0.0
 76
     0
330
1B
331
6A
  0
LAYOUT
  5
26
102
{ACAD_REACTORS
330
1A
102
}
330
1A
100
AcDbPlotSettings
  1

  2
none_device
  4

  6

 40
0.0
 41
0.0
 42
0.0
 43
0.0
 44
0.0
 45
0.0
 46
0.0
 47
0.0
 48
0.0
 49
0.0
140
0.0
141
0.0
142
1.0
143
1.0
 70
   688
 72
     0
 73
     0
 74
     5
  7

 75
    16
147
1.0
148
0.0
149
0.0
100
AcDbLayout
  1
Layout2
 70
     1
 71
     2
 10
0.0
 20
0.0
 11
0.0
 21
0.0
 12
0.0
 22
0.0
 32
0.0
 14
0.0
 24
0.0
 34
0.0
 15
0.0
 25
0.0
 35
0.0
146
0.0
 13
0.0
 23
0.0
 33
0.0
 16
1.0
 26
0.0
 36
0.0
 17
0.0
 27
1.0
 37
0.0
 76
     0
330
23
  0
LAYOUT
  5
22
102
{ACAD_REACTORS
330
1A
102
}
330
1A
100
AcDbPlotSettings
  1

  2
none_device
  4
Letter_(8.50_x_11.00_Inches)
  6

 40
6.35
 41
6.35
 42
6.35000508
 43
6.35000508
 44
215.9
 45
279.4
 46
0.0
 47
0.0
 48
0.0
 49
0.0
140
0.0
141
0.0
142
1.0
143
1.0
 70
  1712
 72
     0
 73
     0
 74
     0
  7

 75
     0
147
1.0
148
0.0
149
0.0
100
AcDbLayout
  1
Model
 70
     1
 71
     0
 10
0.0
 20
0.0
 11
210.0
 21
297.0
 12
0.0
 22
0.0
 32
0.0
 14
0.0
 24
0.0
 34
0.0
 15
362.0
 25
546.0
 35
0.0
146
0.0
 13
0.0
 23
0.0
 33
0.0
 16
1.0
 26
0.0
 36
0.0
 17
0.0
 27
1.0
 37
0.0
 76
     0
330
1F
331
29
  0
MATERIAL
  5
45
102
{ACAD_REACTORS
330
43
102
}
102
{ACAD_XDICTIONARY
360
4F6
102
}
330
43
100
AcDbMaterial
  1
ByBlock
  0
MATERIAL
  5
44
102
{ACAD_REACTORS
330
43
102
}
102
{ACAD_XDICTIONARY
360
4F4
102
}
330
43
100
AcDbMaterial
  1
ByLayer
  0
MATERIAL
  5
46
102
{ACAD_REACTORS
330
43
102
}
102
{ACAD_XDICTIONARY
360
4F8
102
}
330
43
100
AcDbMaterial
  1
Global
  0
MLINESTYLE
  5
18
102
{ACAD_REACTORS
330
17
102
}
330
17
100
AcDbMlineStyle
  2
Standard
 70
     0
  3

 62
   256
 51
90.0
 52
90.0
 71
     2
 49
0.5
 62
   256
  6
BYLAYER
 49
-0.5
 62
   256
  6
BYLAYER
  0
ACDBPLACEHOLDER
  5
F
102
{ACAD_REACTORS
330
E
102
}
330
E
  0
SCALE
  5
48
102
{ACAD_REACTORS
330
47
102
}
330
47
100
AcDbScale
 70
     0
300
1:1
140
1.0
141
1.0
290
     1
  0
SCALE
  5
49
102
{ACAD_REACTORS
330
47
102
}
330
47
100
AcDbScale
 70
     0
300
1:2
140
1.0
141
2.0
290
     0
  0
SCALE
  5
4A
102
{ACAD_REACTORS
330
47
102
}
330
47
100
AcDbScale
 70
     0
300
1:4
140
1.0
141
4.0
290
     0
  0
SCALE
  5
4B
102
{ACAD_REACTORS
330
47
102
}
330
47
100
AcDbScale
 70
     0
300
1:5
140
1.0
141
5.0
290
     0
  0
SCALE
  5
4C
102
{ACAD_REACTORS
330
47
102
}
330
47
100
AcDbScale
 70
     0
300
1:8
140
1.0
141
8.0
290
     0
  0
SCALE
  5
4D
102
{ACAD_REACTORS
330
47
102
}
330
47
100
AcDbScale
 70
     0
300
1:10
140
1.0
141
10.0
290
     0
  0
SCALE
  5
4E
102
{ACAD_REACTORS
330
47
102
}
330
47
100
AcDbScale
 70
     0
300
1:16
140
1.0
141
16.0
290
     0
  0
SCALE
  5
4F
102
{ACAD_REACTORS
330
47
102
}
330
47
100
AcDbScale
 70
     0
300
1:20
140
1.0
141
20.0
290
     0
  0
SCALE
  5
50
102
{ACAD_REACTORS
330
47
102
}
330
47
100
AcDbScale
 70
     0
300
1:30
140
1.0
141
30.0
290
     0
  0
SCALE
  5
51
102
{ACAD_REACTORS
330
47
102
}
330
47
100
AcDbScale
 70
     0
300
1:40
140
1.0
141
40.0
290
     0
  0
SCALE
  5
52
102
{ACAD_REACTORS
330
47
102
}
330
47
100
AcDbScale
 70
     0
300
1:50
140
1.0
141
50.0
290
     0
  0
SCALE
  5
53
102
{ACAD_REACTORS
330
47
102
}
330
47
100
AcDbScale
 70
     0
300
1:100
140
1.0
141
100.0
290
     0
  0
SCALE
  5
54
102
{ACAD_REACTORS
330
47
102
}
330
47
100
AcDbScale
 70
     0
300
2:1
140
2.0
141
1.0
290
     0
  0
SCALE
  5
55
102
{ACAD_REACTORS
330
47
102
}
330
47
100
AcDbScale
 70
     0
300
4:1
140
4.0
141
1.0
290
     0
  0
SCALE
  5
56
102
{ACAD_REACTORS
330
47
102
}
330
47
100
AcDbScale
 70
     0
300
8:1
140
8.0
141
1.0
290
     0
  0
SCALE
  5
57
102
{ACAD_REACTORS
330
47
102
}
330
47
100
AcDbScale
 70
     0
300
10:1
140
10.0
141
1.0
290
     0
  0
SCALE
  5
58
102
{ACAD_REACTORS
330
47
102
}
330
47
100
AcDbScale
 70
     0
300
100:1
140
100.0
141
1.0
290
     0
  0
SCALE
  5
59
102
{ACAD_REACTORS
330
47
102
}
330
47
100
AcDbScale
 70
     0
300
1/128" = 1'-0"
140
0.0078125
141
12.0
290
     0
  0
SCALE
  5
5A
102
{ACAD_REACTORS
330
47
102
}
330
47
100
AcDbScale
 70
     0
300
1/64" = 1'-0"
140
0.015625
141
12.0
290
     0
  0
SCALE
  5
5B
102
{ACAD_REACTORS
330
47
102
}
330
47
100
AcDbScale
 70
     0
300
1/32" = 1'-0"
140
0.03125
141
12.0
290
     0
  0
SCALE
  5
5C
102
{ACAD_REACTORS
330
47
102
}
330
47
100
AcDbScale
 70
     0
300
1/16" = 1'-0"
140
0.0625
141
12.0
290
     0
  0
SCALE
  5
5D
102
{ACAD_REACTORS
330
47
102
}
330
47
100
AcDbScale
 70
     0
300
3/32" = 1'-0"
140
0.09375
141
12.0
290
     0
  0
SCALE
  5
5E
102
{ACAD_REACTORS
330
47
102
}
330
47
100
AcDbScale
 70
     0
300
1/8" = 1'-0"
140
0.125
141
12.0
290
     0
  0
SCALE
  5
5F
102
{ACAD_REACTORS
330
47
102
}
330
47
100
AcDbScale
 70
     0
300
3/16" = 1'-0"
140
0.1875
141
12.0
290
     0
  0
SCALE
  5
60
102
{ACAD_REACTORS
330
47
102
}
330
47
100
AcDbScale
 70
     0
300
1/4" = 1'-0"
140
0.25
141
12.0
290
     0
  0
SCALE
  5
61
102
{ACAD_REACTORS
330
47
102
}
330
47
100
AcDbScale
 70
     0
300
3/8" = 1'-0"
140
0.375
141
12.0
290
     0
  0
SCALE
  5
62
102
{ACAD_REACTORS
330
47
102
}
330
47
100
AcDbScale
 70
     0
300
1/2" = 1'-0"
140
0.5
141
12.0
290
     0
  0
SCALE
  5
63
102
{ACAD_REACTORS
330
47
102
}
330
47
100
AcDbScale
 70
     0
300
3/4" = 1'-0"
140
0.75
141
12.0
290
     0
  0
SCALE
  5
64
102
{ACAD_REACTORS
330
47
102
}
330
47
100
AcDbScale
 70
     0
300
1" = 1'-0"
140
1.0
141
12.0
290
     0
  0
SCALE
  5
65
102
{ACAD_REACTORS
330
47
102
}
330
47
100
AcDbScale
 70
     0
300
1-1/2" = 1'-0"
140
1.5
141
12.0
290
     0
  0
SCALE
  5
66
102
{ACAD_REACTORS
330
47
102
}
330
47
100
AcDbScale
 70
     0
300
3" = 1'-0"
140
3.0
141
12.0
290
     0
  0
SCALE
  5
67
102
{ACAD_REACTORS
330
47
102
}
330
47
100
AcDbScale
 70
     0
300
6" = 1'-0"
140
6.0
141
12.0
290
     0
  0
SCALE
  5
68
102
{ACAD_REACTORS
330
47
102
}
330
47
100
AcDbScale
 70
     0
300
1'-0" = 1'-0"
140
12.0
141
12.0
290
     0
  0
VISUALSTYLE
  5
2F
102
{ACAD_REACTORS
330
2A
102
}
102
{ACAD_XDICTIONARY
360
4CC
102
}
330
2A
100
AcDbVisualStyle
  2
2dWireframe
 70
     4
 71
     0
 72
     2
 73
     0
 90
        0
 40
0.6
 41
30.0
 62
     5
 63
     7
 74
     1
 91
        4
 64
     7
 65
   257
 75
     1
175
     1
 42
1.0
 92
        0
 66
   257
 43
1.0
 76
     1
 77
     6
 78
     2
 67
     7
 79
     5
170
     0
171
     0
290
     0
174
     0
 93
        1
 44
0.0
173
     0
291
     0
 45
0.0
1001
ACAD
1000
AcDbSavedByObjectVersion
1070
     0
  0
VISUALSTYLE
  5
32
102
{ACAD_REACTORS
330
2A
102
}
102
{ACAD_XDICTIONARY
360
4D2
102
}
330
2A
100
AcDbVisualStyle
  2
Basic
 70
     7
 71
     1
 72
     0
 73
     1
 90
        0
 40
0.6
 41
30.0
 62
     5
 63
     7
 74
     0
 91
        4
 64
     7
 65
   257
 75
     1
175
     1
 42
1.0
 92
        8
 66
     7
 43
1.0
 76
     1
 77
     6
 78
     2
 67
     7
 79
     5
170
     0
171
     0
290
     0
174
     0
 93
        1
 44
0.0
173
     0
291
     1
 45
0.0
1001
ACAD
1000
AcDbSavedByObjectVersion
1070
     0
  0
VISUALSTYLE
  5
36
102
{ACAD_REACTORS
330
2A
102
}
102
{ACAD_XDICTIONARY
360
4DA
102
}
330
2A
100
AcDbVisualStyle
  2
Brighten
 70
    12
 71
     2
 72
     2
 73
     0
 90
        0
 40
0.6
 41
30.0
 62
     5
 63
     7
 74
     1
 91
        4
 64
     7
 65
   257
 75
     1
175
     1
 42
1.0
 92
        8
 66
     7
 43
1.0
 76
     1
 77
     6
 78
     2
 67
     7
 79
     5
170
     0
171
     0
290
     0
174
     0
 93
        1
 44
50.0
173
     0
291
     1
 45
0.0
1001
ACAD
1000
AcDbSavedByObjectVersion
1070
     0
  0
VISUALSTYLE
  5
3A
102
{ACAD_REACTORS
330
2A
102
}
102
{ACAD_XDICTIONARY
360
4E2
102
}
330
2A
100
AcDbVisualStyle
  2
ColorChange
 70
    16
 71
     2
 72
     2
 73
     3
 90
        0
 40
0.6
 41
30.0
 62
     5
 63
     8
 74
     1
 91
        4
 64
     7
 65
   257
 75
     1
175
     1
 42
1.0
 92
        8
 66
     8
 43
1.0
 76
     1
 77
     6
 78
     2
 67
     7
 79
     5
170
     0
171
     0
290
     0
174
     0
 93
        1
 44
0.0
173
     0
291
     1
 45
0.0
1001
ACAD
1000
AcDbSavedByObjectVersion
1070
     0
  0
VISUALSTYLE
  5
34
102
{ACAD_REACTORS
330
2A
102
}
102
{ACAD_XDICTIONARY
360
4D6
102
}
330
2A
100
AcDbVisualStyle
  2
Conceptual
 70
     9
 71
     3
 72
     2
 73
     0
 90
        0
 40
0.6
 41
30.0
 62
     5
 63
     7
 74
     2
 91
        2
 64
     7
 65
   257
 75
     1
175
     1
 42
179.0
 92
        8
 66
     7
 43
1.0
 76
     1
 77
     6
 78
     2
 67
     7
 79
     3
170
     0
171
     0
290
     0
174
     0
 93
        1
 44
0.0
173
     0
291
     0
 45
0.0
1001
ACAD
1000
AcDbSavedByObjectVersion
1070
     0
  0
VISUALSTYLE
  5
35
102
{ACAD_REACTORS
330
2A
102
}
102
{ACAD_XDICTIONARY
360
4D8
102
}
330
2A
100
AcDbVisualStyle
  2
Dim
 70
    11
 71
     2
 72
     2
 73
     0
 90
        0
 40
0.6
 41
30.0
 62
     5
 63
     7
 74
     1
 91
        4
 64
     7
 65
   257
 75
     1
175
     1
 42
1.0
 92
        8
 66
     7
 43
1.0
 76
     1
 77
     6
 78
     2
 67
     7
 79
     5
170
     0
171
     0
290
     0
174
     0
 93
        1
 44
-50.0
173
     0
291
     1
 45
0.0
1001
ACAD
1000
AcDbSavedByObjectVersion
1070
     0
  0
VISUALSTYLE
  5
3D
102
{ACAD_REACTORS
330
2A
102
}
102
{ACAD_XDICTIONARY
360
4E8
102
}
330
2A
100
AcDbVisualStyle
  2
EdgeColorOff
 70
    22
 71
     2
 72
     2
 73
     0
 90
        0
 40
0.6
 41
30.0
 62
     5
 63
     7
 74
     1
 91
        4
 64
     7
 65
   257
 75
     1
175
     1
 42
1.0
 92
        8
 66
     7
 43
1.0
 76
     1
 77
     6
 78
     2
 67
     7
 79
     5
170
     0
171
     0
290
     0
174
     0
 93
        1
 44
0.0
173
     0
291
     1
 45
0.0
1001
ACAD
1000
AcDbSavedByObjectVersion
1070
     0
  0
VISUALSTYLE
  5
39
102
{ACAD_REACTORS
330
2A
102
}
102
{ACAD_XDICTIONARY
360
4E0
102
}
330
2A
100
AcDbVisualStyle
  2
Facepattern
 70
    15
 71
     2
 72
     2
 73
     0
 90
        0
 40
0.6
 41
30.0
 62
     5
 63
     7
 74
     1
 91
        4
 64
     7
 65
   257
 75
     1
175
     1
 42
1.0
 92
        8
 66
     7
 43
1.0
 76
     1
 77
     6
 78
     2
 67
     7
 79
     5
170
     0
171
     0
290
     0
174
     0
 93
        1
 44
0.0
173
     0
291
     1
 45
0.0
1001
ACAD
1000
AcDbSavedByObjectVersion
1070
     0
  0
VISUALSTYLE
  5
2B
102
{ACAD_REACTORS
330
2A
102
}
102
{ACAD_XDICTIONARY
360
4C4
102
}
330
2A
100
AcDbVisualStyle
  2
Flat
 70
     0
 71
     2
 72
     1
 73
     1
 90
        2
 40
0.6
 41
30.0
 62
     5
 63
     7
 74
     0
 91
        0
 64
     7
 65
   257
 75
     1
175
     1
 42
1.0
 92
        8
 66
     7
 43
1.0
 76
     1
 77
     6
 78
     2
 67
     7
 79
     5
170
     0
171
     0
290
     0
174
     0
 93
       13
 44
0.0
173
     0
291
     1
 45
0.0
1001
ACAD
1000
AcDbSavedByObjectVersion
1070
     0
  0
VISUALSTYLE
  5
2C
102
{ACAD_REACTORS
330
2A
102
}
102
{ACAD_XDICTIONARY
360
4C6
102
}
330
2A
100
AcDbVisualStyle
  2
FlatWithEdges
 70
     1
 71
     2
 72
     1
 73
     1
 90
        2
 40
0.6
 41
30.0
 62
     5
 63
     7
 74
     1
 91
        0
 64
     7
 65
   257
 75
     1
175
     1
 42
1.0
 92
        0
 66
   257
 43
1.0
 76
     1
 77
     6
 78
     2
 67
     7
 79
     5
170
     0
171
     0
290
     0
174
     0
 93
       13
 44
0.0
173
     0
291
     1
 45
0.0
1001
ACAD
1000
AcDbSavedByObjectVersion
1070
     0
  0
VISUALSTYLE
  5
2D
102
{ACAD_REACTORS
330
2A
102
}
102
{ACAD_XDICTIONARY
360
4C8
102
}
330
2A
100
AcDbVisualStyle
  2
Gouraud
 70
     2
 71
     2
 72
     2
 73
     1
 90
        2
 40
0.6
 41
30.0
 62
     5
 63
     7
 74
     0
 91
        0
 64
     7
 65
   257
 75
     1
175
     1
 42
1.0
 92
        0
 66
     7
 43
1.0
 76
     1
 77
     6
 78
     2
 67
     7
 79
     5
170
     0
171
     0
290
     0
174
     0
 93
       13
 44
0.0
173
     0
291
     1
 45
0.0
1001
ACAD
1000
AcDbSavedByObjectVersion
1070
     0
  0
VISUALSTYLE
  5
2E
102
{ACAD_REACTORS
330
2A
102
}
102
{ACAD_XDICTIONARY
360
4CA
102
}
330
2A
100
AcDbVisualStyle
  2
GouraudWithEdges
 70
     3
 71
     2
 72
     2
 73
     1
 90
        2
 40
0.6
 41
30.0
 62
     5
 63
     7
 74
     1
 91
        0
 64
     7
 65
   257
 75
     1
175
     1
 42
1.0
 92
        0
 66
   257
 43
1.0
 76
     1
 77
     6
 78
     2
 67
     7
 79
     5
170
     0
171
     0
290
     0
174
     0
 93
       13
 44
0.0
173
     0
291
     1
 45
0.0
1001
ACAD
1000
AcDbSavedByObjectVersion
1070
     0
  0
VISUALSTYLE
  5
31
102
{ACAD_REACTORS
330
2A
102
}
102
{ACAD_XDICTIONARY
360
4D0
102
}
330
2A
100
AcDbVisualStyle
  2
Hidden
 70
     6
 71
     1
 72
     2
 73
     2
 90
        0
 40
0.6
 41
30.0
 62
     5
 63
     7
 74
     2
 91
        2
 64
     7
 65
   257
 75
     2
175
     1
 42
40.0
 92
        0
 66
   257
 43
1.0
 76
     1
 77
     6
 78
     2
 67
     7
 79
     3
170
     0
171
     0
290
     0
174
     0
 93
        1
 44
0.0
173
     0
291
     0
 45
0.0
1001
ACAD
1000
AcDbSavedByObjectVersion
1070
     0
  0
VISUALSTYLE
  5
3B
102
{ACAD_REACTORS
330
2A
102
}
102
{ACAD_XDICTIONARY
360
4E4
102
}
330
2A
100
AcDbVisualStyle
  2
JitterOff
 70
    20
 71
     2
 72
     2
 73
     0
 90
        0
 40
0.6
 41
30.0
 62
     5
 63
     7
 74
     1
 91
        4
 64
     7
 65
   257
 75
     1
175
     1
 42
1.0
 92
       10
 66
     7
 43
1.0
 76
     1
 77
     6
 78
     2
 67
     7
 79
     5
170
     0
171
     0
290
     0
174
     0
 93
        1
 44
0.0
173
     0
291
     1
 45
0.0
1001
ACAD
1000
AcDbSavedByObjectVersion
1070
     0
  0
VISUALSTYLE
  5
38
102
{ACAD_REACTORS
330
2A
102
}
102
{ACAD_XDICTIONARY
360
4DE
102
}
330
2A
100
AcDbVisualStyle
  2
Linepattern
 70
    14
 71
     2
 72
     2
 73
     0
 90
        0
 40
0.6
 41
30.0
 62
     5
 63
     7
 74
     1
 91
        4
 64
     7
 65
   257
 75
     7
175
     7
 42
1.0
 92
        8
 66
     7
 43
1.0
 76
     1
 77
     6
 78
     2
 67
     7
 79
     5
170
     0
171
     0
290
     0
174
     0
 93
        1
 44
0.0
173
     0
291
     1
 45
0.0
1001
ACAD
1000
AcDbSavedByObjectVersion
1070
     0
  0
VISUALSTYLE
  5
3C
102
{ACAD_REACTORS
330
2A
102
}
102
{ACAD_XDICTIONARY
360
4E6
102
}
330
2A
100
AcDbVisualStyle
  2
OverhangOff
 70
    21
 71
     2
 72
     2
 73
     0
 90
        0
 40
0.6
 41
30.0
 62
     5
 63
     7
 74
     1
 91
        4
 64
     7
 65
   257
 75
     1
175
     1
 42
1.0
 92
        9
 66
     7
 43
1.0
 76
     1
 77
     6
 78
     2
 67
     7
 79
     5
170
     0
171
     0
290
     0
174
     0
 93
        1
 44
0.0
173
     0
291
     1
 45
0.0
1001
ACAD
1000
AcDbSavedByObjectVersion
1070
     0
  0
VISUALSTYLE
  5
33
102
{ACAD_REACTORS
330
2A
102
}
102
{ACAD_XDICTIONARY
360
4D4
102
}
330
2A
100
AcDbVisualStyle
  2
Realistic
 70
     8
 71
     2
 72
     3
 73
     0
 90
        2
 40
0.6
 41
30.0
 62
     5
 63
     7
 74
     0
 91
        0
 64
     7
 65
   257
 75
     1
175
     1
 42
1.0
 92
        8
 66
   257
 43
1.0
 76
     1
 77
     6
 78
     2
 67
     7
 79
     3
170
     0
171
     0
290
     0
174
     0
 93
       13
 44
0.0
173
     0
291
     0
 45
0.0
1001
ACAD
1000
AcDbSavedByObjectVersion
1070
     0
  0
VISUALSTYLE
  5
42
102
{ACAD_REACTORS
330
2A
102
}
102
{ACAD_XDICTIONARY
360
4F2
102
}
330
2A
100
AcDbVisualStyle
  2
Shaded
 70
    27
 71
     2
 72
     2
 73
     1
 90
        2
 40
0.6
 41
30.0
 62
     5
 63
     7
 74
     0
 91
        4
 64
     7
 65
   257
 75
     1
175
     1
 42
1.0
 92
        8
 66
   257
 43
1.0
 76
     1
 77
     6
 78
     2
 67
     8
 79
     3
170
     0
171
     0
290
     0
174
     0
 93
        5
 44
0.0
173
     0
291
     0
 45
0.0
1001
ACAD
1000
AcDbSavedByObjectVersion
1070
     0
  0
VISUALSTYLE
  5
41
102
{ACAD_REACTORS
330
2A
102
}
102
{ACAD_XDICTIONARY
360
4F0
102
}
330
2A
100
AcDbVisualStyle
  2
Shaded with edges
 70
    26
 71
     2
 72
     2
 73
     1
 90
        2
 40
0.6
 41
30.0
 62
     5
 63
     7
 74
     1
 91
       10
 64
     7
 65
   257
 75
     2
175
     1
 42
1.0
 92
        8
 66
   257
 43
1.0
 76
     1
 77
     6
 78
     2
 67
     7
 79
     3
170
     0
171
     0
290
     0
174
     0
 93
        5
 44
0.0
173
     0
291
     0
 45
0.0
1001
ACAD
1000
AcDbSavedByObjectVersion
1070
     0
  0
VISUALSTYLE
  5
3E
102
{ACAD_REACTORS
330
2A
102
}
102
{ACAD_XDICTIONARY
360
4EA
102
}
330
2A
100
AcDbVisualStyle
  2
Shades of Gray
 70
    23
 71
     2
 72
     2
 73
     3
 90
        0
 40
0.6
 41
30.0
 62
     5
 63
     7
 74
     2
 91
        2
 64
     7
 65
     7
 75
     1
175
     1
 42
40.0
 92
        8
 66
     7
 43
1.0
 76
     1
 77
     6
 78
     2
 67
     7
 79
     3
170
     0
171
     0
290
     0
174
     0
 93
        1
 44
0.0
173
     0
291
     0
 45
0.0
1001
ACAD
1000
AcDbSavedByObjectVersion
1070
     0
  0
VISUALSTYLE
  5
3F
102
{ACAD_REACTORS
330
2A
102
}
102
{ACAD_XDICTIONARY
360
4EC
102
}
330
2A
100
AcDbVisualStyle
  2
Sketchy
 70
    24
 71
     1
 72
     2
 73
     2
 90
        0
 40
0.6
 41
30.0
 62
     5
 63
     7
 74
     2
 91
        2
 64
     7
 65
     7
 75
     1
175
     1
 42
40.0
 92
       11
 66
     7
 43
1.0
 76
     1
 77
     6
 78
     2
 67
     7
 79
     6
170
     0
171
     0
290
     0
174
     0
 93
        1
 44
0.0
173
     0
291
     0
 45
0.0
1001
ACAD
1000
AcDbSavedByObjectVersion
1070
     0
  0
VISUALSTYLE
  5
37
102
{ACAD_REACTORS
330
2A
102
}
102
{ACAD_XDICTIONARY
360
4DC
102
}
330
2A
100
AcDbVisualStyle
  2
Thicken
 70
    13
 71
     2
 72
     2
 73
     0
 90
        0
 40
0.6
 41
30.0
 62
     5
 63
     7
 74
     1
 91
        4
 64
     7
 65
   257
 75
     1
175
     1
 42
1.0
 92
       12
 66
     7
 43
1.0
 76
     1
 77
     6
 78
     2
 67
     7
 79
     5
170
     0
171
     0
290
     0
174
     0
 93
        1
 44
0.0
173
     0
291
     1
 45
0.0
1001
ACAD
1000
AcDbSavedByObjectVersion
1070
     0
  0
VISUALSTYLE
  5
30
102
{ACAD_REACTORS
330
2A
102
}
102
{ACAD_XDICTIONARY
360
4CE
102
}
330
2A
100
AcDbVisualStyle
  2
Wireframe
 70
     5
 71
     0
 72
     2
 73
     0
 90
        0
 40
0.6
 41
30.0
 62
     5
 63
     7
 74
     1
 91
        4
 64
     7
 65
   257
 75
     1
175
     1
 42
1.0
 92
        0
 66
   257
 43
1.0
 76
     1
 77
     6
 78
     2
 67
     7
 79
     3
170
     0
171
     0
290
     0
174
     0
 93
        1
 44
0.0
173
     0
291
     0
 45
0.0
1001
ACAD
1000
AcDbSavedByObjectVersion
1070
     0
  0
VISUALSTYLE
  5
40
102
{ACAD_REACTORS
330
2A
102
}
102
{ACAD_XDICTIONARY
360
4EE
102
}
330
2A
100
AcDbVisualStyle
  2
X-Ray
 70
    25
 71
     2
 72
     2
 73
     1
 90
        1
 40
0.5
 41
30.0
 62
     5
 63
     7
 74
     1
 91
        0
 64
     7
 65
   257
 75
     1
175
     1
 42
1.0
 92
        8
 66
     7
 43
1.0
 76
     1
 77
     6
 78
     2
 67
     7
 79
     3
170
     0
171
     0
290
     0
174
     0
 93
       13
 44
0.0
173
     0
291
     0
 45
0.0
1001
ACAD
1000
AcDbSavedByObjectVersion
1070
     0
  0
DICTIONARYVAR
  5
4C2
102
{ACAD_REACTORS
330
4B7
102
}
330
4B7
100
DictionaryVariables
280
     0
  1
1:1
  0
DICTIONARYVAR
  5
4BA
102
{ACAD_REACTORS
330
4B7
102
}
330
4B7
100
DictionaryVariables
280
     0
  1
1
  0
DICTIONARYVAR
  5
4BD
102
{ACAD_REACTORS
330
4B7
102
}
330
4B7
100
DictionaryVariables
280
     0
  1
1
  0
DICTIONARYVAR
  5
4C3
102
{ACAD_REACTORS
330
4B7
102
}
330
4B7
100
DictionaryVariables
280
     0
  1
1
  0
DICTIONARY
  5
4F6
330
45
100
AcDbDictionary
280
     1
281
     1
  3
ACAD_XREC_ROUNDTRIP
360
4F7
  0
DICTIONARY
  5
4F4
330
44
100
AcDbDictionary
280
     1
281
     1
  3
ACAD_XREC_ROUNDTRIP
360
4F5
  0
DICTIONARY
  5
4F8
330
46
100
AcDbDictionary
280
     1
281
     1
  3
ACAD_XREC_ROUNDTRIP
360
4F9
  0
DICTIONARY
  5
4CC
330
2F
100
AcDbDictionary
280
     1
281
     1
  3
ACAD_XREC_ROUNDTRIP
360
4CD
  0
DICTIONARY
  5
4D2
330
32
100
AcDbDictionary
280
     1
281
     1
  3
ACAD_XREC_ROUNDTRIP
360
4D3
  0
DICTIONARY
  5
4DA
330
36
100
AcDbDictionary
280
     1
281
     1
  3
ACAD_XREC_ROUNDTRIP
360
4DB
  0
DICTIONARY
  5
4E2
330
3A
100
AcDbDictionary
280
     1
281
     1
  3
ACAD_XREC_ROUNDTRIP
360
4E3
  0
DICTIONARY
  5
4D6
330
34
100
AcDbDictionary
280
     1
281
     1
  3
ACAD_XREC_ROUNDTRIP
360
4D7
  0
DICTIONARY
  5
4D8
330
35
100
AcDbDictionary
280
     1
281
     1
  3
ACAD_XREC_ROUNDTRIP
360
4D9
  0
DICTIONARY
  5
4E8
330
3D
100
AcDbDictionary
280
     1
281
     1
  3
ACAD_XREC_ROUNDTRIP
360
4E9
  0
DICTIONARY
  5
4E0
330
39
100
AcDbDictionary
280
     1
281
     1
  3
ACAD_XREC_ROUNDTRIP
360
4E1
  0
DICTIONARY
  5
4C4
330
2B
100
AcDbDictionary
280
     1
281
     1
  3
ACAD_XREC_ROUNDTRIP
360
4C5
  0
DICTIONARY
  5
4C6
330
2C
100
AcDbDictionary
280
     1
281
     1
  3
ACAD_XREC_ROUNDTRIP
360
4C7
  0
DICTIONARY
  5
4C8
330
2D
100
AcDbDictionary
280
     1
281
     1
  3
ACAD_XREC_ROUNDTRIP
360
4C9
  0
DICTIONARY
  5
4CA
330
2E
100
AcDbDictionary
280
     1
281
     1
  3
ACAD_XREC_ROUNDTRIP
360
4CB
  0
DICTIONARY
  5
4D0
330
31
100
AcDbDictionary
280
     1
281
     1
  3
ACAD_XREC_ROUNDTRIP
360
4D1
  0
DICTIONARY
  5
4E4
330
3B
100
AcDbDictionary
280
     1
281
     1
  3
ACAD_XREC_ROUNDTRIP
360
4E5
  0
DICTIONARY
  5
4DE
330
38
100
AcDbDictionary
280
     1
281
     1
  3
ACAD_XREC_ROUNDTRIP
360
4DF
  0
DICTIONARY
  5
4E6
330
3C
100
AcDbDictionary
280
     1
281
     1
  3
ACAD_XREC_ROUNDTRIP
360
4E7
  0
DICTIONARY
  5
4D4
330
33
100
AcDbDictionary
280
     1
281
     1
  3
ACAD_XREC_ROUNDTRIP
360
4D5
  0
DICTIONARY
  5
4F2
330
42
100
AcDbDictionary
280
     1
281
     1
  3
ACAD_XREC_ROUNDTRIP
360
4F3
  0
DICTIONARY
  5
4F0
330
41
100
AcDbDictionary
280
     1
281
     1
  3
ACAD_XREC_ROUNDTRIP
360
4F1
  0
DICTIONARY
  5
4EA
330
3E
100
AcDbDictionary
280
     1
281
     1
  3
ACAD_XREC_ROUNDTRIP
360
4EB
  0
DICTIONARY
  5
4EC
330
3F
100
AcDbDictionary
280
     1
281
     1
  3
ACAD_XREC_ROUNDTRIP
360
4ED
  0
DICTIONARY
  5
4DC
330
37
100
AcDbDictionary
280
     1
281
     1
  3
ACAD_XREC_ROUNDTRIP
360
4DD
  0
DICTIONARY
  5
4CE
330
30
100
AcDbDictionary
280
     1
281
     1
  3
ACAD_XREC_ROUNDTRIP
360
4CF
  0
DICTIONARY
  5
4EE
330
40
100
AcDbDictionary
280
     1
281
     1
  3
ACAD_XREC_ROUNDTRIP
360
4EF
  0
XRECORD
  5
4F7
102
{ACAD_REACTORS
330
4F6
102
}
330
4F6
100
AcDbXrecord
280
     1
102
MATERIAL
148
0.0
149
0.0
149
0.0
 93
        0
 94
      127
282
     0
 72
     1
 77
     1
171
     1
175
     1
179
     1
273
     0
  0
XRECORD
  5
4F5
102
{ACAD_REACTORS
330
4F4
102
}
330
4F4
100
AcDbXrecord
280
     1
102
MATERIAL
148
0.0
149
0.0
149
0.0
 93
        0
 94
      127
282
     0
 72
     1
 77
     1
171
     1
175
     1
179
     1
273
     0
  0
XRECORD
  5
4F9
102
{ACAD_REACTORS
330
4F8
102
}
330
4F8
100
AcDbXrecord
280
     1
102
MATERIAL
148
0.0
149
0.0
149
0.0
 93
        0
 94
      127
282
     0
 72
     1
 77
     1
171
     1
175
     1
179
     1
273
     0
  0
XRECORD
  5
4CD
102
{ACAD_REACTORS
330
4CC
102
}
330
4CC
100
AcDbXrecord
280
     1
102
RTVSPropertyOp0
 70
     1
102
RTVSPropertyOp1
 70
     1
102
RTVSPropertyOp2
 70
     1
102
RTVSPropertyOp3
 70
     1
102
RTVSPropertyOp4
 70
     1
102
RTVSPropertyOp5
 70
     1
102
RTVSPropertyOp6
 70
     1
102
RTVSPropertyOp7
 70
     1
102
RTVSPropertyOp8
 70
     1
102
RTVSPropertyOp9
 70
     1
102
RTVSPropertyOp10
 70
     1
102
RTVSPropertyOp11
 70
     1
102
RTVSPropertyOp12
 70
     1
102
RTVSPropertyOp13
 70
     1
102
RTVSPropertyOp14
 70
     1
102
RTVSPropertyOp15
 70
     1
102
RTVSPropertyOp16
 70
     1
102
RTVSPropertyOp17
 70
     1
102
RTVSPropertyOp18
 70
     1
102
RTVSPropertyOp19
 70
     1
102
RTVSPropertyOp20
 70
     1
102
RTVSPropertyOp21
 70
     1
102
RTVSPropertyOp22
 70
     1
102
RTVSPropertyOp23
 70
     1
102
RTVSPropertyOp24
 70
     1
102
RTVSPropertyOp25
 70
     1
102
RTVSPropertyOp26
 70
     1
102
RTVSPropertyOp27
 70
     1
102
RTVSPropertyOp28
 70
     1
102
RTVSPropertyOp29
 70
     1
102
RTVSPropertyOp30
 70
     1
102
RTVSPropertyOp31
 70
     1
102
RTVSPropertyOp32
 70
     1
102
RTVSPropertyOp33
 70
     1
102
RTVSPropertyOp34
 70
     1
102
RTVSPropertyOp35
 70
     1
102
RTVSPropertyOp36
 70
     1
102
RTVSPropertyOp37
 70
     1
102
RTVSPropertyOp38
 70
     1
102
RTVSPropertyOp39
 70
     1
102
RTVSPropertyOp40
 70
     1
102
RTVSPropertyOp41
 70
     1
102
RTVSPropertyOp42
 70
     1
102
RTVSPropertyOp43
 70
     1
102
RTVSPropertyOp44
 70
     1
102
RTVSPropertyOp45
 70
     1
102
RTVSPropertyOp46
 70
     1
102
RTVSPropertyOp47
 70
     1
102
RTVSPropertyOp48
 70
     1
102
RTVSPropertyOp49
 70
     1
102
RTVSPropertyOp50
 70
     1
102
RTVSPropertyOp51
 70
     0
102
RTVSPropertyOp52
 70
     0
102
RTVSPropertyOp53
 70
     1
102
RTVSPropertyOp54
 70
     1
102
RTVSPropertyOp55
 70
     1
102
RTVSPropertyOp56
 70
     1
102
RTVSPropertyOp57
 70
     1
102
RTVSPost2010Prop28
280
     1
102
RTVSPost2010PropOp28
 70
     1
102
RTVSPost2010Prop29
280
     1
102
RTVSPost2010PropOp29
 70
     1
102
RTVSPost2010Prop30
280
     0
102
RTVSPost2010PropOp30
 70
     1
102
RTVSPost2010Prop31
280
     0
102
RTVSPost2010PropOp31
 70
     1
102
RTVSPost2010Prop32
280
     0
102
RTVSPost2010PropOp32
 70
     1
102
RTVSPost2010Prop33
280
     0
102
RTVSPost2010PropOp33
 70
     1
102
RTVSPost2010Prop34
280
     0
102
RTVSPost2010PropOp34
 70
     1
102
RTVSPost2010Prop35
280
     0
102
RTVSPost2010PropOp35
 70
     1
102
RTVSPost2010Prop36
280
     0
102
RTVSPost2010PropOp36
 70
     1
102
RTVSPost2010Prop37
 90
       50
102
RTVSPost2010PropOp37
 70
     1
102
RTVSPost2010Prop38
140
0.0
102
RTVSPost2010PropOp38
 70
     1
102
RTVSPost2010Prop39
140
1.0
102
RTVSPost2010PropOp39
 70
     1
102
RTVSPost2010Prop40
 90
        0
102
RTVSPost2010PropOp40
 70
     1
102
RTVSPost2010Prop41ColorIndex
 90
       18
102
RTVSPost2010Prop41ColorRGB
 90
        0
102
RTVSPost2010PropOp41
 70
     1
102
RTVSPost2010Prop42
 90
       50
102
RTVSPost2010PropOp42
 70
     1
102
RTVSPost2010Prop43
 90
        3
102
RTVSPost2010PropOp43
 70
     1
102
RTVSPost2010Prop44ColorIndex
 90
        5
102
RTVSPost2010Prop44ColorRGB
 90
      255
102
RTVSPost2010PropOp44
 70
     1
102
RTVSPost2010Prop45
280
     0
102
RTVSPost2010PropOp45
 70
     1
102
RTVSPost2010Prop46
 90
       50
102
RTVSPost2010PropOp46
 70
     1
102
RTVSPost2010Prop47
 90
       50
102
RTVSPost2010PropOp47
 70
     1
102
RTVSPost2010Prop48
 90
       50
102
RTVSPost2010PropOp48
 70
     1
102
RTVSPost2010Prop49
280
     0
102
RTVSPost2010PropOp49
 70
     1
102
RTVSPost2010Prop50
 90
       50
102
RTVSPost2010PropOp50
 70
     1
102
RTVSPost2010Prop51ColorIndex
 90
      256
102
RTVSPost2010Prop51ColorRGB
 90
-16777216
102
RTVSPost2010PropOp51
 70
     0
102
RTVSPost2010Prop52
140
1.0
102
RTVSPost2010PropOp52
 70
     0
102
RTVSPost2010Prop53
 90
        2
102
RTVSPost2010PropOp53
 70
     1
102
RTVSPost2010Prop54
  1
strokes_ogs.tif
102
RTVSPost2010PropOp54
 70
     1
102
RTVSPost2010Prop55
280
     0
102
RTVSPost2010PropOp55
 70
     1
102
RTVSPost2010Prop56
140
1.0
102
RTVSPost2010PropOp56
 70
     1
102
RTVSPost2010Prop57
140
1.0
102
RTVSPost2010PropOp57
 70
     1
  0
XRECORD
  5
4D3
102
{ACAD_REACTORS
330
4D2
102
}
330
4D2
100
AcDbXrecord
280
     1
102
RTVSPropertyOp0
 70
     1
102
RTVSPropertyOp1
 70
     1
102
RTVSPropertyOp2
 70
     1
102
RTVSPropertyOp3
 70
     1
102
RTVSPropertyOp4
 70
     1
102
RTVSPropertyOp5
 70
     1
102
RTVSPropertyOp6
 70
     1
102
RTVSPropertyOp7
 70
     1
102
RTVSPropertyOp8
 70
     1
102
RTVSPropertyOp9
 70
     1
102
RTVSPropertyOp10
 70
     1
102
RTVSPropertyOp11
 70
     1
102
RTVSPropertyOp12
 70
     1
102
RTVSPropertyOp13
 70
     1
102
RTVSPropertyOp14
 70
     1
102
RTVSPropertyOp15
 70
     1
102
RTVSPropertyOp16
 70
     1
102
RTVSPropertyOp17
 70
     1
102
RTVSPropertyOp18
 70
     1
102
RTVSPropertyOp19
 70
     1
102
RTVSPropertyOp20
 70
     1
102
RTVSPropertyOp21
 70
     1
102
RTVSPropertyOp22
 70
     1
102
RTVSPropertyOp23
 70
     1
102
RTVSPropertyOp24
 70
     1
102
RTVSPropertyOp25
 70
     1
102
RTVSPropertyOp26
 70
     1
102
RTVSPropertyOp27
 70
     1
102
RTVSPropertyOp28
 70
     1
102
RTVSPropertyOp29
 70
     1
102
RTVSPropertyOp30
 70
     1
102
RTVSPropertyOp31
 70
     1
102
RTVSPropertyOp32
 70
     1
102
RTVSPropertyOp33
 70
     1
102
RTVSPropertyOp34
 70
     1
102
RTVSPropertyOp35
 70
     1
102
RTVSPropertyOp36
 70
     1
102
RTVSPropertyOp37
 70
     1
102
RTVSPropertyOp38
 70
     1
102
RTVSPropertyOp39
 70
     1
102
RTVSPropertyOp40
 70
     1
102
RTVSPropertyOp41
 70
     1
102
RTVSPropertyOp42
 70
     1
102
RTVSPropertyOp43
 70
     1
102
RTVSPropertyOp44
 70
     1
102
RTVSPropertyOp45
 70
     1
102
RTVSPropertyOp46
 70
     1
102
RTVSPropertyOp47
 70
     1
102
RTVSPropertyOp48
 70
     1
102
RTVSPropertyOp49
 70
     1
102
RTVSPropertyOp50
 70
     1
102
RTVSPropertyOp51
 70
     0
102
RTVSPropertyOp52
 70
     0
102
RTVSPropertyOp53
 70
     1
102
RTVSPropertyOp54
 70
     1
102
RTVSPropertyOp55
 70
     1
102
RTVSPropertyOp56
 70
     1
102
RTVSPropertyOp57
 70
     1
102
RTVSPost2010Prop28
280
     0
102
RTVSPost2010PropOp28
 70
     1
102
RTVSPost2010Prop29
280
     1
102
RTVSPost2010PropOp29
 70
     1
102
RTVSPost2010Prop30
280
     1
102
RTVSPost2010PropOp30
 70
     1
102
RTVSPost2010Prop31
280
     0
102
RTVSPost2010PropOp31
 70
     1
102
RTVSPost2010Prop32
280
     0
102
RTVSPost2010PropOp32
 70
     1
102
RTVSPost2010Prop33
280
     0
102
RTVSPost2010PropOp33
 70
     1
102
RTVSPost2010Prop34
280
     0
102
RTVSPost2010PropOp34
 70
     1
102
RTVSPost2010Prop35
280
     0
102
RTVSPost2010PropOp35
 70
     1
102
RTVSPost2010Prop36
280
     0
102
RTVSPost2010PropOp36
 70
     1
102
RTVSPost2010Prop37
 90
       50
102
RTVSPost2010PropOp37
 70
     1
102
RTVSPost2010Prop38
140
0.0
102
RTVSPost2010PropOp38
 70
     1
102
RTVSPost2010Prop39
140
1.0
102
RTVSPost2010PropOp39
 70
     1
102
RTVSPost2010Prop40
 90
        0
102
RTVSPost2010PropOp40
 70
     1
102
RTVSPost2010Prop41ColorIndex
 90
       18
102
RTVSPost2010Prop41ColorRGB
 90
        0
102
RTVSPost2010PropOp41
 70
     1
102
RTVSPost2010Prop42
 90
       50
102
RTVSPost2010PropOp42
 70
     1
102
RTVSPost2010Prop43
 90
        3
102
RTVSPost2010PropOp43
 70
     1
102
RTVSPost2010Prop44ColorIndex
 90
        5
102
RTVSPost2010Prop44ColorRGB
 90
      255
102
RTVSPost2010PropOp44
 70
     1
102
RTVSPost2010Prop45
280
     0
102
RTVSPost2010PropOp45
 70
     1
102
RTVSPost2010Prop46
 90
       50
102
RTVSPost2010PropOp46
 70
     1
102
RTVSPost2010Prop47
 90
       50
102
RTVSPost2010PropOp47
 70
     1
102
RTVSPost2010Prop48
 90
       50
102
RTVSPost2010PropOp48
 70
     1
102
RTVSPost2010Prop49
280
     0
102
RTVSPost2010PropOp49
 70
     1
102
RTVSPost2010Prop50
 90
       50
102
RTVSPost2010PropOp50
 70
     1
102
RTVSPost2010Prop51ColorIndex
 90
      256
102
RTVSPost2010Prop51ColorRGB
 90
-16777216
102
RTVSPost2010PropOp51
 70
     0
102
RTVSPost2010Prop52
140
1.0
102
RTVSPost2010PropOp52
 70
     0
102
RTVSPost2010Prop53
 90
        2
102
RTVSPost2010PropOp53
 70
     1
102
RTVSPost2010Prop54
  1
strokes_ogs.tif
102
RTVSPost2010PropOp54
 70
     1
102
RTVSPost2010Prop55
280
     0
102
RTVSPost2010PropOp55
 70
     1
102
RTVSPost2010Prop56
140
1.0
102
RTVSPost2010PropOp56
 70
     1
102
RTVSPost2010Prop57
140
1.0
102
RTVSPost2010PropOp57
 70
     1
  0
XRECORD
  5
4DB
102
{ACAD_REACTORS
330
4DA
102
}
330
4DA
100
AcDbXrecord
280
     1
102
RTVSPropertyOp0
 70
     1
102
RTVSPropertyOp1
 70
     1
102
RTVSPropertyOp2
 70
     1
102
RTVSPropertyOp3
 70
     1
102
RTVSPropertyOp4
 70
     1
102
RTVSPropertyOp5
 70
     1
102
RTVSPropertyOp6
 70
     1
102
RTVSPropertyOp7
 70
     1
102
RTVSPropertyOp8
 70
     1
102
RTVSPropertyOp9
 70
     1
102
RTVSPropertyOp10
 70
     1
102
RTVSPropertyOp11
 70
     1
102
RTVSPropertyOp12
 70
     1
102
RTVSPropertyOp13
 70
     1
102
RTVSPropertyOp14
 70
     1
102
RTVSPropertyOp15
 70
     1
102
RTVSPropertyOp16
 70
     1
102
RTVSPropertyOp17
 70
     1
102
RTVSPropertyOp18
 70
     1
102
RTVSPropertyOp19
 70
     1
102
RTVSPropertyOp20
 70
     1
102
RTVSPropertyOp21
 70
     1
102
RTVSPropertyOp22
 70
     1
102
RTVSPropertyOp23
 70
     1
102
RTVSPropertyOp24
 70
     1
102
RTVSPropertyOp25
 70
     1
102
RTVSPropertyOp26
 70
     1
102
RTVSPropertyOp27
 70
     1
102
RTVSPropertyOp28
 70
     1
102
RTVSPropertyOp29
 70
     1
102
RTVSPropertyOp30
 70
     1
102
RTVSPropertyOp31
 70
     1
102
RTVSPropertyOp32
 70
     1
102
RTVSPropertyOp33
 70
     1
102
RTVSPropertyOp34
 70
     1
102
RTVSPropertyOp35
 70
     1
102
RTVSPropertyOp36
 70
     1
102
RTVSPropertyOp37
 70
     1
102
RTVSPropertyOp38
 70
     1
102
RTVSPropertyOp39
 70
     1
102
RTVSPropertyOp40
 70
     1
102
RTVSPropertyOp41
 70
     1
102
RTVSPropertyOp42
 70
     1
102
RTVSPropertyOp43
 70
     1
102
RTVSPropertyOp44
 70
     1
102
RTVSPropertyOp45
 70
     1
102
RTVSPropertyOp46
 70
     1
102
RTVSPropertyOp47
 70
     1
102
RTVSPropertyOp48
 70
     1
102
RTVSPropertyOp49
 70
     1
102
RTVSPropertyOp50
 70
     1
102
RTVSPropertyOp51
 70
     0
102
RTVSPropertyOp52
 70
     0
102
RTVSPropertyOp53
 70
     1
102
RTVSPropertyOp54
 70
     1
102
RTVSPropertyOp55
 70
     1
102
RTVSPropertyOp56
 70
     1
102
RTVSPropertyOp57
 70
     1
102
RTVSPost2010Prop28
280
     0
102
RTVSPost2010PropOp28
 70
     1
102
RTVSPost2010Prop29
280
     1
102
RTVSPost2010PropOp29
 70
     1
102
RTVSPost2010Prop30
280
     1
102
RTVSPost2010PropOp30
 70
     1
102
RTVSPost2010Prop31
280
     0
102
RTVSPost2010PropOp31
 70
     1
102
RTVSPost2010Prop32
280
     0
102
RTVSPost2010PropOp32
 70
     1
102
RTVSPost2010Prop33
280
     0
102
RTVSPost2010PropOp33
 70
     1
102
RTVSPost2010Prop34
280
     0
102
RTVSPost2010PropOp34
 70
     1
102
RTVSPost2010Prop35
280
     0
102
RTVSPost2010PropOp35
 70
     1
102
RTVSPost2010Prop36
280
     0
102
RTVSPost2010PropOp36
 70
     1
102
RTVSPost2010Prop37
 90
       50
102
RTVSPost2010PropOp37
 70
     1
102
RTVSPost2010Prop38
140
0.0
102
RTVSPost2010PropOp38
 70
     1
102
RTVSPost2010Prop39
140
1.0
102
RTVSPost2010PropOp39
 70
     1
102
RTVSPost2010Prop40
 90
        0
102
RTVSPost2010PropOp40
 70
     1
102
RTVSPost2010Prop41ColorIndex
 90
       18
102
RTVSPost2010Prop41ColorRGB
 90
        0
102
RTVSPost2010PropOp41
 70
     1
102
RTVSPost2010Prop42
 90
       50
102
RTVSPost2010PropOp42
 70
     1
102
RTVSPost2010Prop43
 90
        3
102
RTVSPost2010PropOp43
 70
     1
102
RTVSPost2010Prop44ColorIndex
 90
        5
102
RTVSPost2010Prop44ColorRGB
 90
      255
102
RTVSPost2010PropOp44
 70
     1
102
RTVSPost2010Prop45
280
     0
102
RTVSPost2010PropOp45
 70
     1
102
RTVSPost2010Prop46
 90
       50
102
RTVSPost2010PropOp46
 70
     1
102
RTVSPost2010Prop47
 90
       50
102
RTVSPost2010PropOp47
 70
     1
102
RTVSPost2010Prop48
 90
       50
102
RTVSPost2010PropOp48
 70
     1
102
RTVSPost2010Prop49
280
     0
102
RTVSPost2010PropOp49
 70
     1
102
RTVSPost2010Prop50
 90
       50
102
RTVSPost2010PropOp50
 70
     1
102
RTVSPost2010Prop51ColorIndex
 90
      256
102
RTVSPost2010Prop51ColorRGB
 90
-16777216
102
RTVSPost2010PropOp51
 70
     0
102
RTVSPost2010Prop52
140
1.0
102
RTVSPost2010PropOp52
 70
     0
102
RTVSPost2010Prop53
 90
        2
102
RTVSPost2010PropOp53
 70
     1
102
RTVSPost2010Prop54
  1
strokes_ogs.tif
102
RTVSPost2010PropOp54
 70
     1
102
RTVSPost2010Prop55
280
     0
102
RTVSPost2010PropOp55
 70
     1
102
RTVSPost2010Prop56
140
1.0
102
RTVSPost2010PropOp56
 70
     1
102
RTVSPost2010Prop57
140
1.0
102
RTVSPost2010PropOp57
 70
     1
  0
XRECORD
  5
4E3
102
{ACAD_REACTORS
330
4E2
102
}
330
4E2
100
AcDbXrecord
280
     1
102
RTVSPropertyOp0
 70
     1
102
RTVSPropertyOp1
 70
     1
102
RTVSPropertyOp2
 70
     1
102
RTVSPropertyOp3
 70
     1
102
RTVSPropertyOp4
 70
     1
102
RTVSPropertyOp5
 70
     1
102
RTVSPropertyOp6
 70
     1
102
RTVSPropertyOp7
 70
     1
102
RTVSPropertyOp8
 70
     1
102
RTVSPropertyOp9
 70
     1
102
RTVSPropertyOp10
 70
     1
102
RTVSPropertyOp11
 70
     1
102
RTVSPropertyOp12
 70
     1
102
RTVSPropertyOp13
 70
     1
102
RTVSPropertyOp14
 70
     1
102
RTVSPropertyOp15
 70
     1
102
RTVSPropertyOp16
 70
     1
102
RTVSPropertyOp17
 70
     1
102
RTVSPropertyOp18
 70
     1
102
RTVSPropertyOp19
 70
     1
102
RTVSPropertyOp20
 70
     1
102
RTVSPropertyOp21
 70
     1
102
RTVSPropertyOp22
 70
     1
102
RTVSPropertyOp23
 70
     1
102
RTVSPropertyOp24
 70
     1
102
RTVSPropertyOp25
 70
     1
102
RTVSPropertyOp26
 70
     1
102
RTVSPropertyOp27
 70
     1
102
RTVSPropertyOp28
 70
     1
102
RTVSPropertyOp29
 70
     1
102
RTVSPropertyOp30
 70
     1
102
RTVSPropertyOp31
 70
     1
102
RTVSPropertyOp32
 70
     1
102
RTVSPropertyOp33
 70
     1
102
RTVSPropertyOp34
 70
     1
102
RTVSPropertyOp35
 70
     1
102
RTVSPropertyOp36
 70
     1
102
RTVSPropertyOp37
 70
     1
102
RTVSPropertyOp38
 70
     1
102
RTVSPropertyOp39
 70
     1
102
RTVSPropertyOp40
 70
     1
102
RTVSPropertyOp41
 70
     1
102
RTVSPropertyOp42
 70
     1
102
RTVSPropertyOp43
 70
     1
102
RTVSPropertyOp44
 70
     1
102
RTVSPropertyOp45
 70
     1
102
RTVSPropertyOp46
 70
     1
102
RTVSPropertyOp47
 70
     1
102
RTVSPropertyOp48
 70
     1
102
RTVSPropertyOp49
 70
     1
102
RTVSPropertyOp50
 70
     1
102
RTVSPropertyOp51
 70
     0
102
RTVSPropertyOp52
 70
     0
102
RTVSPropertyOp53
 70
     1
102
RTVSPropertyOp54
 70
     1
102
RTVSPropertyOp55
 70
     1
102
RTVSPropertyOp56
 70
     1
102
RTVSPropertyOp57
 70
     1
102
RTVSPost2010Prop28
280
     0
102
RTVSPost2010PropOp28
 70
     1
102
RTVSPost2010Prop29
280
     1
102
RTVSPost2010PropOp29
 70
     1
102
RTVSPost2010Prop30
280
     1
102
RTVSPost2010PropOp30
 70
     1
102
RTVSPost2010Prop31
280
     0
102
RTVSPost2010PropOp31
 70
     1
102
RTVSPost2010Prop32
280
     0
102
RTVSPost2010PropOp32
 70
     1
102
RTVSPost2010Prop33
280
     0
102
RTVSPost2010PropOp33
 70
     1
102
RTVSPost2010Prop34
280
     0
102
RTVSPost2010PropOp34
 70
     1
102
RTVSPost2010Prop35
280
     0
102
RTVSPost2010PropOp35
 70
     1
102
RTVSPost2010Prop36
280
     0
102
RTVSPost2010PropOp36
 70
     1
102
RTVSPost2010Prop37
 90
       50
102
RTVSPost2010PropOp37
 70
     1
102
RTVSPost2010Prop38
140
0.0
102
RTVSPost2010PropOp38
 70
     1
102
RTVSPost2010Prop39
140
1.0
102
RTVSPost2010PropOp39
 70
     1
102
RTVSPost2010Prop40
 90
        0
102
RTVSPost2010PropOp40
 70
     1
102
RTVSPost2010Prop41ColorIndex
 90
       18
102
RTVSPost2010Prop41ColorRGB
 90
        0
102
RTVSPost2010PropOp41
 70
     1
102
RTVSPost2010Prop42
 90
       50
102
RTVSPost2010PropOp42
 70
     1
102
RTVSPost2010Prop43
 90
        3
102
RTVSPost2010PropOp43
 70
     1
102
RTVSPost2010Prop44ColorIndex
 90
        5
102
RTVSPost2010Prop44ColorRGB
 90
      255
102
RTVSPost2010PropOp44
 70
     1
102
RTVSPost2010Prop45
280
     0
102
RTVSPost2010PropOp45
 70
     1
102
RTVSPost2010Prop46
 90
       50
102
RTVSPost2010PropOp46
 70
     1
102
RTVSPost2010Prop47
 90
       50
102
RTVSPost2010PropOp47
 70
     1
102
RTVSPost2010Prop48
 90
       50
102
RTVSPost2010PropOp48
 70
     1
102
RTVSPost2010Prop49
280
     0
102
RTVSPost2010PropOp49
 70
     1
102
RTVSPost2010Prop50
 90
       50
102
RTVSPost2010PropOp50
 70
     1
102
RTVSPost2010Prop51ColorIndex
 90
      256
102
RTVSPost2010Prop51ColorRGB
 90
-16777216
102
RTVSPost2010PropOp51
 70
     0
102
RTVSPost2010Prop52
140
1.0
102
RTVSPost2010PropOp52
 70
     0
102
RTVSPost2010Prop53
 90
        2
102
RTVSPost2010PropOp53
 70
     1
102
RTVSPost2010Prop54
  1
strokes_ogs.tif
102
RTVSPost2010PropOp54
 70
     1
102
RTVSPost2010Prop55
280
     0
102
RTVSPost2010PropOp55
 70
     1
102
RTVSPost2010Prop56
140
1.0
102
RTVSPost2010PropOp56
 70
     1
102
RTVSPost2010Prop57
140
1.0
102
RTVSPost2010PropOp57
 70
     1
  0
XRECORD
  5
4D7
102
{ACAD_REACTORS
330
4D6
102
}
330
4D6
100
AcDbXrecord
280
     1
102
RTVSPropertyOp0
 70
     1
102
RTVSPropertyOp1
 70
     1
102
RTVSPropertyOp2
 70
     1
102
RTVSPropertyOp3
 70
     1
102
RTVSPropertyOp4
 70
     1
102
RTVSPropertyOp5
 70
     1
102
RTVSPropertyOp6
 70
     1
102
RTVSPropertyOp7
 70
     1
102
RTVSPropertyOp8
 70
     1
102
RTVSPropertyOp9
 70
     1
102
RTVSPropertyOp10
 70
     1
102
RTVSPropertyOp11
 70
     1
102
RTVSPropertyOp12
 70
     1
102
RTVSPropertyOp13
 70
     1
102
RTVSPropertyOp14
 70
     1
102
RTVSPropertyOp15
 70
     1
102
RTVSPropertyOp16
 70
     1
102
RTVSPropertyOp17
 70
     1
102
RTVSPropertyOp18
 70
     1
102
RTVSPropertyOp19
 70
     1
102
RTVSPropertyOp20
 70
     1
102
RTVSPropertyOp21
 70
     1
102
RTVSPropertyOp22
 70
     1
102
RTVSPropertyOp23
 70
     1
102
RTVSPropertyOp24
 70
     1
102
RTVSPropertyOp25
 70
     1
102
RTVSPropertyOp26
 70
     1
102
RTVSPropertyOp27
 70
     1
102
RTVSPropertyOp28
 70
     1
102
RTVSPropertyOp29
 70
     1
102
RTVSPropertyOp30
 70
     1
102
RTVSPropertyOp31
 70
     1
102
RTVSPropertyOp32
 70
     1
102
RTVSPropertyOp33
 70
     1
102
RTVSPropertyOp34
 70
     1
102
RTVSPropertyOp35
 70
     1
102
RTVSPropertyOp36
 70
     1
102
RTVSPropertyOp37
 70
     1
102
RTVSPropertyOp38
 70
     1
102
RTVSPropertyOp39
 70
     1
102
RTVSPropertyOp40
 70
     1
102
RTVSPropertyOp41
 70
     1
102
RTVSPropertyOp42
 70
     1
102
RTVSPropertyOp43
 70
     1
102
RTVSPropertyOp44
 70
     1
102
RTVSPropertyOp45
 70
     1
102
RTVSPropertyOp46
 70
     1
102
RTVSPropertyOp47
 70
     1
102
RTVSPropertyOp48
 70
     1
102
RTVSPropertyOp49
 70
     1
102
RTVSPropertyOp50
 70
     1
102
RTVSPropertyOp51
 70
     0
102
RTVSPropertyOp52
 70
     0
102
RTVSPropertyOp53
 70
     1
102
RTVSPropertyOp54
 70
     1
102
RTVSPropertyOp55
 70
     1
102
RTVSPropertyOp56
 70
     1
102
RTVSPropertyOp57
 70
     1
102
RTVSPost2010Prop28
280
     0
102
RTVSPost2010PropOp28
 70
     1
102
RTVSPost2010Prop29
280
     1
102
RTVSPost2010PropOp29
 70
     1
102
RTVSPost2010Prop30
280
     1
102
RTVSPost2010PropOp30
 70
     1
102
RTVSPost2010Prop31
280
     0
102
RTVSPost2010PropOp31
 70
     1
102
RTVSPost2010Prop32
280
     0
102
RTVSPost2010PropOp32
 70
     1
102
RTVSPost2010Prop33
280
     0
102
RTVSPost2010PropOp33
 70
     1
102
RTVSPost2010Prop34
280
     0
102
RTVSPost2010PropOp34
 70
     1
102
RTVSPost2010Prop35
280
     0
102
RTVSPost2010PropOp35
 70
     1
102
RTVSPost2010Prop36
280
     0
102
RTVSPost2010PropOp36
 70
     1
102
RTVSPost2010Prop37
 90
       50
102
RTVSPost2010PropOp37
 70
     1
102
RTVSPost2010Prop38
140
0.0
102
RTVSPost2010PropOp38
 70
     1
102
RTVSPost2010Prop39
140
1.0
102
RTVSPost2010PropOp39
 70
     1
102
RTVSPost2010Prop40
 90
        0
102
RTVSPost2010PropOp40
 70
     1
102
RTVSPost2010Prop41ColorIndex
 90
       18
102
RTVSPost2010Prop41ColorRGB
 90
        0
102
RTVSPost2010PropOp41
 70
     1
102
RTVSPost2010Prop42
 90
       50
102
RTVSPost2010PropOp42
 70
     1
102
RTVSPost2010Prop43
 90
        3
102
RTVSPost2010PropOp43
 70
     1
102
RTVSPost2010Prop44ColorIndex
 90
        5
102
RTVSPost2010Prop44ColorRGB
 90
      255
102
RTVSPost2010PropOp44
 70
     1
102
RTVSPost2010Prop45
280
     0
102
RTVSPost2010PropOp45
 70
     1
102
RTVSPost2010Prop46
 90
       50
102
RTVSPost2010PropOp46
 70
     1
102
RTVSPost2010Prop47
 90
       50
102
RTVSPost2010PropOp47
 70
     1
102
RTVSPost2010Prop48
 90
       50
102
RTVSPost2010PropOp48
 70
     1
102
RTVSPost2010Prop49
280
     0
102
RTVSPost2010PropOp49
 70
     1
102
RTVSPost2010Prop50
 90
       50
102
RTVSPost2010PropOp50
 70
     1
102
RTVSPost2010Prop51ColorIndex
 90
      256
102
RTVSPost2010Prop51ColorRGB
 90
-16777216
102
RTVSPost2010PropOp51
 70
     0
102
RTVSPost2010Prop52
140
1.0
102
RTVSPost2010PropOp52
 70
     0
102
RTVSPost2010Prop53
 90
        2
102
RTVSPost2010PropOp53
 70
     1
102
RTVSPost2010Prop54
  1
strokes_ogs.tif
102
RTVSPost2010PropOp54
 70
     1
102
RTVSPost2010Prop55
280
     0
102
RTVSPost2010PropOp55
 70
     1
102
RTVSPost2010Prop56
140
1.0
102
RTVSPost2010PropOp56
 70
     1
102
RTVSPost2010Prop57
140
1.0
102
RTVSPost2010PropOp57
 70
     1
  0
XRECORD
  5
4D9
102
{ACAD_REACTORS
330
4D8
102
}
330
4D8
100
AcDbXrecord
280
     1
102
RTVSPropertyOp0
 70
     1
102
RTVSPropertyOp1
 70
     1
102
RTVSPropertyOp2
 70
     1
102
RTVSPropertyOp3
 70
     1
102
RTVSPropertyOp4
 70
     1
102
RTVSPropertyOp5
 70
     1
102
RTVSPropertyOp6
 70
     1
102
RTVSPropertyOp7
 70
     1
102
RTVSPropertyOp8
 70
     1
102
RTVSPropertyOp9
 70
     1
102
RTVSPropertyOp10
 70
     1
102
RTVSPropertyOp11
 70
     1
102
RTVSPropertyOp12
 70
     1
102
RTVSPropertyOp13
 70
     1
102
RTVSPropertyOp14
 70
     1
102
RTVSPropertyOp15
 70
     1
102
RTVSPropertyOp16
 70
     1
102
RTVSPropertyOp17
 70
     1
102
RTVSPropertyOp18
 70
     1
102
RTVSPropertyOp19
 70
     1
102
RTVSPropertyOp20
 70
     1
102
RTVSPropertyOp21
 70
     1
102
RTVSPropertyOp22
 70
     1
102
RTVSPropertyOp23
 70
     1
102
RTVSPropertyOp24
 70
     1
102
RTVSPropertyOp25
 70
     1
102
RTVSPropertyOp26
 70
     1
102
RTVSPropertyOp27
 70
     1
102
RTVSPropertyOp28
 70
     1
102
RTVSPropertyOp29
 70
     1
102
RTVSPropertyOp30
 70
     1
102
RTVSPropertyOp31
 70
     1
102
RTVSPropertyOp32
 70
     1
102
RTVSPropertyOp33
 70
     1
102
RTVSPropertyOp34
 70
     1
102
RTVSPropertyOp35
 70
     1
102
RTVSPropertyOp36
 70
     1
102
RTVSPropertyOp37
 70
     1
102
RTVSPropertyOp38
 70
     1
102
RTVSPropertyOp39
 70
     1
102
RTVSPropertyOp40
 70
     1
102
RTVSPropertyOp41
 70
     1
102
RTVSPropertyOp42
 70
     1
102
RTVSPropertyOp43
 70
     1
102
RTVSPropertyOp44
 70
     1
102
RTVSPropertyOp45
 70
     1
102
RTVSPropertyOp46
 70
     1
102
RTVSPropertyOp47
 70
     1
102
RTVSPropertyOp48
 70
     1
102
RTVSPropertyOp49
 70
     1
102
RTVSPropertyOp50
 70
     1
102
RTVSPropertyOp51
 70
     0
102
RTVSPropertyOp52
 70
     0
102
RTVSPropertyOp53
 70
     1
102
RTVSPropertyOp54
 70
     1
102
RTVSPropertyOp55
 70
     1
102
RTVSPropertyOp56
 70
     1
102
RTVSPropertyOp57
 70
     1
102
RTVSPost2010Prop28
280
     0
102
RTVSPost2010PropOp28
 70
     1
102
RTVSPost2010Prop29
280
     1
102
RTVSPost2010PropOp29
 70
     1
102
RTVSPost2010Prop30
280
     1
102
RTVSPost2010PropOp30
 70
     1
102
RTVSPost2010Prop31
280
     0
102
RTVSPost2010PropOp31
 70
     1
102
RTVSPost2010Prop32
280
     0
102
RTVSPost2010PropOp32
 70
     1
102
RTVSPost2010Prop33
280
     0
102
RTVSPost2010PropOp33
 70
     1
102
RTVSPost2010Prop34
280
     0
102
RTVSPost2010PropOp34
 70
     1
102
RTVSPost2010Prop35
280
     0
102
RTVSPost2010PropOp35
 70
     1
102
RTVSPost2010Prop36
280
     0
102
RTVSPost2010PropOp36
 70
     1
102
RTVSPost2010Prop37
 90
       50
102
RTVSPost2010PropOp37
 70
     1
102
RTVSPost2010Prop38
140
0.0
102
RTVSPost2010PropOp38
 70
     1
102
RTVSPost2010Prop39
140
1.0
102
RTVSPost2010PropOp39
 70
     1
102
RTVSPost2010Prop40
 90
        0
102
RTVSPost2010PropOp40
 70
     1
102
RTVSPost2010Prop41ColorIndex
 90
       18
102
RTVSPost2010Prop41ColorRGB
 90
        0
102
RTVSPost2010PropOp41
 70
     1
102
RTVSPost2010Prop42
 90
       50
102
RTVSPost2010PropOp42
 70
     1
102
RTVSPost2010Prop43
 90
        3
102
RTVSPost2010PropOp43
 70
     1
102
RTVSPost2010Prop44ColorIndex
 90
        5
102
RTVSPost2010Prop44ColorRGB
 90
      255
102
RTVSPost2010PropOp44
 70
     1
102
RTVSPost2010Prop45
280
     0
102
RTVSPost2010PropOp45
 70
     1
102
RTVSPost2010Prop46
 90
       50
102
RTVSPost2010PropOp46
 70
     1
102
RTVSPost2010Prop47
 90
       50
102
RTVSPost2010PropOp47
 70
     1
102
RTVSPost2010Prop48
 90
       50
102
RTVSPost2010PropOp48
 70
     1
102
RTVSPost2010Prop49
280
     0
102
RTVSPost2010PropOp49
 70
     1
102
RTVSPost2010Prop50
 90
       50
102
RTVSPost2010PropOp50
 70
     1
102
RTVSPost2010Prop51ColorIndex
 90
      256
102
RTVSPost2010Prop51ColorRGB
 90
-16777216
102
RTVSPost2010PropOp51
 70
     0
102
RTVSPost2010Prop52
140
1.0
102
RTVSPost2010PropOp52
 70
     0
102
RTVSPost2010Prop53
 90
        2
102
RTVSPost2010PropOp53
 70
     1
102
RTVSPost2010Prop54
  1
strokes_ogs.tif
102
RTVSPost2010PropOp54
 70
     1
102
RTVSPost2010Prop55
280
     0
102
RTVSPost2010PropOp55
 70
     1
102
RTVSPost2010Prop56
140
1.0
102
RTVSPost2010PropOp56
 70
     1
102
RTVSPost2010Prop57
140
1.0
102
RTVSPost2010PropOp57
 70
     1
  0
XRECORD
  5
4E9
102
{ACAD_REACTORS
330
4E8
102
}
330
4E8
100
AcDbXrecord
280
     1
102
RTVSPropertyOp0
 70
     0
102
RTVSPropertyOp1
 70
     0
102
RTVSPropertyOp2
 70
     0
102
RTVSPropertyOp3
 70
     0
102
RTVSPropertyOp4
 70
     0
102
RTVSPropertyOp5
 70
     0
102
RTVSPropertyOp6
 70
     0
102
RTVSPropertyOp7
 70
     0
102
RTVSPropertyOp8
 70
     0
102
RTVSPropertyOp9
 70
     0
102
RTVSPropertyOp10
 70
     0
102
RTVSPropertyOp11
 70
     0
102
RTVSPropertyOp12
 70
     0
102
RTVSPropertyOp13
 70
     0
102
RTVSPropertyOp14
 70
     2
102
RTVSPropertyOp15
 70
     0
102
RTVSPropertyOp16
 70
     0
102
RTVSPropertyOp17
 70
     0
102
RTVSPropertyOp18
 70
     0
102
RTVSPropertyOp19
 70
     0
102
RTVSPropertyOp20
 70
     0
102
RTVSPropertyOp21
 70
     0
102
RTVSPropertyOp22
 70
     0
102
RTVSPropertyOp23
 70
     0
102
RTVSPropertyOp24
 70
     0
102
RTVSPropertyOp25
 70
     0
102
RTVSPropertyOp26
 70
     0
102
RTVSPropertyOp27
 70
     0
102
RTVSPropertyOp28
 70
     0
102
RTVSPropertyOp29
 70
     0
102
RTVSPropertyOp30
 70
     0
102
RTVSPropertyOp31
 70
     0
102
RTVSPropertyOp32
 70
     0
102
RTVSPropertyOp33
 70
     0
102
RTVSPropertyOp34
 70
     0
102
RTVSPropertyOp35
 70
     0
102
RTVSPropertyOp36
 70
     0
102
RTVSPropertyOp37
 70
     0
102
RTVSPropertyOp38
 70
     0
102
RTVSPropertyOp39
 70
     0
102
RTVSPropertyOp40
 70
     0
102
RTVSPropertyOp41
 70
     0
102
RTVSPropertyOp42
 70
     0
102
RTVSPropertyOp43
 70
     0
102
RTVSPropertyOp44
 70
     0
102
RTVSPropertyOp45
 70
     0
102
RTVSPropertyOp46
 70
     0
102
RTVSPropertyOp47
 70
     0
102
RTVSPropertyOp48
 70
     0
102
RTVSPropertyOp49
 70
     0
102
RTVSPropertyOp50
 70
     0
102
RTVSPropertyOp51
 70
     0
102
RTVSPropertyOp52
 70
     0
102
RTVSPropertyOp53
 70
     0
102
RTVSPropertyOp54
 70
     0
102
RTVSPropertyOp55
 70
     0
102
RTVSPropertyOp56
 70
     0
102
RTVSPropertyOp57
 70
     0
102
RTVSPost2010Prop28
280
     0
102
RTVSPost2010PropOp28
 70
     0
102
RTVSPost2010Prop29
280
     1
102
RTVSPost2010PropOp29
 70
     0
102
RTVSPost2010Prop30
280
     1
102
RTVSPost2010PropOp30
 70
     0
102
RTVSPost2010Prop31
280
     0
102
RTVSPost2010PropOp31
 70
     0
102
RTVSPost2010Prop32
280
     0
102
RTVSPost2010PropOp32
 70
     0
102
RTVSPost2010Prop33
280
     0
102
RTVSPost2010PropOp33
 70
     0
102
RTVSPost2010Prop34
280
     0
102
RTVSPost2010PropOp34
 70
     0
102
RTVSPost2010Prop35
280
     0
102
RTVSPost2010PropOp35
 70
     0
102
RTVSPost2010Prop36
280
     0
102
RTVSPost2010PropOp36
 70
     0
102
RTVSPost2010Prop37
 90
       50
102
RTVSPost2010PropOp37
 70
     0
102
RTVSPost2010Prop38
140
0.0
102
RTVSPost2010PropOp38
 70
     0
102
RTVSPost2010Prop39
140
1.0
102
RTVSPost2010PropOp39
 70
     0
102
RTVSPost2010Prop40
 90
        0
102
RTVSPost2010PropOp40
 70
     0
102
RTVSPost2010Prop41ColorIndex
 90
       18
102
RTVSPost2010Prop41ColorRGB
 90
        0
102
RTVSPost2010PropOp41
 70
     0
102
RTVSPost2010Prop42
 90
       50
102
RTVSPost2010PropOp42
 70
     0
102
RTVSPost2010Prop43
 90
        3
102
RTVSPost2010PropOp43
 70
     0
102
RTVSPost2010Prop44ColorIndex
 90
        5
102
RTVSPost2010Prop44ColorRGB
 90
      255
102
RTVSPost2010PropOp44
 70
     0
102
RTVSPost2010Prop45
280
     0
102
RTVSPost2010PropOp45
 70
     0
102
RTVSPost2010Prop46
 90
       50
102
RTVSPost2010PropOp46
 70
     0
102
RTVSPost2010Prop47
 90
       50
102
RTVSPost2010PropOp47
 70
     0
102
RTVSPost2010Prop48
 90
       50
102
RTVSPost2010PropOp48
 70
     0
102
RTVSPost2010Prop49
280
     0
102
RTVSPost2010PropOp49
 70
     0
102
RTVSPost2010Prop50
 90
       50
102
RTVSPost2010PropOp50
 70
     0
102
RTVSPost2010Prop51ColorIndex
 90
      256
102
RTVSPost2010Prop51ColorRGB
 90
-16777216
102
RTVSPost2010PropOp51
 70
     0
102
RTVSPost2010Prop52
140
1.0
102
RTVSPost2010PropOp52
 70
     0
102
RTVSPost2010Prop53
 90
        2
102
RTVSPost2010PropOp53
 70
     0
102
RTVSPost2010Prop54
  1
strokes_ogs.tif
102
RTVSPost2010PropOp54
 70
     0
102
RTVSPost2010Prop55
280
     0
102
RTVSPost2010PropOp55
 70
     0
102
RTVSPost2010Prop56
140
1.0
102
RTVSPost2010PropOp56
 70
     0
102
RTVSPost2010Prop57
140
1.0
102
RTVSPost2010PropOp57
 70
     0
  0
XRECORD
  5
4E1
102
{ACAD_REACTORS
330
4E0
102
}
330
4E0
100
AcDbXrecord
280
     1
102
RTVSPropertyOp0
 70
     1
102
RTVSPropertyOp1
 70
     1
102
RTVSPropertyOp2
 70
     1
102
RTVSPropertyOp3
 70
     1
102
RTVSPropertyOp4
 70
     1
102
RTVSPropertyOp5
 70
     1
102
RTVSPropertyOp6
 70
     1
102
RTVSPropertyOp7
 70
     1
102
RTVSPropertyOp8
 70
     1
102
RTVSPropertyOp9
 70
     1
102
RTVSPropertyOp10
 70
     1
102
RTVSPropertyOp11
 70
     1
102
RTVSPropertyOp12
 70
     1
102
RTVSPropertyOp13
 70
     1
102
RTVSPropertyOp14
 70
     1
102
RTVSPropertyOp15
 70
     1
102
RTVSPropertyOp16
 70
     1
102
RTVSPropertyOp17
 70
     1
102
RTVSPropertyOp18
 70
     1
102
RTVSPropertyOp19
 70
     1
102
RTVSPropertyOp20
 70
     1
102
RTVSPropertyOp21
 70
     1
102
RTVSPropertyOp22
 70
     1
102
RTVSPropertyOp23
 70
     1
102
RTVSPropertyOp24
 70
     1
102
RTVSPropertyOp25
 70
     1
102
RTVSPropertyOp26
 70
     1
102
RTVSPropertyOp27
 70
     1
102
RTVSPropertyOp28
 70
     1
102
RTVSPropertyOp29
 70
     1
102
RTVSPropertyOp30
 70
     1
102
RTVSPropertyOp31
 70
     1
102
RTVSPropertyOp32
 70
     1
102
RTVSPropertyOp33
 70
     1
102
RTVSPropertyOp34
 70
     1
102
RTVSPropertyOp35
 70
     1
102
RTVSPropertyOp36
 70
     1
102
RTVSPropertyOp37
 70
     1
102
RTVSPropertyOp38
 70
     1
102
RTVSPropertyOp39
 70
     1
102
RTVSPropertyOp40
 70
     1
102
RTVSPropertyOp41
 70
     1
102
RTVSPropertyOp42
 70
     1
102
RTVSPropertyOp43
 70
     1
102
RTVSPropertyOp44
 70
     1
102
RTVSPropertyOp45
 70
     1
102
RTVSPropertyOp46
 70
     1
102
RTVSPropertyOp47
 70
     1
102
RTVSPropertyOp48
 70
     1
102
RTVSPropertyOp49
 70
     1
102
RTVSPropertyOp50
 70
     1
102
RTVSPropertyOp51
 70
     0
102
RTVSPropertyOp52
 70
     0
102
RTVSPropertyOp53
 70
     1
102
RTVSPropertyOp54
 70
     1
102
RTVSPropertyOp55
 70
     1
102
RTVSPropertyOp56
 70
     1
102
RTVSPropertyOp57
 70
     1
102
RTVSPost2010Prop28
280
     0
102
RTVSPost2010PropOp28
 70
     1
102
RTVSPost2010Prop29
280
     1
102
RTVSPost2010PropOp29
 70
     1
102
RTVSPost2010Prop30
280
     1
102
RTVSPost2010PropOp30
 70
     1
102
RTVSPost2010Prop31
280
     0
102
RTVSPost2010PropOp31
 70
     1
102
RTVSPost2010Prop32
280
     0
102
RTVSPost2010PropOp32
 70
     1
102
RTVSPost2010Prop33
280
     0
102
RTVSPost2010PropOp33
 70
     1
102
RTVSPost2010Prop34
280
     0
102
RTVSPost2010PropOp34
 70
     1
102
RTVSPost2010Prop35
280
     0
102
RTVSPost2010PropOp35
 70
     1
102
RTVSPost2010Prop36
280
     0
102
RTVSPost2010PropOp36
 70
     1
102
RTVSPost2010Prop37
 90
       50
102
RTVSPost2010PropOp37
 70
     1
102
RTVSPost2010Prop38
140
0.0
102
RTVSPost2010PropOp38
 70
     1
102
RTVSPost2010Prop39
140
1.0
102
RTVSPost2010PropOp39
 70
     1
102
RTVSPost2010Prop40
 90
        0
102
RTVSPost2010PropOp40
 70
     1
102
RTVSPost2010Prop41ColorIndex
 90
       18
102
RTVSPost2010Prop41ColorRGB
 90
        0
102
RTVSPost2010PropOp41
 70
     1
102
RTVSPost2010Prop42
 90
       50
102
RTVSPost2010PropOp42
 70
     1
102
RTVSPost2010Prop43
 90
        3
102
RTVSPost2010PropOp43
 70
     1
102
RTVSPost2010Prop44ColorIndex
 90
        5
102
RTVSPost2010Prop44ColorRGB
 90
      255
102
RTVSPost2010PropOp44
 70
     1
102
RTVSPost2010Prop45
280
     0
102
RTVSPost2010PropOp45
 70
     1
102
RTVSPost2010Prop46
 90
       50
102
RTVSPost2010PropOp46
 70
     1
102
RTVSPost2010Prop47
 90
       50
102
RTVSPost2010PropOp47
 70
     1
102
RTVSPost2010Prop48
 90
       50
102
RTVSPost2010PropOp48
 70
     1
102
RTVSPost2010Prop49
280
     0
102
RTVSPost2010PropOp49
 70
     1
102
RTVSPost2010Prop50
 90
       50
102
RTVSPost2010PropOp50
 70
     1
102
RTVSPost2010Prop51ColorIndex
 90
      256
102
RTVSPost2010Prop51ColorRGB
 90
-16777216
102
RTVSPost2010PropOp51
 70
     0
102
RTVSPost2010Prop52
140
1.0
102
RTVSPost2010PropOp52
 70
     0
102
RTVSPost2010Prop53
 90
        2
102
RTVSPost2010PropOp53
 70
     1
102
RTVSPost2010Prop54
  1
strokes_ogs.tif
102
RTVSPost2010PropOp54
 70
     1
102
RTVSPost2010Prop55
280
     0
102
RTVSPost2010PropOp55
 70
     1
102
RTVSPost2010Prop56
140
1.0
102
RTVSPost2010PropOp56
 70
     1
102
RTVSPost2010Prop57
140
1.0
102
RTVSPost2010PropOp57
 70
     1
  0
XRECORD
  5
4C5
102
{ACAD_REACTORS
330
4C4
102
}
330
4C4
100
AcDbXrecord
280
     1
102
RTVSPropertyOp0
 70
     1
102
RTVSPropertyOp1
 70
     1
102
RTVSPropertyOp2
 70
     1
102
RTVSPropertyOp3
 70
     1
102
RTVSPropertyOp4
 70
     1
102
RTVSPropertyOp5
 70
     1
102
RTVSPropertyOp6
 70
     1
102
RTVSPropertyOp7
 70
     1
102
RTVSPropertyOp8
 70
     1
102
RTVSPropertyOp9
 70
     1
102
RTVSPropertyOp10
 70
     1
102
RTVSPropertyOp11
 70
     1
102
RTVSPropertyOp12
 70
     1
102
RTVSPropertyOp13
 70
     1
102
RTVSPropertyOp14
 70
     1
102
RTVSPropertyOp15
 70
     1
102
RTVSPropertyOp16
 70
     1
102
RTVSPropertyOp17
 70
     1
102
RTVSPropertyOp18
 70
     1
102
RTVSPropertyOp19
 70
     1
102
RTVSPropertyOp20
 70
     1
102
RTVSPropertyOp21
 70
     1
102
RTVSPropertyOp22
 70
     1
102
RTVSPropertyOp23
 70
     1
102
RTVSPropertyOp24
 70
     1
102
RTVSPropertyOp25
 70
     1
102
RTVSPropertyOp26
 70
     1
102
RTVSPropertyOp27
 70
     1
102
RTVSPropertyOp28
 70
     1
102
RTVSPropertyOp29
 70
     1
102
RTVSPropertyOp30
 70
     1
102
RTVSPropertyOp31
 70
     1
102
RTVSPropertyOp32
 70
     1
102
RTVSPropertyOp33
 70
     1
102
RTVSPropertyOp34
 70
     1
102
RTVSPropertyOp35
 70
     1
102
RTVSPropertyOp36
 70
     1
102
RTVSPropertyOp37
 70
     1
102
RTVSPropertyOp38
 70
     1
102
RTVSPropertyOp39
 70
     1
102
RTVSPropertyOp40
 70
     1
102
RTVSPropertyOp41
 70
     1
102
RTVSPropertyOp42
 70
     1
102
RTVSPropertyOp43
 70
     1
102
RTVSPropertyOp44
 70
     1
102
RTVSPropertyOp45
 70
     1
102
RTVSPropertyOp46
 70
     1
102
RTVSPropertyOp47
 70
     1
102
RTVSPropertyOp48
 70
     1
102
RTVSPropertyOp49
 70
     1
102
RTVSPropertyOp50
 70
     1
102
RTVSPropertyOp51
 70
     0
102
RTVSPropertyOp52
 70
     0
102
RTVSPropertyOp53
 70
     1
102
RTVSPropertyOp54
 70
     1
102
RTVSPropertyOp55
 70
     1
102
RTVSPropertyOp56
 70
     1
102
RTVSPropertyOp57
 70
     1
102
RTVSPost2010Prop28
280
     0
102
RTVSPost2010PropOp28
 70
     1
102
RTVSPost2010Prop29
280
     1
102
RTVSPost2010PropOp29
 70
     1
102
RTVSPost2010Prop30
280
     1
102
RTVSPost2010PropOp30
 70
     1
102
RTVSPost2010Prop31
280
     0
102
RTVSPost2010PropOp31
 70
     1
102
RTVSPost2010Prop32
280
     0
102
RTVSPost2010PropOp32
 70
     1
102
RTVSPost2010Prop33
280
     0
102
RTVSPost2010PropOp33
 70
     1
102
RTVSPost2010Prop34
280
     0
102
RTVSPost2010PropOp34
 70
     1
102
RTVSPost2010Prop35
280
     0
102
RTVSPost2010PropOp35
 70
     1
102
RTVSPost2010Prop36
280
     0
102
RTVSPost2010PropOp36
 70
     1
102
RTVSPost2010Prop37
 90
       50
102
RTVSPost2010PropOp37
 70
     1
102
RTVSPost2010Prop38
140
0.0
102
RTVSPost2010PropOp38
 70
     1
102
RTVSPost2010Prop39
140
1.0
102
RTVSPost2010PropOp39
 70
     1
102
RTVSPost2010Prop40
 90
        0
102
RTVSPost2010PropOp40
 70
     1
102
RTVSPost2010Prop41ColorIndex
 90
       18
102
RTVSPost2010Prop41ColorRGB
 90
        0
102
RTVSPost2010PropOp41
 70
     1
102
RTVSPost2010Prop42
 90
       50
102
RTVSPost2010PropOp42
 70
     1
102
RTVSPost2010Prop43
 90
        3
102
RTVSPost2010PropOp43
 70
     1
102
RTVSPost2010Prop44ColorIndex
 90
        5
102
RTVSPost2010Prop44ColorRGB
 90
      255
102
RTVSPost2010PropOp44
 70
     1
102
RTVSPost2010Prop45
280
     0
102
RTVSPost2010PropOp45
 70
     1
102
RTVSPost2010Prop46
 90
       50
102
RTVSPost2010PropOp46
 70
     1
102
RTVSPost2010Prop47
 90
       50
102
RTVSPost2010PropOp47
 70
     1
102
RTVSPost2010Prop48
 90
       50
102
RTVSPost2010PropOp48
 70
     1
102
RTVSPost2010Prop49
280
     0
102
RTVSPost2010PropOp49
 70
     1
102
RTVSPost2010Prop50
 90
       50
102
RTVSPost2010PropOp50
 70
     1
102
RTVSPost2010Prop51ColorIndex
 90
      256
102
RTVSPost2010Prop51ColorRGB
 90
-16777216
102
RTVSPost2010PropOp51
 70
     0
102
RTVSPost2010Prop52
140
1.0
102
RTVSPost2010PropOp52
 70
     0
102
RTVSPost2010Prop53
 90
        2
102
RTVSPost2010PropOp53
 70
     1
102
RTVSPost2010Prop54
  1
strokes_ogs.tif
102
RTVSPost2010PropOp54
 70
     1
102
RTVSPost2010Prop55
280
     0
102
RTVSPost2010PropOp55
 70
     1
102
RTVSPost2010Prop56
140
1.0
102
RTVSPost2010PropOp56
 70
     1
102
RTVSPost2010Prop57
140
1.0
102
RTVSPost2010PropOp57
 70
     1
  0
XRECORD
  5
4C7
102
{ACAD_REACTORS
330
4C6
102
}
330
4C6
100
AcDbXrecord
280
     1
102
RTVSPropertyOp0
 70
     1
102
RTVSPropertyOp1
 70
     1
102
RTVSPropertyOp2
 70
     1
102
RTVSPropertyOp3
 70
     1
102
RTVSPropertyOp4
 70
     1
102
RTVSPropertyOp5
 70
     1
102
RTVSPropertyOp6
 70
     1
102
RTVSPropertyOp7
 70
     1
102
RTVSPropertyOp8
 70
     1
102
RTVSPropertyOp9
 70
     1
102
RTVSPropertyOp10
 70
     1
102
RTVSPropertyOp11
 70
     1
102
RTVSPropertyOp12
 70
     1
102
RTVSPropertyOp13
 70
     1
102
RTVSPropertyOp14
 70
     1
102
RTVSPropertyOp15
 70
     1
102
RTVSPropertyOp16
 70
     1
102
RTVSPropertyOp17
 70
     1
102
RTVSPropertyOp18
 70
     1
102
RTVSPropertyOp19
 70
     1
102
RTVSPropertyOp20
 70
     1
102
RTVSPropertyOp21
 70
     1
102
RTVSPropertyOp22
 70
     1
102
RTVSPropertyOp23
 70
     1
102
RTVSPropertyOp24
 70
     1
102
RTVSPropertyOp25
 70
     1
102
RTVSPropertyOp26
 70
     1
102
RTVSPropertyOp27
 70
     1
102
RTVSPropertyOp28
 70
     1
102
RTVSPropertyOp29
 70
     1
102
RTVSPropertyOp30
 70
     1
102
RTVSPropertyOp31
 70
     1
102
RTVSPropertyOp32
 70
     1
102
RTVSPropertyOp33
 70
     1
102
RTVSPropertyOp34
 70
     1
102
RTVSPropertyOp35
 70
     1
102
RTVSPropertyOp36
 70
     1
102
RTVSPropertyOp37
 70
     1
102
RTVSPropertyOp38
 70
     1
102
RTVSPropertyOp39
 70
     1
102
RTVSPropertyOp40
 70
     1
102
RTVSPropertyOp41
 70
     1
102
RTVSPropertyOp42
 70
     1
102
RTVSPropertyOp43
 70
     1
102
RTVSPropertyOp44
 70
     1
102
RTVSPropertyOp45
 70
     1
102
RTVSPropertyOp46
 70
     1
102
RTVSPropertyOp47
 70
     1
102
RTVSPropertyOp48
 70
     1
102
RTVSPropertyOp49
 70
     1
102
RTVSPropertyOp50
 70
     1
102
RTVSPropertyOp51
 70
     0
102
RTVSPropertyOp52
 70
     0
102
RTVSPropertyOp53
 70
     1
102
RTVSPropertyOp54
 70
     1
102
RTVSPropertyOp55
 70
     1
102
RTVSPropertyOp56
 70
     1
102
RTVSPropertyOp57
 70
     1
102
RTVSPost2010Prop28
280
     0
102
RTVSPost2010PropOp28
 70
     1
102
RTVSPost2010Prop29
280
     1
102
RTVSPost2010PropOp29
 70
     1
102
RTVSPost2010Prop30
280
     1
102
RTVSPost2010PropOp30
 70
     1
102
RTVSPost2010Prop31
280
     0
102
RTVSPost2010PropOp31
 70
     1
102
RTVSPost2010Prop32
280
     0
102
RTVSPost2010PropOp32
 70
     1
102
RTVSPost2010Prop33
280
     0
102
RTVSPost2010PropOp33
 70
     1
102
RTVSPost2010Prop34
280
     0
102
RTVSPost2010PropOp34
 70
     1
102
RTVSPost2010Prop35
280
     0
102
RTVSPost2010PropOp35
 70
     1
102
RTVSPost2010Prop36
280
     0
102
RTVSPost2010PropOp36
 70
     1
102
RTVSPost2010Prop37
 90
       50
102
RTVSPost2010PropOp37
 70
     1
102
RTVSPost2010Prop38
140
0.0
102
RTVSPost2010PropOp38
 70
     1
102
RTVSPost2010Prop39
140
1.0
102
RTVSPost2010PropOp39
 70
     1
102
RTVSPost2010Prop40
 90
        0
102
RTVSPost2010PropOp40
 70
     1
102
RTVSPost2010Prop41ColorIndex
 90
       18
102
RTVSPost2010Prop41ColorRGB
 90
        0
102
RTVSPost2010PropOp41
 70
     1
102
RTVSPost2010Prop42
 90
       50
102
RTVSPost2010PropOp42
 70
     1
102
RTVSPost2010Prop43
 90
        3
102
RTVSPost2010PropOp43
 70
     1
102
RTVSPost2010Prop44ColorIndex
 90
        5
102
RTVSPost2010Prop44ColorRGB
 90
      255
102
RTVSPost2010PropOp44
 70
     1
102
RTVSPost2010Prop45
280
     0
102
RTVSPost2010PropOp45
 70
     1
102
RTVSPost2010Prop46
 90
       50
102
RTVSPost2010PropOp46
 70
     1
102
RTVSPost2010Prop47
 90
       50
102
RTVSPost2010PropOp47
 70
     1
102
RTVSPost2010Prop48
 90
       50
102
RTVSPost2010PropOp48
 70
     1
102
RTVSPost2010Prop49
280
     0
102
RTVSPost2010PropOp49
 70
     1
102
RTVSPost2010Prop50
 90
       50
102
RTVSPost2010PropOp50
 70
     1
102
RTVSPost2010Prop51ColorIndex
 90
      256
102
RTVSPost2010Prop51ColorRGB
 90
-16777216
102
RTVSPost2010PropOp51
 70
     0
102
RTVSPost2010Prop52
140
1.0
102
RTVSPost2010PropOp52
 70
     0
102
RTVSPost2010Prop53
 90
        2
102
RTVSPost2010PropOp53
 70
     1
102
RTVSPost2010Prop54
  1
strokes_ogs.tif
102
RTVSPost2010PropOp54
 70
     1
102
RTVSPost2010Prop55
280
     0
102
RTVSPost2010PropOp55
 70
     1
102
RTVSPost2010Prop56
140
1.0
102
RTVSPost2010PropOp56
 70
     1
102
RTVSPost2010Prop57
140
1.0
102
RTVSPost2010PropOp57
 70
     1
  0
XRECORD
  5
4C9
102
{ACAD_REACTORS
330
4C8
102
}
330
4C8
100
AcDbXrecord
280
     1
102
RTVSPropertyOp0
 70
     1
102
RTVSPropertyOp1
 70
     1
102
RTVSPropertyOp2
 70
     1
102
RTVSPropertyOp3
 70
     1
102
RTVSPropertyOp4
 70
     1
102
RTVSPropertyOp5
 70
     1
102
RTVSPropertyOp6
 70
     1
102
RTVSPropertyOp7
 70
     1
102
RTVSPropertyOp8
 70
     1
102
RTVSPropertyOp9
 70
     1
102
RTVSPropertyOp10
 70
     1
102
RTVSPropertyOp11
 70
     1
102
RTVSPropertyOp12
 70
     1
102
RTVSPropertyOp13
 70
     1
102
RTVSPropertyOp14
 70
     1
102
RTVSPropertyOp15
 70
     1
102
RTVSPropertyOp16
 70
     1
102
RTVSPropertyOp17
 70
     1
102
RTVSPropertyOp18
 70
     1
102
RTVSPropertyOp19
 70
     1
102
RTVSPropertyOp20
 70
     1
102
RTVSPropertyOp21
 70
     1
102
RTVSPropertyOp22
 70
     1
102
RTVSPropertyOp23
 70
     1
102
RTVSPropertyOp24
 70
     1
102
RTVSPropertyOp25
 70
     1
102
RTVSPropertyOp26
 70
     1
102
RTVSPropertyOp27
 70
     1
102
RTVSPropertyOp28
 70
     1
102
RTVSPropertyOp29
 70
     1
102
RTVSPropertyOp30
 70
     1
102
RTVSPropertyOp31
 70
     1
102
RTVSPropertyOp32
 70
     1
102
RTVSPropertyOp33
 70
     1
102
RTVSPropertyOp34
 70
     1
102
RTVSPropertyOp35
 70
     1
102
RTVSPropertyOp36
 70
     1
102
RTVSPropertyOp37
 70
     1
102
RTVSPropertyOp38
 70
     1
102
RTVSPropertyOp39
 70
     1
102
RTVSPropertyOp40
 70
     1
102
RTVSPropertyOp41
 70
     1
102
RTVSPropertyOp42
 70
     1
102
RTVSPropertyOp43
 70
     1
102
RTVSPropertyOp44
 70
     1
102
RTVSPropertyOp45
 70
     1
102
RTVSPropertyOp46
 70
     1
102
RTVSPropertyOp47
 70
     1
102
RTVSPropertyOp48
 70
     1
102
RTVSPropertyOp49
 70
     1
102
RTVSPropertyOp50
 70
     1
102
RTVSPropertyOp51
 70
     0
102
RTVSPropertyOp52
 70
     0
102
RTVSPropertyOp53
 70
     1
102
RTVSPropertyOp54
 70
     1
102
RTVSPropertyOp55
 70
     1
102
RTVSPropertyOp56
 70
     1
102
RTVSPropertyOp57
 70
     1
102
RTVSPost2010Prop28
280
     0
102
RTVSPost2010PropOp28
 70
     1
102
RTVSPost2010Prop29
280
     1
102
RTVSPost2010PropOp29
 70
     1
102
RTVSPost2010Prop30
280
     1
102
RTVSPost2010PropOp30
 70
     1
102
RTVSPost2010Prop31
280
     0
102
RTVSPost2010PropOp31
 70
     1
102
RTVSPost2010Prop32
280
     0
102
RTVSPost2010PropOp32
 70
     1
102
RTVSPost2010Prop33
280
     0
102
RTVSPost2010PropOp33
 70
     1
102
RTVSPost2010Prop34
280
     0
102
RTVSPost2010PropOp34
 70
     1
102
RTVSPost2010Prop35
280
     0
102
RTVSPost2010PropOp35
 70
     1
102
RTVSPost2010Prop36
280
     0
102
RTVSPost2010PropOp36
 70
     1
102
RTVSPost2010Prop37
 90
       50
102
RTVSPost2010PropOp37
 70
     1
102
RTVSPost2010Prop38
140
0.0
102
RTVSPost2010PropOp38
 70
     1
102
RTVSPost2010Prop39
140
1.0
102
RTVSPost2010PropOp39
 70
     1
102
RTVSPost2010Prop40
 90
        0
102
RTVSPost2010PropOp40
 70
     1
102
RTVSPost2010Prop41ColorIndex
 90
       18
102
RTVSPost2010Prop41ColorRGB
 90
        0
102
RTVSPost2010PropOp41
 70
     1
102
RTVSPost2010Prop42
 90
       50
102
RTVSPost2010PropOp42
 70
     1
102
RTVSPost2010Prop43
 90
        3
102
RTVSPost2010PropOp43
 70
     1
102
RTVSPost2010Prop44ColorIndex
 90
        5
102
RTVSPost2010Prop44ColorRGB
 90
      255
102
RTVSPost2010PropOp44
 70
     1
102
RTVSPost2010Prop45
280
     0
102
RTVSPost2010PropOp45
 70
     1
102
RTVSPost2010Prop46
 90
       50
102
RTVSPost2010PropOp46
 70
     1
102
RTVSPost2010Prop47
 90
       50
102
RTVSPost2010PropOp47
 70
     1
102
RTVSPost2010Prop48
 90
       50
102
RTVSPost2010PropOp48
 70
     1
102
RTVSPost2010Prop49
280
     0
102
RTVSPost2010PropOp49
 70
     1
102
RTVSPost2010Prop50
 90
       50
102
RTVSPost2010PropOp50
 70
     1
102
RTVSPost2010Prop51ColorIndex
 90
      256
102
RTVSPost2010Prop51ColorRGB
 90
-16777216
102
RTVSPost2010PropOp51
 70
     0
102
RTVSPost2010Prop52
140
1.0
102
RTVSPost2010PropOp52
 70
     0
102
RTVSPost2010Prop53
 90
        2
102
RTVSPost2010PropOp53
 70
     1
102
RTVSPost2010Prop54
  1
strokes_ogs.tif
102
RTVSPost2010PropOp54
 70
     1
102
RTVSPost2010Prop55
280
     0
102
RTVSPost2010PropOp55
 70
     1
102
RTVSPost2010Prop56
140
1.0
102
RTVSPost2010PropOp56
 70
     1
102
RTVSPost2010Prop57
140
1.0
102
RTVSPost2010PropOp57
 70
     1
  0
XRECORD
  5
4CB
102
{ACAD_REACTORS
330
4CA
102
}
330
4CA
100
AcDbXrecord
280
     1
102
RTVSPropertyOp0
 70
     1
102
RTVSPropertyOp1
 70
     1
102
RTVSPropertyOp2
 70
     1
102
RTVSPropertyOp3
 70
     1
102
RTVSPropertyOp4
 70
     1
102
RTVSPropertyOp5
 70
     1
102
RTVSPropertyOp6
 70
     1
102
RTVSPropertyOp7
 70
     1
102
RTVSPropertyOp8
 70
     1
102
RTVSPropertyOp9
 70
     1
102
RTVSPropertyOp10
 70
     1
102
RTVSPropertyOp11
 70
     1
102
RTVSPropertyOp12
 70
     1
102
RTVSPropertyOp13
 70
     1
102
RTVSPropertyOp14
 70
     1
102
RTVSPropertyOp15
 70
     1
102
RTVSPropertyOp16
 70
     1
102
RTVSPropertyOp17
 70
     1
102
RTVSPropertyOp18
 70
     1
102
RTVSPropertyOp19
 70
     1
102
RTVSPropertyOp20
 70
     1
102
RTVSPropertyOp21
 70
     1
102
RTVSPropertyOp22
 70
     1
102
RTVSPropertyOp23
 70
     1
102
RTVSPropertyOp24
 70
     1
102
RTVSPropertyOp25
 70
     1
102
RTVSPropertyOp26
 70
     1
102
RTVSPropertyOp27
 70
     1
102
RTVSPropertyOp28
 70
     1
102
RTVSPropertyOp29
 70
     1
102
RTVSPropertyOp30
 70
     1
102
RTVSPropertyOp31
 70
     1
102
RTVSPropertyOp32
 70
     1
102
RTVSPropertyOp33
 70
     1
102
RTVSPropertyOp34
 70
     1
102
RTVSPropertyOp35
 70
     1
102
RTVSPropertyOp36
 70
     1
102
RTVSPropertyOp37
 70
     1
102
RTVSPropertyOp38
 70
     1
102
RTVSPropertyOp39
 70
     1
102
RTVSPropertyOp40
 70
     1
102
RTVSPropertyOp41
 70
     1
102
RTVSPropertyOp42
 70
     1
102
RTVSPropertyOp43
 70
     1
102
RTVSPropertyOp44
 70
     1
102
RTVSPropertyOp45
 70
     1
102
RTVSPropertyOp46
 70
     1
102
RTVSPropertyOp47
 70
     1
102
RTVSPropertyOp48
 70
     1
102
RTVSPropertyOp49
 70
     1
102
RTVSPropertyOp50
 70
     1
102
RTVSPropertyOp51
 70
     0
102
RTVSPropertyOp52
 70
     0
102
RTVSPropertyOp53
 70
     1
102
RTVSPropertyOp54
 70
     1
102
RTVSPropertyOp55
 70
     1
102
RTVSPropertyOp56
 70
     1
102
RTVSPropertyOp57
 70
     1
102
RTVSPost2010Prop28
280
     0
102
RTVSPost2010PropOp28
 70
     1
102
RTVSPost2010Prop29
280
     1
102
RTVSPost2010PropOp29
 70
     1
102
RTVSPost2010Prop30
280
     1
102
RTVSPost2010PropOp30
 70
     1
102
RTVSPost2010Prop31
280
     0
102
RTVSPost2010PropOp31
 70
     1
102
RTVSPost2010Prop32
280
     0
102
RTVSPost2010PropOp32
 70
     1
102
RTVSPost2010Prop33
280
     0
102
RTVSPost2010PropOp33
 70
     1
102
RTVSPost2010Prop34
280
     0
102
RTVSPost2010PropOp34
 70
     1
102
RTVSPost2010Prop35
280
     0
102
RTVSPost2010PropOp35
 70
     1
102
RTVSPost2010Prop36
280
     0
102
RTVSPost2010PropOp36
 70
     1
102
RTVSPost2010Prop37
 90
       50
102
RTVSPost2010PropOp37
 70
     1
102
RTVSPost2010Prop38
140
0.0
102
RTVSPost2010PropOp38
 70
     1
102
RTVSPost2010Prop39
140
1.0
102
RTVSPost2010PropOp39
 70
     1
102
RTVSPost2010Prop40
 90
        0
102
RTVSPost2010PropOp40
 70
     1
102
RTVSPost2010Prop41ColorIndex
 90
       18
102
RTVSPost2010Prop41ColorRGB
 90
        0
102
RTVSPost2010PropOp41
 70
     1
102
RTVSPost2010Prop42
 90
       50
102
RTVSPost2010PropOp42
 70
     1
102
RTVSPost2010Prop43
 90
        3
102
RTVSPost2010PropOp43
 70
     1
102
RTVSPost2010Prop44ColorIndex
 90
        5
102
RTVSPost2010Prop44ColorRGB
 90
      255
102
RTVSPost2010PropOp44
 70
     1
102
RTVSPost2010Prop45
280
     0
102
RTVSPost2010PropOp45
 70
     1
102
RTVSPost2010Prop46
 90
       50
102
RTVSPost2010PropOp46
 70
     1
102
RTVSPost2010Prop47
 90
       50
102
RTVSPost2010PropOp47
 70
     1
102
RTVSPost2010Prop48
 90
       50
102
RTVSPost2010PropOp48
 70
     1
102
RTVSPost2010Prop49
280
     0
102
RTVSPost2010PropOp49
 70
     1
102
RTVSPost2010Prop50
 90
       50
102
RTVSPost2010PropOp50
 70
     1
102
RTVSPost2010Prop51ColorIndex
 90
      256
102
RTVSPost2010Prop51ColorRGB
 90
-16777216
102
RTVSPost2010PropOp51
 70
     0
102
RTVSPost2010Prop52
140
1.0
102
RTVSPost2010PropOp52
 70
     0
102
RTVSPost2010Prop53
 90
        2
102
RTVSPost2010PropOp53
 70
     1
102
RTVSPost2010Prop54
  1
strokes_ogs.tif
102
RTVSPost2010PropOp54
 70
     1
102
RTVSPost2010Prop55
280
     0
102
RTVSPost2010PropOp55
 70
     1
102
RTVSPost2010Prop56
140
1.0
102
RTVSPost2010PropOp56
 70
     1
102
RTVSPost2010Prop57
140
1.0
102
RTVSPost2010PropOp57
 70
     1
  0
XRECORD
  5
4D1
102
{ACAD_REACTORS
330
4D0
102
}
330
4D0
100
AcDbXrecord
280
     1
102
RTVSPropertyOp0
 70
     1
102
RTVSPropertyOp1
 70
     1
102
RTVSPropertyOp2
 70
     1
102
RTVSPropertyOp3
 70
     1
102
RTVSPropertyOp4
 70
     1
102
RTVSPropertyOp5
 70
     1
102
RTVSPropertyOp6
 70
     1
102
RTVSPropertyOp7
 70
     1
102
RTVSPropertyOp8
 70
     1
102
RTVSPropertyOp9
 70
     1
102
RTVSPropertyOp10
 70
     1
102
RTVSPropertyOp11
 70
     1
102
RTVSPropertyOp12
 70
     1
102
RTVSPropertyOp13
 70
     1
102
RTVSPropertyOp14
 70
     1
102
RTVSPropertyOp15
 70
     1
102
RTVSPropertyOp16
 70
     1
102
RTVSPropertyOp17
 70
     1
102
RTVSPropertyOp18
 70
     1
102
RTVSPropertyOp19
 70
     1
102
RTVSPropertyOp20
 70
     1
102
RTVSPropertyOp21
 70
     1
102
RTVSPropertyOp22
 70
     1
102
RTVSPropertyOp23
 70
     1
102
RTVSPropertyOp24
 70
     1
102
RTVSPropertyOp25
 70
     1
102
RTVSPropertyOp26
 70
     1
102
RTVSPropertyOp27
 70
     1
102
RTVSPropertyOp28
 70
     1
102
RTVSPropertyOp29
 70
     1
102
RTVSPropertyOp30
 70
     1
102
RTVSPropertyOp31
 70
     1
102
RTVSPropertyOp32
 70
     1
102
RTVSPropertyOp33
 70
     1
102
RTVSPropertyOp34
 70
     1
102
RTVSPropertyOp35
 70
     1
102
RTVSPropertyOp36
 70
     1
102
RTVSPropertyOp37
 70
     1
102
RTVSPropertyOp38
 70
     1
102
RTVSPropertyOp39
 70
     1
102
RTVSPropertyOp40
 70
     1
102
RTVSPropertyOp41
 70
     1
102
RTVSPropertyOp42
 70
     1
102
RTVSPropertyOp43
 70
     1
102
RTVSPropertyOp44
 70
     1
102
RTVSPropertyOp45
 70
     1
102
RTVSPropertyOp46
 70
     1
102
RTVSPropertyOp47
 70
     1
102
RTVSPropertyOp48
 70
     1
102
RTVSPropertyOp49
 70
     1
102
RTVSPropertyOp50
 70
     1
102
RTVSPropertyOp51
 70
     0
102
RTVSPropertyOp52
 70
     0
102
RTVSPropertyOp53
 70
     1
102
RTVSPropertyOp54
 70
     1
102
RTVSPropertyOp55
 70
     1
102
RTVSPropertyOp56
 70
     1
102
RTVSPropertyOp57
 70
     1
102
RTVSPost2010Prop28
280
     0
102
RTVSPost2010PropOp28
 70
     1
102
RTVSPost2010Prop29
280
     1
102
RTVSPost2010PropOp29
 70
     1
102
RTVSPost2010Prop30
280
     1
102
RTVSPost2010PropOp30
 70
     1
102
RTVSPost2010Prop31
280
     0
102
RTVSPost2010PropOp31
 70
     1
102
RTVSPost2010Prop32
280
     0
102
RTVSPost2010PropOp32
 70
     1
102
RTVSPost2010Prop33
280
     0
102
RTVSPost2010PropOp33
 70
     1
102
RTVSPost2010Prop34
280
     0
102
RTVSPost2010PropOp34
 70
     1
102
RTVSPost2010Prop35
280
     0
102
RTVSPost2010PropOp35
 70
     1
102
RTVSPost2010Prop36
280
     0
102
RTVSPost2010PropOp36
 70
     1
102
RTVSPost2010Prop37
 90
       50
102
RTVSPost2010PropOp37
 70
     1
102
RTVSPost2010Prop38
140
0.0
102
RTVSPost2010PropOp38
 70
     1
102
RTVSPost2010Prop39
140
1.0
102
RTVSPost2010PropOp39
 70
     1
102
RTVSPost2010Prop40
 90
        0
102
RTVSPost2010PropOp40
 70
     1
102
RTVSPost2010Prop41ColorIndex
 90
       18
102
RTVSPost2010Prop41ColorRGB
 90
        0
102
RTVSPost2010PropOp41
 70
     1
102
RTVSPost2010Prop42
 90
       50
102
RTVSPost2010PropOp42
 70
     1
102
RTVSPost2010Prop43
 90
        3
102
RTVSPost2010PropOp43
 70
     1
102
RTVSPost2010Prop44ColorIndex
 90
        5
102
RTVSPost2010Prop44ColorRGB
 90
      255
102
RTVSPost2010PropOp44
 70
     1
102
RTVSPost2010Prop45
280
     0
102
RTVSPost2010PropOp45
 70
     1
102
RTVSPost2010Prop46
 90
       50
102
RTVSPost2010PropOp46
 70
     1
102
RTVSPost2010Prop47
 90
       50
102
RTVSPost2010PropOp47
 70
     1
102
RTVSPost2010Prop48
 90
       50
102
RTVSPost2010PropOp48
 70
     1
102
RTVSPost2010Prop49
280
     0
102
RTVSPost2010PropOp49
 70
     1
102
RTVSPost2010Prop50
 90
       50
102
RTVSPost2010PropOp50
 70
     1
102
RTVSPost2010Prop51ColorIndex
 90
      256
102
RTVSPost2010Prop51ColorRGB
 90
-16777216
102
RTVSPost2010PropOp51
 70
     0
102
RTVSPost2010Prop52
140
1.0
102
RTVSPost2010PropOp52
 70
     0
102
RTVSPost2010Prop53
 90
        2
102
RTVSPost2010PropOp53
 70
     1
102
RTVSPost2010Prop54
  1
strokes_ogs.tif
102
RTVSPost2010PropOp54
 70
     1
102
RTVSPost2010Prop55
280
     0
102
RTVSPost2010PropOp55
 70
     1
102
RTVSPost2010Prop56
140
1.0
102
RTVSPost2010PropOp56
 70
     1
102
RTVSPost2010Prop57
140
1.0
102
RTVSPost2010PropOp57
 70
     1
  0
XRECORD
  5
4E5
102
{ACAD_REACTORS
330
4E4
102
}
330
4E4
100
AcDbXrecord
280
     1
102
RTVSPropertyOp0
 70
     0
102
RTVSPropertyOp1
 70
     0
102
RTVSPropertyOp2
 70
     0
102
RTVSPropertyOp3
 70
     0
102
RTVSPropertyOp4
 70
     0
102
RTVSPropertyOp5
 70
     0
102
RTVSPropertyOp6
 70
     0
102
RTVSPropertyOp7
 70
     0
102
RTVSPropertyOp8
 70
     0
102
RTVSPropertyOp9
 70
     0
102
RTVSPropertyOp10
 70
     0
102
RTVSPropertyOp11
 70
     0
102
RTVSPropertyOp12
 70
     0
102
RTVSPropertyOp13
 70
     0
102
RTVSPropertyOp14
 70
     2
102
RTVSPropertyOp15
 70
     0
102
RTVSPropertyOp16
 70
     0
102
RTVSPropertyOp17
 70
     0
102
RTVSPropertyOp18
 70
     0
102
RTVSPropertyOp19
 70
     0
102
RTVSPropertyOp20
 70
     0
102
RTVSPropertyOp21
 70
     0
102
RTVSPropertyOp22
 70
     0
102
RTVSPropertyOp23
 70
     0
102
RTVSPropertyOp24
 70
     0
102
RTVSPropertyOp25
 70
     0
102
RTVSPropertyOp26
 70
     0
102
RTVSPropertyOp27
 70
     0
102
RTVSPropertyOp28
 70
     0
102
RTVSPropertyOp29
 70
     0
102
RTVSPropertyOp30
 70
     0
102
RTVSPropertyOp31
 70
     0
102
RTVSPropertyOp32
 70
     0
102
RTVSPropertyOp33
 70
     0
102
RTVSPropertyOp34
 70
     0
102
RTVSPropertyOp35
 70
     0
102
RTVSPropertyOp36
 70
     0
102
RTVSPropertyOp37
 70
     0
102
RTVSPropertyOp38
 70
     0
102
RTVSPropertyOp39
 70
     0
102
RTVSPropertyOp40
 70
     0
102
RTVSPropertyOp41
 70
     0
102
RTVSPropertyOp42
 70
     0
102
RTVSPropertyOp43
 70
     0
102
RTVSPropertyOp44
 70
     0
102
RTVSPropertyOp45
 70
     0
102
RTVSPropertyOp46
 70
     0
102
RTVSPropertyOp47
 70
     0
102
RTVSPropertyOp48
 70
     0
102
RTVSPropertyOp49
 70
     0
102
RTVSPropertyOp50
 70
     0
102
RTVSPropertyOp51
 70
     0
102
RTVSPropertyOp52
 70
     0
102
RTVSPropertyOp53
 70
     0
102
RTVSPropertyOp54
 70
     0
102
RTVSPropertyOp55
 70
     0
102
RTVSPropertyOp56
 70
     0
102
RTVSPropertyOp57
 70
     0
102
RTVSPost2010Prop28
280
     0
102
RTVSPost2010PropOp28
 70
     0
102
RTVSPost2010Prop29
280
     1
102
RTVSPost2010PropOp29
 70
     0
102
RTVSPost2010Prop30
280
     1
102
RTVSPost2010PropOp30
 70
     0
102
RTVSPost2010Prop31
280
     0
102
RTVSPost2010PropOp31
 70
     0
102
RTVSPost2010Prop32
280
     0
102
RTVSPost2010PropOp32
 70
     0
102
RTVSPost2010Prop33
280
     0
102
RTVSPost2010PropOp33
 70
     0
102
RTVSPost2010Prop34
280
     0
102
RTVSPost2010PropOp34
 70
     0
102
RTVSPost2010Prop35
280
     0
102
RTVSPost2010PropOp35
 70
     0
102
RTVSPost2010Prop36
280
     0
102
RTVSPost2010PropOp36
 70
     0
102
RTVSPost2010Prop37
 90
       50
102
RTVSPost2010PropOp37
 70
     0
102
RTVSPost2010Prop38
140
0.0
102
RTVSPost2010PropOp38
 70
     0
102
RTVSPost2010Prop39
140
1.0
102
RTVSPost2010PropOp39
 70
     0
102
RTVSPost2010Prop40
 90
        0
102
RTVSPost2010PropOp40
 70
     0
102
RTVSPost2010Prop41ColorIndex
 90
       18
102
RTVSPost2010Prop41ColorRGB
 90
        0
102
RTVSPost2010PropOp41
 70
     0
102
RTVSPost2010Prop42
 90
       50
102
RTVSPost2010PropOp42
 70
     0
102
RTVSPost2010Prop43
 90
        3
102
RTVSPost2010PropOp43
 70
     0
102
RTVSPost2010Prop44ColorIndex
 90
        5
102
RTVSPost2010Prop44ColorRGB
 90
      255
102
RTVSPost2010PropOp44
 70
     0
102
RTVSPost2010Prop45
280
     0
102
RTVSPost2010PropOp45
 70
     0
102
RTVSPost2010Prop46
 90
       50
102
RTVSPost2010PropOp46
 70
     0
102
RTVSPost2010Prop47
 90
       50
102
RTVSPost2010PropOp47
 70
     0
102
RTVSPost2010Prop48
 90
       50
102
RTVSPost2010PropOp48
 70
     0
102
RTVSPost2010Prop49
280
     0
102
RTVSPost2010PropOp49
 70
     0
102
RTVSPost2010Prop50
 90
       50
102
RTVSPost2010PropOp50
 70
     0
102
RTVSPost2010Prop51ColorIndex
 90
      256
102
RTVSPost2010Prop51ColorRGB
 90
-16777216
102
RTVSPost2010PropOp51
 70
     0
102
RTVSPost2010Prop52
140
1.0
102
RTVSPost2010PropOp52
 70
     0
102
RTVSPost2010Prop53
 90
        2
102
RTVSPost2010PropOp53
 70
     0
102
RTVSPost2010Prop54
  1
strokes_ogs.tif
102
RTVSPost2010PropOp54
 70
     0
102
RTVSPost2010Prop55
280
     0
102
RTVSPost2010PropOp55
 70
     0
102
RTVSPost2010Prop56
140
1.0
102
RTVSPost2010PropOp56
 70
     0
102
RTVSPost2010Prop57
140
1.0
102
RTVSPost2010PropOp57
 70
     0
  0
XRECORD
  5
4DF
102
{ACAD_REACTORS
330
4DE
102
}
330
4DE
100
AcDbXrecord
280
     1
102
RTVSPropertyOp0
 70
     1
102
RTVSPropertyOp1
 70
     1
102
RTVSPropertyOp2
 70
     1
102
RTVSPropertyOp3
 70
     1
102
RTVSPropertyOp4
 70
     1
102
RTVSPropertyOp5
 70
     1
102
RTVSPropertyOp6
 70
     1
102
RTVSPropertyOp7
 70
     1
102
RTVSPropertyOp8
 70
     1
102
RTVSPropertyOp9
 70
     1
102
RTVSPropertyOp10
 70
     1
102
RTVSPropertyOp11
 70
     1
102
RTVSPropertyOp12
 70
     1
102
RTVSPropertyOp13
 70
     1
102
RTVSPropertyOp14
 70
     1
102
RTVSPropertyOp15
 70
     1
102
RTVSPropertyOp16
 70
     1
102
RTVSPropertyOp17
 70
     1
102
RTVSPropertyOp18
 70
     1
102
RTVSPropertyOp19
 70
     1
102
RTVSPropertyOp20
 70
     1
102
RTVSPropertyOp21
 70
     1
102
RTVSPropertyOp22
 70
     1
102
RTVSPropertyOp23
 70
     1
102
RTVSPropertyOp24
 70
     1
102
RTVSPropertyOp25
 70
     1
102
RTVSPropertyOp26
 70
     1
102
RTVSPropertyOp27
 70
     1
102
RTVSPropertyOp28
 70
     1
102
RTVSPropertyOp29
 70
     1
102
RTVSPropertyOp30
 70
     1
102
RTVSPropertyOp31
 70
     1
102
RTVSPropertyOp32
 70
     1
102
RTVSPropertyOp33
 70
     1
102
RTVSPropertyOp34
 70
     1
102
RTVSPropertyOp35
 70
     1
102
RTVSPropertyOp36
 70
     1
102
RTVSPropertyOp37
 70
     1
102
RTVSPropertyOp38
 70
     1
102
RTVSPropertyOp39
 70
     1
102
RTVSPropertyOp40
 70
     1
102
RTVSPropertyOp41
 70
     1
102
RTVSPropertyOp42
 70
     1
102
RTVSPropertyOp43
 70
     1
102
RTVSPropertyOp44
 70
     1
102
RTVSPropertyOp45
 70
     1
102
RTVSPropertyOp46
 70
     1
102
RTVSPropertyOp47
 70
     1
102
RTVSPropertyOp48
 70
     1
102
RTVSPropertyOp49
 70
     1
102
RTVSPropertyOp50
 70
     1
102
RTVSPropertyOp51
 70
     0
102
RTVSPropertyOp52
 70
     0
102
RTVSPropertyOp53
 70
     1
102
RTVSPropertyOp54
 70
     1
102
RTVSPropertyOp55
 70
     1
102
RTVSPropertyOp56
 70
     1
102
RTVSPropertyOp57
 70
     1
102
RTVSPost2010Prop28
280
     0
102
RTVSPost2010PropOp28
 70
     1
102
RTVSPost2010Prop29
280
     1
102
RTVSPost2010PropOp29
 70
     1
102
RTVSPost2010Prop30
280
     1
102
RTVSPost2010PropOp30
 70
     1
102
RTVSPost2010Prop31
280
     0
102
RTVSPost2010PropOp31
 70
     1
102
RTVSPost2010Prop32
280
     0
102
RTVSPost2010PropOp32
 70
     1
102
RTVSPost2010Prop33
280
     0
102
RTVSPost2010PropOp33
 70
     1
102
RTVSPost2010Prop34
280
     0
102
RTVSPost2010PropOp34
 70
     1
102
RTVSPost2010Prop35
280
     0
102
RTVSPost2010PropOp35
 70
     1
102
RTVSPost2010Prop36
280
     0
102
RTVSPost2010PropOp36
 70
     1
102
RTVSPost2010Prop37
 90
       50
102
RTVSPost2010PropOp37
 70
     1
102
RTVSPost2010Prop38
140
0.0
102
RTVSPost2010PropOp38
 70
     1
102
RTVSPost2010Prop39
140
1.0
102
RTVSPost2010PropOp39
 70
     1
102
RTVSPost2010Prop40
 90
        0
102
RTVSPost2010PropOp40
 70
     1
102
RTVSPost2010Prop41ColorIndex
 90
       18
102
RTVSPost2010Prop41ColorRGB
 90
        0
102
RTVSPost2010PropOp41
 70
     1
102
RTVSPost2010Prop42
 90
       50
102
RTVSPost2010PropOp42
 70
     1
102
RTVSPost2010Prop43
 90
        3
102
RTVSPost2010PropOp43
 70
     1
102
RTVSPost2010Prop44ColorIndex
 90
        5
102
RTVSPost2010Prop44ColorRGB
 90
      255
102
RTVSPost2010PropOp44
 70
     1
102
RTVSPost2010Prop45
280
     0
102
RTVSPost2010PropOp45
 70
     1
102
RTVSPost2010Prop46
 90
       50
102
RTVSPost2010PropOp46
 70
     1
102
RTVSPost2010Prop47
 90
       50
102
RTVSPost2010PropOp47
 70
     1
102
RTVSPost2010Prop48
 90
       50
102
RTVSPost2010PropOp48
 70
     1
102
RTVSPost2010Prop49
280
     0
102
RTVSPost2010PropOp49
 70
     1
102
RTVSPost2010Prop50
 90
       50
102
RTVSPost2010PropOp50
 70
     1
102
RTVSPost2010Prop51ColorIndex
 90
      256
102
RTVSPost2010Prop51ColorRGB
 90
-16777216
102
RTVSPost2010PropOp51
 70
     0
102
RTVSPost2010Prop52
140
1.0
102
RTVSPost2010PropOp52
 70
     0
102
RTVSPost2010Prop53
 90
        2
102
RTVSPost2010PropOp53
 70
     1
102
RTVSPost2010Prop54
  1
strokes_ogs.tif
102
RTVSPost2010PropOp54
 70
     1
102
RTVSPost2010Prop55
280
     0
102
RTVSPost2010PropOp55
 70
     1
102
RTVSPost2010Prop56
140
1.0
102
RTVSPost2010PropOp56
 70
     1
102
RTVSPost2010Prop57
140
1.0
102
RTVSPost2010PropOp57
 70
     1
  0
XRECORD
  5
4E7
102
{ACAD_REACTORS
330
4E6
102
}
330
4E6
100
AcDbXrecord
280
     1
102
RTVSPropertyOp0
 70
     0
102
RTVSPropertyOp1
 70
     0
102
RTVSPropertyOp2
 70
     0
102
RTVSPropertyOp3
 70
     0
102
RTVSPropertyOp4
 70
     0
102
RTVSPropertyOp5
 70
     0
102
RTVSPropertyOp6
 70
     0
102
RTVSPropertyOp7
 70
     0
102
RTVSPropertyOp8
 70
     0
102
RTVSPropertyOp9
 70
     0
102
RTVSPropertyOp10
 70
     0
102
RTVSPropertyOp11
 70
     0
102
RTVSPropertyOp12
 70
     0
102
RTVSPropertyOp13
 70
     0
102
RTVSPropertyOp14
 70
     2
102
RTVSPropertyOp15
 70
     0
102
RTVSPropertyOp16
 70
     0
102
RTVSPropertyOp17
 70
     0
102
RTVSPropertyOp18
 70
     0
102
RTVSPropertyOp19
 70
     0
102
RTVSPropertyOp20
 70
     0
102
RTVSPropertyOp21
 70
     0
102
RTVSPropertyOp22
 70
     0
102
RTVSPropertyOp23
 70
     0
102
RTVSPropertyOp24
 70
     0
102
RTVSPropertyOp25
 70
     0
102
RTVSPropertyOp26
 70
     0
102
RTVSPropertyOp27
 70
     0
102
RTVSPropertyOp28
 70
     0
102
RTVSPropertyOp29
 70
     0
102
RTVSPropertyOp30
 70
     0
102
RTVSPropertyOp31
 70
     0
102
RTVSPropertyOp32
 70
     0
102
RTVSPropertyOp33
 70
     0
102
RTVSPropertyOp34
 70
     0
102
RTVSPropertyOp35
 70
     0
102
RTVSPropertyOp36
 70
     0
102
RTVSPropertyOp37
 70
     0
102
RTVSPropertyOp38
 70
     0
102
RTVSPropertyOp39
 70
     0
102
RTVSPropertyOp40
 70
     0
102
RTVSPropertyOp41
 70
     0
102
RTVSPropertyOp42
 70
     0
102
RTVSPropertyOp43
 70
     0
102
RTVSPropertyOp44
 70
     0
102
RTVSPropertyOp45
 70
     0
102
RTVSPropertyOp46
 70
     0
102
RTVSPropertyOp47
 70
     0
102
RTVSPropertyOp48
 70
     0
102
RTVSPropertyOp49
 70
     0
102
RTVSPropertyOp50
 70
     0
102
RTVSPropertyOp51
 70
     0
102
RTVSPropertyOp52
 70
     0
102
RTVSPropertyOp53
 70
     0
102
RTVSPropertyOp54
 70
     0
102
RTVSPropertyOp55
 70
     0
102
RTVSPropertyOp56
 70
     0
102
RTVSPropertyOp57
 70
     0
102
RTVSPost2010Prop28
280
     0
102
RTVSPost2010PropOp28
 70
     0
102
RTVSPost2010Prop29
280
     1
102
RTVSPost2010PropOp29
 70
     0
102
RTVSPost2010Prop30
280
     1
102
RTVSPost2010PropOp30
 70
     0
102
RTVSPost2010Prop31
280
     0
102
RTVSPost2010PropOp31
 70
     0
102
RTVSPost2010Prop32
280
     0
102
RTVSPost2010PropOp32
 70
     0
102
RTVSPost2010Prop33
280
     0
102
RTVSPost2010PropOp33
 70
     0
102
RTVSPost2010Prop34
280
     0
102
RTVSPost2010PropOp34
 70
     0
102
RTVSPost2010Prop35
280
     0
102
RTVSPost2010PropOp35
 70
     0
102
RTVSPost2010Prop36
280
     0
102
RTVSPost2010PropOp36
 70
     0
102
RTVSPost2010Prop37
 90
       50
102
RTVSPost2010PropOp37
 70
     0
102
RTVSPost2010Prop38
140
0.0
102
RTVSPost2010PropOp38
 70
     0
102
RTVSPost2010Prop39
140
1.0
102
RTVSPost2010PropOp39
 70
     0
102
RTVSPost2010Prop40
 90
        0
102
RTVSPost2010PropOp40
 70
     0
102
RTVSPost2010Prop41ColorIndex
 90
       18
102
RTVSPost2010Prop41ColorRGB
 90
        0
102
RTVSPost2010PropOp41
 70
     0
102
RTVSPost2010Prop42
 90
       50
102
RTVSPost2010PropOp42
 70
     0
102
RTVSPost2010Prop43
 90
        3
102
RTVSPost2010PropOp43
 70
     0
102
RTVSPost2010Prop44ColorIndex
 90
        5
102
RTVSPost2010Prop44ColorRGB
 90
      255
102
RTVSPost2010PropOp44
 70
     0
102
RTVSPost2010Prop45
280
     0
102
RTVSPost2010PropOp45
 70
     0
102
RTVSPost2010Prop46
 90
       50
102
RTVSPost2010PropOp46
 70
     0
102
RTVSPost2010Prop47
 90
       50
102
RTVSPost2010PropOp47
 70
     0
102
RTVSPost2010Prop48
 90
       50
102
RTVSPost2010PropOp48
 70
     0
102
RTVSPost2010Prop49
280
     0
102
RTVSPost2010PropOp49
 70
     0
102
RTVSPost2010Prop50
 90
       50
102
RTVSPost2010PropOp50
 70
     0
102
RTVSPost2010Prop51ColorIndex
 90
      256
102
RTVSPost2010Prop51ColorRGB
 90
-16777216
102
RTVSPost2010PropOp51
 70
     0
102
RTVSPost2010Prop52
140
1.0
102
RTVSPost2010PropOp52
 70
     0
102
RTVSPost2010Prop53
 90
        2
102
RTVSPost2010PropOp53
 70
     0
102
RTVSPost2010Prop54
  1
strokes_ogs.tif
102
RTVSPost2010PropOp54
 70
     0
102
RTVSPost2010Prop55
280
     0
102
RTVSPost2010PropOp55
 70
     0
102
RTVSPost2010Prop56
140
1.0
102
RTVSPost2010PropOp56
 70
     0
102
RTVSPost2010Prop57
140
1.0
102
RTVSPost2010PropOp57
 70
     0
  0
XRECORD
  5
4D5
102
{ACAD_REACTORS
330
4D4
102
}
330
4D4
100
AcDbXrecord
280
     1
102
RTVSPropertyOp0
 70
     1
102
RTVSPropertyOp1
 70
     1
102
RTVSPropertyOp2
 70
     1
102
RTVSPropertyOp3
 70
     1
102
RTVSPropertyOp4
 70
     1
102
RTVSPropertyOp5
 70
     1
102
RTVSPropertyOp6
 70
     1
102
RTVSPropertyOp7
 70
     1
102
RTVSPropertyOp8
 70
     1
102
RTVSPropertyOp9
 70
     1
102
RTVSPropertyOp10
 70
     1
102
RTVSPropertyOp11
 70
     1
102
RTVSPropertyOp12
 70
     1
102
RTVSPropertyOp13
 70
     1
102
RTVSPropertyOp14
 70
     1
102
RTVSPropertyOp15
 70
     1
102
RTVSPropertyOp16
 70
     1
102
RTVSPropertyOp17
 70
     1
102
RTVSPropertyOp18
 70
     1
102
RTVSPropertyOp19
 70
     1
102
RTVSPropertyOp20
 70
     1
102
RTVSPropertyOp21
 70
     1
102
RTVSPropertyOp22
 70
     1
102
RTVSPropertyOp23
 70
     1
102
RTVSPropertyOp24
 70
     1
102
RTVSPropertyOp25
 70
     1
102
RTVSPropertyOp26
 70
     1
102
RTVSPropertyOp27
 70
     1
102
RTVSPropertyOp28
 70
     1
102
RTVSPropertyOp29
 70
     1
102
RTVSPropertyOp30
 70
     1
102
RTVSPropertyOp31
 70
     1
102
RTVSPropertyOp32
 70
     1
102
RTVSPropertyOp33
 70
     1
102
RTVSPropertyOp34
 70
     1
102
RTVSPropertyOp35
 70
     1
102
RTVSPropertyOp36
 70
     1
102
RTVSPropertyOp37
 70
     1
102
RTVSPropertyOp38
 70
     1
102
RTVSPropertyOp39
 70
     1
102
RTVSPropertyOp40
 70
     1
102
RTVSPropertyOp41
 70
     1
102
RTVSPropertyOp42
 70
     1
102
RTVSPropertyOp43
 70
     1
102
RTVSPropertyOp44
 70
     1
102
RTVSPropertyOp45
 70
     1
102
RTVSPropertyOp46
 70
     1
102
RTVSPropertyOp47
 70
     1
102
RTVSPropertyOp48
 70
     1
102
RTVSPropertyOp49
 70
     1
102
RTVSPropertyOp50
 70
     1
102
RTVSPropertyOp51
 70
     0
102
RTVSPropertyOp52
 70
     0
102
RTVSPropertyOp53
 70
     1
102
RTVSPropertyOp54
 70
     1
102
RTVSPropertyOp55
 70
     1
102
RTVSPropertyOp56
 70
     1
102
RTVSPropertyOp57
 70
     1
102
RTVSPost2010Prop28
280
     0
102
RTVSPost2010PropOp28
 70
     1
102
RTVSPost2010Prop29
280
     1
102
RTVSPost2010PropOp29
 70
     1
102
RTVSPost2010Prop30
280
     1
102
RTVSPost2010PropOp30
 70
     1
102
RTVSPost2010Prop31
280
     0
102
RTVSPost2010PropOp31
 70
     1
102
RTVSPost2010Prop32
280
     0
102
RTVSPost2010PropOp32
 70
     1
102
RTVSPost2010Prop33
280
     0
102
RTVSPost2010PropOp33
 70
     1
102
RTVSPost2010Prop34
280
     0
102
RTVSPost2010PropOp34
 70
     1
102
RTVSPost2010Prop35
280
     0
102
RTVSPost2010PropOp35
 70
     1
102
RTVSPost2010Prop36
280
     0
102
RTVSPost2010PropOp36
 70
     1
102
RTVSPost2010Prop37
 90
       50
102
RTVSPost2010PropOp37
 70
     1
102
RTVSPost2010Prop38
140
0.0
102
RTVSPost2010PropOp38
 70
     1
102
RTVSPost2010Prop39
140
1.0
102
RTVSPost2010PropOp39
 70
     1
102
RTVSPost2010Prop40
 90
        0
102
RTVSPost2010PropOp40
 70
     1
102
RTVSPost2010Prop41ColorIndex
 90
       18
102
RTVSPost2010Prop41ColorRGB
 90
        0
102
RTVSPost2010PropOp41
 70
     1
102
RTVSPost2010Prop42
 90
       50
102
RTVSPost2010PropOp42
 70
     1
102
RTVSPost2010Prop43
 90
        3
102
RTVSPost2010PropOp43
 70
     1
102
RTVSPost2010Prop44ColorIndex
 90
        5
102
RTVSPost2010Prop44ColorRGB
 90
      255
102
RTVSPost2010PropOp44
 70
     1
102
RTVSPost2010Prop45
280
     0
102
RTVSPost2010PropOp45
 70
     1
102
RTVSPost2010Prop46
 90
       50
102
RTVSPost2010PropOp46
 70
     1
102
RTVSPost2010Prop47
 90
       50
102
RTVSPost2010PropOp47
 70
     1
102
RTVSPost2010Prop48
 90
       50
102
RTVSPost2010PropOp48
 70
     1
102
RTVSPost2010Prop49
280
     0
102
RTVSPost2010PropOp49
 70
     1
102
RTVSPost2010Prop50
 90
       50
102
RTVSPost2010PropOp50
 70
     1
102
RTVSPost2010Prop51ColorIndex
 90
      256
102
RTVSPost2010Prop51ColorRGB
 90
-16777216
102
RTVSPost2010PropOp51
 70
     0
102
RTVSPost2010Prop52
140
1.0
102
RTVSPost2010PropOp52
 70
     0
102
RTVSPost2010Prop53
 90
        2
102
RTVSPost2010PropOp53
 70
     1
102
RTVSPost2010Prop54
  1
strokes_ogs.tif
102
RTVSPost2010PropOp54
 70
     1
102
RTVSPost2010Prop55
280
     0
102
RTVSPost2010PropOp55
 70
     1
102
RTVSPost2010Prop56
140
1.0
102
RTVSPost2010PropOp56
 70
     1
102
RTVSPost2010Prop57
140
1.0
102
RTVSPost2010PropOp57
 70
     1
  0
XRECORD
  5
4F3
102
{ACAD_REACTORS
330
4F2
102
}
330
4F2
100
AcDbXrecord
280
     1
102
RTVSPropertyOp0
 70
     1
102
RTVSPropertyOp1
 70
     1
102
RTVSPropertyOp2
 70
     1
102
RTVSPropertyOp3
 70
     1
102
RTVSPropertyOp4
 70
     1
102
RTVSPropertyOp5
 70
     1
102
RTVSPropertyOp6
 70
     1
102
RTVSPropertyOp7
 70
     1
102
RTVSPropertyOp8
 70
     1
102
RTVSPropertyOp9
 70
     1
102
RTVSPropertyOp10
 70
     1
102
RTVSPropertyOp11
 70
     1
102
RTVSPropertyOp12
 70
     1
102
RTVSPropertyOp13
 70
     1
102
RTVSPropertyOp14
 70
     1
102
RTVSPropertyOp15
 70
     1
102
RTVSPropertyOp16
 70
     1
102
RTVSPropertyOp17
 70
     1
102
RTVSPropertyOp18
 70
     1
102
RTVSPropertyOp19
 70
     1
102
RTVSPropertyOp20
 70
     1
102
RTVSPropertyOp21
 70
     1
102
RTVSPropertyOp22
 70
     1
102
RTVSPropertyOp23
 70
     1
102
RTVSPropertyOp24
 70
     1
102
RTVSPropertyOp25
 70
     1
102
RTVSPropertyOp26
 70
     1
102
RTVSPropertyOp27
 70
     1
102
RTVSPropertyOp28
 70
     1
102
RTVSPropertyOp29
 70
     1
102
RTVSPropertyOp30
 70
     1
102
RTVSPropertyOp31
 70
     1
102
RTVSPropertyOp32
 70
     1
102
RTVSPropertyOp33
 70
     1
102
RTVSPropertyOp34
 70
     1
102
RTVSPropertyOp35
 70
     1
102
RTVSPropertyOp36
 70
     1
102
RTVSPropertyOp37
 70
     1
102
RTVSPropertyOp38
 70
     1
102
RTVSPropertyOp39
 70
     1
102
RTVSPropertyOp40
 70
     1
102
RTVSPropertyOp41
 70
     1
102
RTVSPropertyOp42
 70
     1
102
RTVSPropertyOp43
 70
     1
102
RTVSPropertyOp44
 70
     1
102
RTVSPropertyOp45
 70
     1
102
RTVSPropertyOp46
 70
     1
102
RTVSPropertyOp47
 70
     1
102
RTVSPropertyOp48
 70
     1
102
RTVSPropertyOp49
 70
     1
102
RTVSPropertyOp50
 70
     1
102
RTVSPropertyOp51
 70
     0
102
RTVSPropertyOp52
 70
     0
102
RTVSPropertyOp53
 70
     1
102
RTVSPropertyOp54
 70
     1
102
RTVSPropertyOp55
 70
     1
102
RTVSPropertyOp56
 70
     1
102
RTVSPropertyOp57
 70
     1
102
RTVSPost2010Prop28
280
     0
102
RTVSPost2010PropOp28
 70
     1
102
RTVSPost2010Prop29
280
     1
102
RTVSPost2010PropOp29
 70
     1
102
RTVSPost2010Prop30
280
     1
102
RTVSPost2010PropOp30
 70
     1
102
RTVSPost2010Prop31
280
     0
102
RTVSPost2010PropOp31
 70
     1
102
RTVSPost2010Prop32
280
     0
102
RTVSPost2010PropOp32
 70
     1
102
RTVSPost2010Prop33
280
     0
102
RTVSPost2010PropOp33
 70
     1
102
RTVSPost2010Prop34
280
     0
102
RTVSPost2010PropOp34
 70
     1
102
RTVSPost2010Prop35
280
     0
102
RTVSPost2010PropOp35
 70
     1
102
RTVSPost2010Prop36
280
     0
102
RTVSPost2010PropOp36
 70
     1
102
RTVSPost2010Prop37
 90
       50
102
RTVSPost2010PropOp37
 70
     1
102
RTVSPost2010Prop38
140
0.0
102
RTVSPost2010PropOp38
 70
     1
102
RTVSPost2010Prop39
140
1.0
102
RTVSPost2010PropOp39
 70
     1
102
RTVSPost2010Prop40
 90
        0
102
RTVSPost2010PropOp40
 70
     1
102
RTVSPost2010Prop41ColorIndex
 90
       18
102
RTVSPost2010Prop41ColorRGB
 90
        0
102
RTVSPost2010PropOp41
 70
     1
102
RTVSPost2010Prop42
 90
       50
102
RTVSPost2010PropOp42
 70
     1
102
RTVSPost2010Prop43
 90
        3
102
RTVSPost2010PropOp43
 70
     1
102
RTVSPost2010Prop44ColorIndex
 90
        5
102
RTVSPost2010Prop44ColorRGB
 90
      255
102
RTVSPost2010PropOp44
 70
     1
102
RTVSPost2010Prop45
280
     0
102
RTVSPost2010PropOp45
 70
     1
102
RTVSPost2010Prop46
 90
       50
102
RTVSPost2010PropOp46
 70
     1
102
RTVSPost2010Prop47
 90
       50
102
RTVSPost2010PropOp47
 70
     1
102
RTVSPost2010Prop48
 90
       50
102
RTVSPost2010PropOp48
 70
     1
102
RTVSPost2010Prop49
280
     0
102
RTVSPost2010PropOp49
 70
     1
102
RTVSPost2010Prop50
 90
       50
102
RTVSPost2010PropOp50
 70
     1
102
RTVSPost2010Prop51ColorIndex
 90
      256
102
RTVSPost2010Prop51ColorRGB
 90
-16777216
102
RTVSPost2010PropOp51
 70
     0
102
RTVSPost2010Prop52
140
1.0
102
RTVSPost2010PropOp52
 70
     0
102
RTVSPost2010Prop53
 90
        2
102
RTVSPost2010PropOp53
 70
     1
102
RTVSPost2010Prop54
  1
strokes_ogs.tif
102
RTVSPost2010PropOp54
 70
     1
102
RTVSPost2010Prop55
280
     0
102
RTVSPost2010PropOp55
 70
     1
102
RTVSPost2010Prop56
140
1.0
102
RTVSPost2010PropOp56
 70
     1
102
RTVSPost2010Prop57
140
1.0
102
RTVSPost2010PropOp57
 70
     1
  0
XRECORD
  5
4F1
102
{ACAD_REACTORS
330
4F0
102
}
330
4F0
100
AcDbXrecord
280
     1
102
RTVSPropertyOp0
 70
     1
102
RTVSPropertyOp1
 70
     1
102
RTVSPropertyOp2
 70
     1
102
RTVSPropertyOp3
 70
     1
102
RTVSPropertyOp4
 70
     1
102
RTVSPropertyOp5
 70
     1
102
RTVSPropertyOp6
 70
     1
102
RTVSPropertyOp7
 70
     1
102
RTVSPropertyOp8
 70
     1
102
RTVSPropertyOp9
 70
     1
102
RTVSPropertyOp10
 70
     1
102
RTVSPropertyOp11
 70
     1
102
RTVSPropertyOp12
 70
     1
102
RTVSPropertyOp13
 70
     1
102
RTVSPropertyOp14
 70
     1
102
RTVSPropertyOp15
 70
     1
102
RTVSPropertyOp16
 70
     1
102
RTVSPropertyOp17
 70
     1
102
RTVSPropertyOp18
 70
     1
102
RTVSPropertyOp19
 70
     1
102
RTVSPropertyOp20
 70
     1
102
RTVSPropertyOp21
 70
     1
102
RTVSPropertyOp22
 70
     1
102
RTVSPropertyOp23
 70
     1
102
RTVSPropertyOp24
 70
     1
102
RTVSPropertyOp25
 70
     1
102
RTVSPropertyOp26
 70
     1
102
RTVSPropertyOp27
 70
     1
102
RTVSPropertyOp28
 70
     1
102
RTVSPropertyOp29
 70
     1
102
RTVSPropertyOp30
 70
     1
102
RTVSPropertyOp31
 70
     1
102
RTVSPropertyOp32
 70
     1
102
RTVSPropertyOp33
 70
     1
102
RTVSPropertyOp34
 70
     1
102
RTVSPropertyOp35
 70
     1
102
RTVSPropertyOp36
 70
     1
102
RTVSPropertyOp37
 70
     1
102
RTVSPropertyOp38
 70
     1
102
RTVSPropertyOp39
 70
     1
102
RTVSPropertyOp40
 70
     1
102
RTVSPropertyOp41
 70
     1
102
RTVSPropertyOp42
 70
     1
102
RTVSPropertyOp43
 70
     1
102
RTVSPropertyOp44
 70
     1
102
RTVSPropertyOp45
 70
     1
102
RTVSPropertyOp46
 70
     1
102
RTVSPropertyOp47
 70
     1
102
RTVSPropertyOp48
 70
     1
102
RTVSPropertyOp49
 70
     1
102
RTVSPropertyOp50
 70
     1
102
RTVSPropertyOp51
 70
     0
102
RTVSPropertyOp52
 70
     0
102
RTVSPropertyOp53
 70
     1
102
RTVSPropertyOp54
 70
     1
102
RTVSPropertyOp55
 70
     1
102
RTVSPropertyOp56
 70
     1
102
RTVSPropertyOp57
 70
     1
102
RTVSPost2010Prop28
280
     0
102
RTVSPost2010PropOp28
 70
     1
102
RTVSPost2010Prop29
280
     1
102
RTVSPost2010PropOp29
 70
     1
102
RTVSPost2010Prop30
280
     1
102
RTVSPost2010PropOp30
 70
     1
102
RTVSPost2010Prop31
280
     0
102
RTVSPost2010PropOp31
 70
     1
102
RTVSPost2010Prop32
280
     0
102
RTVSPost2010PropOp32
 70
     1
102
RTVSPost2010Prop33
280
     0
102
RTVSPost2010PropOp33
 70
     1
102
RTVSPost2010Prop34
280
     0
102
RTVSPost2010PropOp34
 70
     1
102
RTVSPost2010Prop35
280
     0
102
RTVSPost2010PropOp35
 70
     1
102
RTVSPost2010Prop36
280
     0
102
RTVSPost2010PropOp36
 70
     1
102
RTVSPost2010Prop37
 90
       50
102
RTVSPost2010PropOp37
 70
     1
102
RTVSPost2010Prop38
140
0.0
102
RTVSPost2010PropOp38
 70
     1
102
RTVSPost2010Prop39
140
1.0
102
RTVSPost2010PropOp39
 70
     1
102
RTVSPost2010Prop40
 90
        0
102
RTVSPost2010PropOp40
 70
     1
102
RTVSPost2010Prop41ColorIndex
 90
       18
102
RTVSPost2010Prop41ColorRGB
 90
        0
102
RTVSPost2010PropOp41
 70
     1
102
RTVSPost2010Prop42
 90
       50
102
RTVSPost2010PropOp42
 70
     1
102
RTVSPost2010Prop43
 90
        3
102
RTVSPost2010PropOp43
 70
     1
102
RTVSPost2010Prop44ColorIndex
 90
        5
102
RTVSPost2010Prop44ColorRGB
 90
      255
102
RTVSPost2010PropOp44
 70
     1
102
RTVSPost2010Prop45
280
     0
102
RTVSPost2010PropOp45
 70
     1
102
RTVSPost2010Prop46
 90
       50
102
RTVSPost2010PropOp46
 70
     1
102
RTVSPost2010Prop47
 90
       50
102
RTVSPost2010PropOp47
 70
     1
102
RTVSPost2010Prop48
 90
       50
102
RTVSPost2010PropOp48
 70
     1
102
RTVSPost2010Prop49
280
     0
102
RTVSPost2010PropOp49
 70
     1
102
RTVSPost2010Prop50
 90
       50
102
RTVSPost2010PropOp50
 70
     1
102
RTVSPost2010Prop51ColorIndex
 90
      256
102
RTVSPost2010Prop51ColorRGB
 90
-16777216
102
RTVSPost2010PropOp51
 70
     0
102
RTVSPost2010Prop52
140
1.0
102
RTVSPost2010PropOp52
 70
     0
102
RTVSPost2010Prop53
 90
        2
102
RTVSPost2010PropOp53
 70
     1
102
RTVSPost2010Prop54
  1
strokes_ogs.tif
102
RTVSPost2010PropOp54
 70
     1
102
RTVSPost2010Prop55
280
     0
102
RTVSPost2010PropOp55
 70
     1
102
RTVSPost2010Prop56
140
1.0
102
RTVSPost2010PropOp56
 70
     1
102
RTVSPost2010Prop57
140
1.0
102
RTVSPost2010PropOp57
 70
     1
  0
XRECORD
  5
4EB
102
{ACAD_REACTORS
330
4EA
102
}
330
4EA
100
AcDbXrecord
280
     1
102
RTVSPropertyOp0
 70
     1
102
RTVSPropertyOp1
 70
     1
102
RTVSPropertyOp2
 70
     1
102
RTVSPropertyOp3
 70
     1
102
RTVSPropertyOp4
 70
     1
102
RTVSPropertyOp5
 70
     1
102
RTVSPropertyOp6
 70
     1
102
RTVSPropertyOp7
 70
     1
102
RTVSPropertyOp8
 70
     1
102
RTVSPropertyOp9
 70
     1
102
RTVSPropertyOp10
 70
     1
102
RTVSPropertyOp11
 70
     1
102
RTVSPropertyOp12
 70
     1
102
RTVSPropertyOp13
 70
     1
102
RTVSPropertyOp14
 70
     1
102
RTVSPropertyOp15
 70
     1
102
RTVSPropertyOp16
 70
     1
102
RTVSPropertyOp17
 70
     1
102
RTVSPropertyOp18
 70
     1
102
RTVSPropertyOp19
 70
     1
102
RTVSPropertyOp20
 70
     1
102
RTVSPropertyOp21
 70
     1
102
RTVSPropertyOp22
 70
     1
102
RTVSPropertyOp23
 70
     1
102
RTVSPropertyOp24
 70
     1
102
RTVSPropertyOp25
 70
     1
102
RTVSPropertyOp26
 70
     1
102
RTVSPropertyOp27
 70
     1
102
RTVSPropertyOp28
 70
     1
102
RTVSPropertyOp29
 70
     1
102
RTVSPropertyOp30
 70
     1
102
RTVSPropertyOp31
 70
     1
102
RTVSPropertyOp32
 70
     1
102
RTVSPropertyOp33
 70
     1
102
RTVSPropertyOp34
 70
     1
102
RTVSPropertyOp35
 70
     1
102
RTVSPropertyOp36
 70
     1
102
RTVSPropertyOp37
 70
     1
102
RTVSPropertyOp38
 70
     1
102
RTVSPropertyOp39
 70
     1
102
RTVSPropertyOp40
 70
     1
102
RTVSPropertyOp41
 70
     1
102
RTVSPropertyOp42
 70
     1
102
RTVSPropertyOp43
 70
     1
102
RTVSPropertyOp44
 70
     1
102
RTVSPropertyOp45
 70
     1
102
RTVSPropertyOp46
 70
     1
102
RTVSPropertyOp47
 70
     1
102
RTVSPropertyOp48
 70
     1
102
RTVSPropertyOp49
 70
     1
102
RTVSPropertyOp50
 70
     1
102
RTVSPropertyOp51
 70
     0
102
RTVSPropertyOp52
 70
     0
102
RTVSPropertyOp53
 70
     1
102
RTVSPropertyOp54
 70
     1
102
RTVSPropertyOp55
 70
     1
102
RTVSPropertyOp56
 70
     1
102
RTVSPropertyOp57
 70
     1
102
RTVSPost2010Prop28
280
     0
102
RTVSPost2010PropOp28
 70
     1
102
RTVSPost2010Prop29
280
     1
102
RTVSPost2010PropOp29
 70
     1
102
RTVSPost2010Prop30
280
     1
102
RTVSPost2010PropOp30
 70
     1
102
RTVSPost2010Prop31
280
     0
102
RTVSPost2010PropOp31
 70
     1
102
RTVSPost2010Prop32
280
     0
102
RTVSPost2010PropOp32
 70
     1
102
RTVSPost2010Prop33
280
     0
102
RTVSPost2010PropOp33
 70
     1
102
RTVSPost2010Prop34
280
     0
102
RTVSPost2010PropOp34
 70
     1
102
RTVSPost2010Prop35
280
     0
102
RTVSPost2010PropOp35
 70
     1
102
RTVSPost2010Prop36
280
     0
102
RTVSPost2010PropOp36
 70
     1
102
RTVSPost2010Prop37
 90
       50
102
RTVSPost2010PropOp37
 70
     1
102
RTVSPost2010Prop38
140
0.0
102
RTVSPost2010PropOp38
 70
     1
102
RTVSPost2010Prop39
140
1.0
102
RTVSPost2010PropOp39
 70
     1
102
RTVSPost2010Prop40
 90
        0
102
RTVSPost2010PropOp40
 70
     1
102
RTVSPost2010Prop41ColorIndex
 90
       18
102
RTVSPost2010Prop41ColorRGB
 90
        0
102
RTVSPost2010PropOp41
 70
     1
102
RTVSPost2010Prop42
 90
       50
102
RTVSPost2010PropOp42
 70
     1
102
RTVSPost2010Prop43
 90
        3
102
RTVSPost2010PropOp43
 70
     1
102
RTVSPost2010Prop44ColorIndex
 90
        5
102
RTVSPost2010Prop44ColorRGB
 90
      255
102
RTVSPost2010PropOp44
 70
     1
102
RTVSPost2010Prop45
280
     0
102
RTVSPost2010PropOp45
 70
     1
102
RTVSPost2010Prop46
 90
       50
102
RTVSPost2010PropOp46
 70
     1
102
RTVSPost2010Prop47
 90
       50
102
RTVSPost2010PropOp47
 70
     1
102
RTVSPost2010Prop48
 90
       50
102
RTVSPost2010PropOp48
 70
     1
102
RTVSPost2010Prop49
280
     0
102
RTVSPost2010PropOp49
 70
     1
102
RTVSPost2010Prop50
 90
       50
102
RTVSPost2010PropOp50
 70
     1
102
RTVSPost2010Prop51ColorIndex
 90
      256
102
RTVSPost2010Prop51ColorRGB
 90
-16777216
102
RTVSPost2010PropOp51
 70
     0
102
RTVSPost2010Prop52
140
1.0
102
RTVSPost2010PropOp52
 70
     0
102
RTVSPost2010Prop53
 90
        2
102
RTVSPost2010PropOp53
 70
     1
102
RTVSPost2010Prop54
  1
strokes_ogs.tif
102
RTVSPost2010PropOp54
 70
     1
102
RTVSPost2010Prop55
280
     0
102
RTVSPost2010PropOp55
 70
     1
102
RTVSPost2010Prop56
140
1.0
102
RTVSPost2010PropOp56
 70
     1
102
RTVSPost2010Prop57
140
1.0
102
RTVSPost2010PropOp57
 70
     1
  0
XRECORD
  5
4ED
102
{ACAD_REACTORS
330
4EC
102
}
330
4EC
100
AcDbXrecord
280
     1
102
RTVSPropertyOp0
 70
     1
102
RTVSPropertyOp1
 70
     1
102
RTVSPropertyOp2
 70
     1
102
RTVSPropertyOp3
 70
     1
102
RTVSPropertyOp4
 70
     1
102
RTVSPropertyOp5
 70
     1
102
RTVSPropertyOp6
 70
     1
102
RTVSPropertyOp7
 70
     1
102
RTVSPropertyOp8
 70
     1
102
RTVSPropertyOp9
 70
     1
102
RTVSPropertyOp10
 70
     1
102
RTVSPropertyOp11
 70
     1
102
RTVSPropertyOp12
 70
     1
102
RTVSPropertyOp13
 70
     1
102
RTVSPropertyOp14
 70
     1
102
RTVSPropertyOp15
 70
     1
102
RTVSPropertyOp16
 70
     1
102
RTVSPropertyOp17
 70
     1
102
RTVSPropertyOp18
 70
     1
102
RTVSPropertyOp19
 70
     1
102
RTVSPropertyOp20
 70
     1
102
RTVSPropertyOp21
 70
     1
102
RTVSPropertyOp22
 70
     1
102
RTVSPropertyOp23
 70
     1
102
RTVSPropertyOp24
 70
     1
102
RTVSPropertyOp25
 70
     1
102
RTVSPropertyOp26
 70
     1
102
RTVSPropertyOp27
 70
     1
102
RTVSPropertyOp28
 70
     1
102
RTVSPropertyOp29
 70
     1
102
RTVSPropertyOp30
 70
     1
102
RTVSPropertyOp31
 70
     1
102
RTVSPropertyOp32
 70
     1
102
RTVSPropertyOp33
 70
     1
102
RTVSPropertyOp34
 70
     1
102
RTVSPropertyOp35
 70
     1
102
RTVSPropertyOp36
 70
     1
102
RTVSPropertyOp37
 70
     1
102
RTVSPropertyOp38
 70
     1
102
RTVSPropertyOp39
 70
     1
102
RTVSPropertyOp40
 70
     1
102
RTVSPropertyOp41
 70
     1
102
RTVSPropertyOp42
 70
     1
102
RTVSPropertyOp43
 70
     1
102
RTVSPropertyOp44
 70
     1
102
RTVSPropertyOp45
 70
     1
102
RTVSPropertyOp46
 70
     1
102
RTVSPropertyOp47
 70
     1
102
RTVSPropertyOp48
 70
     1
102
RTVSPropertyOp49
 70
     1
102
RTVSPropertyOp50
 70
     1
102
RTVSPropertyOp51
 70
     0
102
RTVSPropertyOp52
 70
     0
102
RTVSPropertyOp53
 70
     1
102
RTVSPropertyOp54
 70
     1
102
RTVSPropertyOp55
 70
     1
102
RTVSPropertyOp56
 70
     1
102
RTVSPropertyOp57
 70
     1
102
RTVSPost2010Prop28
280
     0
102
RTVSPost2010PropOp28
 70
     1
102
RTVSPost2010Prop29
280
     1
102
RTVSPost2010PropOp29
 70
     1
102
RTVSPost2010Prop30
280
     1
102
RTVSPost2010PropOp30
 70
     1
102
RTVSPost2010Prop31
280
     0
102
RTVSPost2010PropOp31
 70
     1
102
RTVSPost2010Prop32
280
     0
102
RTVSPost2010PropOp32
 70
     1
102
RTVSPost2010Prop33
280
     0
102
RTVSPost2010PropOp33
 70
     1
102
RTVSPost2010Prop34
280
     0
102
RTVSPost2010PropOp34
 70
     1
102
RTVSPost2010Prop35
280
     0
102
RTVSPost2010PropOp35
 70
     1
102
RTVSPost2010Prop36
280
     0
102
RTVSPost2010PropOp36
 70
     1
102
RTVSPost2010Prop37
 90
       50
102
RTVSPost2010PropOp37
 70
     1
102
RTVSPost2010Prop38
140
0.0
102
RTVSPost2010PropOp38
 70
     1
102
RTVSPost2010Prop39
140
1.0
102
RTVSPost2010PropOp39
 70
     1
102
RTVSPost2010Prop40
 90
        0
102
RTVSPost2010PropOp40
 70
     1
102
RTVSPost2010Prop41ColorIndex
 90
       18
102
RTVSPost2010Prop41ColorRGB
 90
        0
102
RTVSPost2010PropOp41
 70
     1
102
RTVSPost2010Prop42
 90
       50
102
RTVSPost2010PropOp42
 70
     1
102
RTVSPost2010Prop43
 90
        3
102
RTVSPost2010PropOp43
 70
     1
102
RTVSPost2010Prop44ColorIndex
 90
        5
102
RTVSPost2010Prop44ColorRGB
 90
      255
102
RTVSPost2010PropOp44
 70
     1
102
RTVSPost2010Prop45
280
     0
102
RTVSPost2010PropOp45
 70
     1
102
RTVSPost2010Prop46
 90
       50
102
RTVSPost2010PropOp46
 70
     1
102
RTVSPost2010Prop47
 90
       50
102
RTVSPost2010PropOp47
 70
     1
102
RTVSPost2010Prop48
 90
       50
102
RTVSPost2010PropOp48
 70
     1
102
RTVSPost2010Prop49
280
     0
102
RTVSPost2010PropOp49
 70
     1
102
RTVSPost2010Prop50
 90
       50
102
RTVSPost2010PropOp50
 70
     1
102
RTVSPost2010Prop51ColorIndex
 90
      256
102
RTVSPost2010Prop51ColorRGB
 90
-16777216
102
RTVSPost2010PropOp51
 70
     0
102
RTVSPost2010Prop52
140
1.0
102
RTVSPost2010PropOp52
 70
     0
102
RTVSPost2010Prop53
 90
        2
102
RTVSPost2010PropOp53
 70
     1
102
RTVSPost2010Prop54
  1
strokes_ogs.tif
102
RTVSPost2010PropOp54
 70
     1
102
RTVSPost2010Prop55
280
     0
102
RTVSPost2010PropOp55
 70
     1
102
RTVSPost2010Prop56
140
1.0
102
RTVSPost2010PropOp56
 70
     1
102
RTVSPost2010Prop57
140
1.0
102
RTVSPost2010PropOp57
 70
     1
  0
XRECORD
  5
4DD
102
{ACAD_REACTORS
330
4DC
102
}
330
4DC
100
AcDbXrecord
280
     1
102
RTVSPropertyOp0
 70
     1
102
RTVSPropertyOp1
 70
     1
102
RTVSPropertyOp2
 70
     1
102
RTVSPropertyOp3
 70
     1
102
RTVSPropertyOp4
 70
     1
102
RTVSPropertyOp5
 70
     1
102
RTVSPropertyOp6
 70
     1
102
RTVSPropertyOp7
 70
     1
102
RTVSPropertyOp8
 70
     1
102
RTVSPropertyOp9
 70
     1
102
RTVSPropertyOp10
 70
     1
102
RTVSPropertyOp11
 70
     1
102
RTVSPropertyOp12
 70
     1
102
RTVSPropertyOp13
 70
     1
102
RTVSPropertyOp14
 70
     1
102
RTVSPropertyOp15
 70
     1
102
RTVSPropertyOp16
 70
     1
102
RTVSPropertyOp17
 70
     1
102
RTVSPropertyOp18
 70
     1
102
RTVSPropertyOp19
 70
     1
102
RTVSPropertyOp20
 70
     1
102
RTVSPropertyOp21
 70
     1
102
RTVSPropertyOp22
 70
     1
102
RTVSPropertyOp23
 70
     1
102
RTVSPropertyOp24
 70
     1
102
RTVSPropertyOp25
 70
     1
102
RTVSPropertyOp26
 70
     1
102
RTVSPropertyOp27
 70
     1
102
RTVSPropertyOp28
 70
     1
102
RTVSPropertyOp29
 70
     1
102
RTVSPropertyOp30
 70
     1
102
RTVSPropertyOp31
 70
     1
102
RTVSPropertyOp32
 70
     1
102
RTVSPropertyOp33
 70
     1
102
RTVSPropertyOp34
 70
     1
102
RTVSPropertyOp35
 70
     1
102
RTVSPropertyOp36
 70
     1
102
RTVSPropertyOp37
 70
     1
102
RTVSPropertyOp38
 70
     1
102
RTVSPropertyOp39
 70
     1
102
RTVSPropertyOp40
 70
     1
102
RTVSPropertyOp41
 70
     1
102
RTVSPropertyOp42
 70
     1
102
RTVSPropertyOp43
 70
     1
102
RTVSPropertyOp44
 70
     1
102
RTVSPropertyOp45
 70
     1
102
RTVSPropertyOp46
 70
     1
102
RTVSPropertyOp47
 70
     1
102
RTVSPropertyOp48
 70
     1
102
RTVSPropertyOp49
 70
     1
102
RTVSPropertyOp50
 70
     1
102
RTVSPropertyOp51
 70
     0
102
RTVSPropertyOp52
 70
     0
102
RTVSPropertyOp53
 70
     1
102
RTVSPropertyOp54
 70
     1
102
RTVSPropertyOp55
 70
     1
102
RTVSPropertyOp56
 70
     1
102
RTVSPropertyOp57
 70
     1
102
RTVSPost2010Prop28
280
     0
102
RTVSPost2010PropOp28
 70
     1
102
RTVSPost2010Prop29
280
     1
102
RTVSPost2010PropOp29
 70
     1
102
RTVSPost2010Prop30
280
     1
102
RTVSPost2010PropOp30
 70
     1
102
RTVSPost2010Prop31
280
     0
102
RTVSPost2010PropOp31
 70
     1
102
RTVSPost2010Prop32
280
     0
102
RTVSPost2010PropOp32
 70
     1
102
RTVSPost2010Prop33
280
     0
102
RTVSPost2010PropOp33
 70
     1
102
RTVSPost2010Prop34
280
     0
102
RTVSPost2010PropOp34
 70
     1
102
RTVSPost2010Prop35
280
     0
102
RTVSPost2010PropOp35
 70
     1
102
RTVSPost2010Prop36
280
     0
102
RTVSPost2010PropOp36
 70
     1
102
RTVSPost2010Prop37
 90
       50
102
RTVSPost2010PropOp37
 70
     1
102
RTVSPost2010Prop38
140
0.0
102
RTVSPost2010PropOp38
 70
     1
102
RTVSPost2010Prop39
140
1.0
102
RTVSPost2010PropOp39
 70
     1
102
RTVSPost2010Prop40
 90
        0
102
RTVSPost2010PropOp40
 70
     1
102
RTVSPost2010Prop41ColorIndex
 90
       18
102
RTVSPost2010Prop41ColorRGB
 90
        0
102
RTVSPost2010PropOp41
 70
     1
102
RTVSPost2010Prop42
 90
       50
102
RTVSPost2010PropOp42
 70
     1
102
RTVSPost2010Prop43
 90
        3
102
RTVSPost2010PropOp43
 70
     1
102
RTVSPost2010Prop44ColorIndex
 90
        5
102
RTVSPost2010Prop44ColorRGB
 90
      255
102
RTVSPost2010PropOp44
 70
     1
102
RTVSPost2010Prop45
280
     0
102
RTVSPost2010PropOp45
 70
     1
102
RTVSPost2010Prop46
 90
       50
102
RTVSPost2010PropOp46
 70
     1
102
RTVSPost2010Prop47
 90
       50
102
RTVSPost2010PropOp47
 70
     1
102
RTVSPost2010Prop48
 90
       50
102
RTVSPost2010PropOp48
 70
     1
102
RTVSPost2010Prop49
280
     0
102
RTVSPost2010PropOp49
 70
     1
102
RTVSPost2010Prop50
 90
       50
102
RTVSPost2010PropOp50
 70
     1
102
RTVSPost2010Prop51ColorIndex
 90
      256
102
RTVSPost2010Prop51ColorRGB
 90
-16777216
102
RTVSPost2010PropOp51
 70
     0
102
RTVSPost2010Prop52
140
1.0
102
RTVSPost2010PropOp52
 70
     0
102
RTVSPost2010Prop53
 90
        2
102
RTVSPost2010PropOp53
 70
     1
102
RTVSPost2010Prop54
  1
strokes_ogs.tif
102
RTVSPost2010PropOp54
 70
     1
102
RTVSPost2010Prop55
280
     0
102
RTVSPost2010PropOp55
 70
     1
102
RTVSPost2010Prop56
140
1.0
102
RTVSPost2010PropOp56
 70
     1
102
RTVSPost2010Prop57
140
1.0
102
RTVSPost2010PropOp57
 70
     1
  0
XRECORD
  5
4CF
102
{ACAD_REACTORS
330
4CE
102
}
330
4CE
100
AcDbXrecord
280
     1
102
RTVSPropertyOp0
 70
     1
102
RTVSPropertyOp1
 70
     1
102
RTVSPropertyOp2
 70
     1
102
RTVSPropertyOp3
 70
     1
102
RTVSPropertyOp4
 70
     1
102
RTVSPropertyOp5
 70
     1
102
RTVSPropertyOp6
 70
     1
102
RTVSPropertyOp7
 70
     1
102
RTVSPropertyOp8
 70
     1
102
RTVSPropertyOp9
 70
     1
102
RTVSPropertyOp10
 70
     1
102
RTVSPropertyOp11
 70
     1
102
RTVSPropertyOp12
 70
     1
102
RTVSPropertyOp13
 70
     1
102
RTVSPropertyOp14
 70
     1
102
RTVSPropertyOp15
 70
     1
102
RTVSPropertyOp16
 70
     1
102
RTVSPropertyOp17
 70
     1
102
RTVSPropertyOp18
 70
     1
102
RTVSPropertyOp19
 70
     1
102
RTVSPropertyOp20
 70
     1
102
RTVSPropertyOp21
 70
     1
102
RTVSPropertyOp22
 70
     1
102
RTVSPropertyOp23
 70
     1
102
RTVSPropertyOp24
 70
     1
102
RTVSPropertyOp25
 70
     1
102
RTVSPropertyOp26
 70
     1
102
RTVSPropertyOp27
 70
     1
102
RTVSPropertyOp28
 70
     1
102
RTVSPropertyOp29
 70
     1
102
RTVSPropertyOp30
 70
     1
102
RTVSPropertyOp31
 70
     1
102
RTVSPropertyOp32
 70
     1
102
RTVSPropertyOp33
 70
     1
102
RTVSPropertyOp34
 70
     1
102
RTVSPropertyOp35
 70
     1
102
RTVSPropertyOp36
 70
     1
102
RTVSPropertyOp37
 70
     1
102
RTVSPropertyOp38
 70
     1
102
RTVSPropertyOp39
 70
     1
102
RTVSPropertyOp40
 70
     1
102
RTVSPropertyOp41
 70
     1
102
RTVSPropertyOp42
 70
     1
102
RTVSPropertyOp43
 70
     1
102
RTVSPropertyOp44
 70
     1
102
RTVSPropertyOp45
 70
     1
102
RTVSPropertyOp46
 70
     1
102
RTVSPropertyOp47
 70
     1
102
RTVSPropertyOp48
 70
     1
102
RTVSPropertyOp49
 70
     1
102
RTVSPropertyOp50
 70
     1
102
RTVSPropertyOp51
 70
     0
102
RTVSPropertyOp52
 70
     0
102
RTVSPropertyOp53
 70
     1
102
RTVSPropertyOp54
 70
     1
102
RTVSPropertyOp55
 70
     1
102
RTVSPropertyOp56
 70
     1
102
RTVSPropertyOp57
 70
     1
102
RTVSPost2010Prop28
280
     0
102
RTVSPost2010PropOp28
 70
     1
102
RTVSPost2010Prop29
280
     1
102
RTVSPost2010PropOp29
 70
     1
102
RTVSPost2010Prop30
280
     1
102
RTVSPost2010PropOp30
 70
     1
102
RTVSPost2010Prop31
280
     0
102
RTVSPost2010PropOp31
 70
     1
102
RTVSPost2010Prop32
280
     0
102
RTVSPost2010PropOp32
 70
     1
102
RTVSPost2010Prop33
280
     0
102
RTVSPost2010PropOp33
 70
     1
102
RTVSPost2010Prop34
280
     0
102
RTVSPost2010PropOp34
 70
     1
102
RTVSPost2010Prop35
280
     0
102
RTVSPost2010PropOp35
 70
     1
102
RTVSPost2010Prop36
280
     0
102
RTVSPost2010PropOp36
 70
     1
102
RTVSPost2010Prop37
 90
       50
102
RTVSPost2010PropOp37
 70
     1
102
RTVSPost2010Prop38
140
0.0
102
RTVSPost2010PropOp38
 70
     1
102
RTVSPost2010Prop39
140
1.0
102
RTVSPost2010PropOp39
 70
     1
102
RTVSPost2010Prop40
 90
        0
102
RTVSPost2010PropOp40
 70
     1
102
RTVSPost2010Prop41ColorIndex
 90
       18
102
RTVSPost2010Prop41ColorRGB
 90
        0
102
RTVSPost2010PropOp41
 70
     1
102
RTVSPost2010Prop42
 90
       50
102
RTVSPost2010PropOp42
 70
     1
102
RTVSPost2010Prop43
 90
        3
102
RTVSPost2010PropOp43
 70
     1
102
RTVSPost2010Prop44ColorIndex
 90
        5
102
RTVSPost2010Prop44ColorRGB
 90
      255
102
RTVSPost2010PropOp44
 70
     1
102
RTVSPost2010Prop45
280
     0
102
RTVSPost2010PropOp45
 70
     1
102
RTVSPost2010Prop46
 90
       50
102
RTVSPost2010PropOp46
 70
     1
102
RTVSPost2010Prop47
 90
       50
102
RTVSPost2010PropOp47
 70
     1
102
RTVSPost2010Prop48
 90
       50
102
RTVSPost2010PropOp48
 70
     1
102
RTVSPost2010Prop49
280
     0
102
RTVSPost2010PropOp49
 70
     1
102
RTVSPost2010Prop50
 90
       50
102
RTVSPost2010PropOp50
 70
     1
102
RTVSPost2010Prop51ColorIndex
 90
      256
102
RTVSPost2010Prop51ColorRGB
 90
-16777216
102
RTVSPost2010PropOp51
 70
     0
102
RTVSPost2010Prop52
140
1.0
102
RTVSPost2010PropOp52
 70
     0
102
RTVSPost2010Prop53
 90
        2
102
RTVSPost2010PropOp53
 70
     1
102
RTVSPost2010Prop54
  1
strokes_ogs.tif
102
RTVSPost2010PropOp54
 70
     1
102
RTVSPost2010Prop55
280
     0
102
RTVSPost2010PropOp55
 70
     1
102
RTVSPost2010Prop56
140
1.0
102
RTVSPost2010PropOp56
 70
     1
102
RTVSPost2010Prop57
140
1.0
102
RTVSPost2010PropOp57
 70
     1
  0
XRECORD
  5
4EF
102
{ACAD_REACTORS
330
4EE
102
}
330
4EE
100
AcDbXrecord
280
     1
102
RTVSPropertyOp0
 70
     1
102
RTVSPropertyOp1
 70
     1
102
RTVSPropertyOp2
 70
     1
102
RTVSPropertyOp3
 70
     1
102
RTVSPropertyOp4
 70
     1
102
RTVSPropertyOp5
 70
     1
102
RTVSPropertyOp6
 70
     1
102
RTVSPropertyOp7
 70
     1
102
RTVSPropertyOp8
 70
     1
102
RTVSPropertyOp9
 70
     1
102
RTVSPropertyOp10
 70
     1
102
RTVSPropertyOp11
 70
     1
102
RTVSPropertyOp12
 70
     1
102
RTVSPropertyOp13
 70
     1
102
RTVSPropertyOp14
 70
     1
102
RTVSPropertyOp15
 70
     1
102
RTVSPropertyOp16
 70
     1
102
RTVSPropertyOp17
 70
     1
102
RTVSPropertyOp18
 70
     1
102
RTVSPropertyOp19
 70
     1
102
RTVSPropertyOp20
 70
     1
102
RTVSPropertyOp21
 70
     1
102
RTVSPropertyOp22
 70
     1
102
RTVSPropertyOp23
 70
     1
102
RTVSPropertyOp24
 70
     1
102
RTVSPropertyOp25
 70
     1
102
RTVSPropertyOp26
 70
     1
102
RTVSPropertyOp27
 70
     1
102
RTVSPropertyOp28
 70
     1
102
RTVSPropertyOp29
 70
     1
102
RTVSPropertyOp30
 70
     1
102
RTVSPropertyOp31
 70
     1
102
RTVSPropertyOp32
 70
     1
102
RTVSPropertyOp33
 70
     1
102
RTVSPropertyOp34
 70
     1
102
RTVSPropertyOp35
 70
     1
102
RTVSPropertyOp36
 70
     1
102
RTVSPropertyOp37
 70
     1
102
RTVSPropertyOp38
 70
     1
102
RTVSPropertyOp39
 70
     1
102
RTVSPropertyOp40
 70
     1
102
RTVSPropertyOp41
 70
     1
102
RTVSPropertyOp42
 70
     1
102
RTVSPropertyOp43
 70
     1
102
RTVSPropertyOp44
 70
     1
102
RTVSPropertyOp45
 70
     1
102
RTVSPropertyOp46
 70
     1
102
RTVSPropertyOp47
 70
     1
102
RTVSPropertyOp48
 70
     1
102
RTVSPropertyOp49
 70
     1
102
RTVSPropertyOp50
 70
     1
102
RTVSPropertyOp51
 70
     0
102
RTVSPropertyOp52
 70
     0
102
RTVSPropertyOp53
 70
     1
102
RTVSPropertyOp54
 70
     1
102
RTVSPropertyOp55
 70
     1
102
RTVSPropertyOp56
 70
     1
102
RTVSPropertyOp57
 70
     1
102
RTVSPost2010Prop28
280
     0
102
RTVSPost2010PropOp28
 70
     1
102
RTVSPost2010Prop29
280
     1
102
RTVSPost2010PropOp29
 70
     1
102
RTVSPost2010Prop30
280
     1
102
RTVSPost2010PropOp30
 70
     1
102
RTVSPost2010Prop31
280
     0
102
RTVSPost2010PropOp31
 70
     1
102
RTVSPost2010Prop32
280
     0
102
RTVSPost2010PropOp32
 70
     1
102
RTVSPost2010Prop33
280
     0
102
RTVSPost2010PropOp33
 70
     1
102
RTVSPost2010Prop34
280
     0
102
RTVSPost2010PropOp34
 70
     1
102
RTVSPost2010Prop35
280
     0
102
RTVSPost2010PropOp35
 70
     1
102
RTVSPost2010Prop36
280
     0
102
RTVSPost2010PropOp36
 70
     1
102
RTVSPost2010Prop37
 90
       50
102
RTVSPost2010PropOp37
 70
     1
102
RTVSPost2010Prop38
140
0.0
102
RTVSPost2010PropOp38
 70
     1
102
RTVSPost2010Prop39
140
1.0
102
RTVSPost2010PropOp39
 70
     1
102
RTVSPost2010Prop40
 90
        0
102
RTVSPost2010PropOp40
 70
     1
102
RTVSPost2010Prop41ColorIndex
 90
       18
102
RTVSPost2010Prop41ColorRGB
 90
        0
102
RTVSPost2010PropOp41
 70
     1
102
RTVSPost2010Prop42
 90
       50
102
RTVSPost2010PropOp42
 70
     1
102
RTVSPost2010Prop43
 90
        3
102
RTVSPost2010PropOp43
 70
     1
102
RTVSPost2010Prop44ColorIndex
 90
        5
102
RTVSPost2010Prop44ColorRGB
 90
      255
102
RTVSPost2010PropOp44
 70
     1
102
RTVSPost2010Prop45
280
     0
102
RTVSPost2010PropOp45
 70
     1
102
RTVSPost2010Prop46
 90
       50
102
RTVSPost2010PropOp46
 70
     1
102
RTVSPost2010Prop47
 90
       50
102
RTVSPost2010PropOp47
 70
     1
102
RTVSPost2010Prop48
 90
       50
102
RTVSPost2010PropOp48
 70
     1
102
RTVSPost2010Prop49
280
     0
102
RTVSPost2010PropOp49
 70
     1
102
RTVSPost2010Prop50
 90
       50
102
RTVSPost2010PropOp50
 70
     1
102
RTVSPost2010Prop51ColorIndex
 90
      256
102
RTVSPost2010Prop51ColorRGB
 90
-16777216
102
RTVSPost2010PropOp51
 70
     0
102
RTVSPost2010Prop52
140
1.0
102
RTVSPost2010PropOp52
 70
     0
102
RTVSPost2010Prop53
 90
        2
102
RTVSPost2010PropOp53
 70
     1
102
RTVSPost2010Prop54
  1
strokes_ogs.tif
102
RTVSPost2010PropOp54
 70
     1
102
RTVSPost2010Prop55
280
     0
102
RTVSPost2010PropOp55
 70
     1
102
RTVSPost2010Prop56
140
1.0
102
RTVSPost2010PropOp56
 70
     1
102
RTVSPost2010Prop57
140
1.0
102
RTVSPost2010PropOp57
 70
     1
  0
ENDSEC
  0
EOF
