  0
SECTION
  2
HEADER
  9
$ACADVER
  1
AC1027
  9
$ACADMAINTVER
 70
     8
  9
$DWGCODEPAGE
  3
ANSI_932
  9
$REQUIREDVERSIONS
160
                 0
  9
$INSBASE
 10
0.0
 20
0.0
 30
0.0
  9
$EXTMIN
 10
0.0
 20
0.0
 30
0.0
  9
$EXTMAX
 10
2895.999988416
 20
2184.000000000002
 30
0.0
  9
$LIMMIN
 10
0.0
 20
0.0
  9
$LIMMAX
 10
420.0
 20
297.0
  9
$ORTHOMODE
 70
     0
  9
$REGENMODE
 70
     1
  9
$FILLMODE
 70
     1
  9
$QTEXTMODE
 70
     0
  9
$MIRRTEXT
 70
     1
  9
$LTSCALE
 40
2.0
  9
$ATTMODE
 70
     1
  9
$TEXTSIZE
 40
26.4
  9
$TRACEWID
 40
0.05
  9
$TEXTSTYLE
  7
Standard
  9
$CLAYER
  8
0
  9
$CELTYPE
  6
ByLayer
  9
$CECOLOR
 62
   256
  9
$CELTSCALE
 40
1.0
  9
$DISPSILH
 70
     0
  9
$DIMSCALE
 40
1.0
  9
$DIMASZ
 40
2.3
  9
$DIMEXO
 40
1.0
  9
$DIMDLI
 40
10.0
  9
$DIMRND
 40
0.0
  9
$DIMDLE
 40
0.0
  9
$DIMEXE
 40
1.0
  9
$DIMTP
 40
0.0
  9
$DIMTM
 40
0.0
  9
$DIMTXT
 40
3.3
  9
$DIMCEN
 40
0.09
  9
$DIMTSZ
 40
0.0
  9
$DIMTOL
 70
     0
  9
$DIMLIM
 70
     0
  9
$DIMTIH
 70
     0
  9
$DIMTOH
 70
     0
  9
$DIMSE1
 70
     0
  9
$DIMSE2
 70
     0
  9
$DIMTAD
 70
     3
  9
$DIMZIN
 70
     8
  9
$DIMBLK
  1

  9
$DIMASO
 70
     1
  9
$DIMSHO
 70
     1
  9
$DIMPOST
  1

  9
$DIMAPOST
  1

  9
$DIMALT
 70
     0
  9
$DIMALTD
 70
     2
  9
$DIMALTF
 40
25.4
  9
$DIMLFAC
 40
1.0
  9
$DIMTOFL
 70
     1
  9
$DIMTVP
 40
0.7
  9
$DIMTIX
 70
     0
  9
$DIMSOXD
 70
     0
  9
$DIMSAH
 70
     0
  9
$DIMBLK1
  1

  9
$DIMBLK2
  1

  9
$DIMSTYLE
  2
Standard
  9
$DIMCLRD
 70
     0
  9
$DIMCLRE
 70
     0
  9
$DIMCLRT
 70
     0
  9
$DIMTFAC
 40
0.5
  9
$DIMGAP
 40
0.09
  9
$DIMJUST
 70
     0
  9
$DIMSD1
 70
     0
  9
$DIMSD2
 70
     0
  9
$DIMTOLJ
 70
     1
  9
$DIMTZIN
 70
     8
  9
$DIMALTZ
 70
     0
  9
$DIMALTTZ
 70
     0
  9
$DIMUPT
 70
     1
  9
$DIMDEC
 70
     1
  9
$DIMTDEC
 70
     4
  9
$DIMALTU
 70
     2
  9
$DIMALTTD
 70
     2
  9
$DIMTXSTY
  7
Standard
  9
$DIMAUNIT
 70
     0
  9
$DIMADEC
 70
     0
  9
$DIMALTRND
 40
0.0
  9
$DIMAZIN
 70
     0
  9
$DIMDSEP
 70
    46
  9
$DIMATFIT
 70
     2
  9
$DIMFRAC
 70
     0
  9
$DIMLDRBLK
  1

  9
$DIMLUNIT
 70
     2
  9
$DIMLWD
 70
    -2
  9
$DIMLWE
 70
    -2
  9
$DIMTMOVE
 70
     2
  9
$DIMFXL
 40
1.0
  9
$DIMFXLON
 70
     0
  9
$DIMJOGANG
 40
0.7853981633974483
  9
$DIMTFILL
 70
     0
  9
$DIMTFILLCLR
 70
     0
  9
$DIMARCSYM
 70
     0
  9
$DIMLTYPE
  6

  9
$DIMLTEX1
  6

  9
$DIMLTEX2
  6

  9
$DIMTXTDIRECTION
 70
     0
  9
$LUNITS
 70
     2
  9
$LUPREC
 70
     4
  9
$SKETCHINC
 40
0.1
  9
$FILLETRAD
 40
0.5
  9
$AUNITS
 70
     0
  9
$AUPREC
 70
     0
  9
$MENU
  1
.
  9
$ELEVATION
 40
0.0
  9
$PELEVATION
 40
0.0
  9
$THICKNESS
 40
0.0
  9
$LIMCHECK
 70
     0
  9
$CHAMFERA
 40
0.0
  9
$CHAMFERB
 40
0.0
  9
$CHAMFERC
 40
0.0
  9
$CHAMFERD
 40
0.0
  9
$SKPOLY
 70
     0
  9
$TDCREATE
 40
2458955.829768518
  9
$TDUCREATE
 40
2458955.454768518
  9
$TDUPDATE
 40
2458955.454772812
  9
$TDUUPDATE
 40
2458955.079772812
  9
$TDINDWG
 40
0.0000000116
  9
$TDUSRTIMER
 40
0.0000000116
  9
$USRTIMER
 70
     1
  9
$ANGBASE
 50
0.0
  9
$ANGDIR
 70
     0
  9
$PDMODE
 70
     0
  9
$PDSIZE
 40
0.0
  9
$PLINEWID
 40
0.0
  9
$SPLFRAME
 70
     0
  9
$SPLINETYPE
 70
     6
  9
$SPLINESEGS
 70
     8
  9
$HANDSEED
  5
440
  9
$SURFTAB1
 70
     6
  9
$SURFTAB2
 70
     6
  9
$SURFTYPE
 70
     6
  9
$SURFU
 70
     6
  9
$SURFV
 70
     6
  9
$UCSBASE
  2

  9
$UCSNAME
  2

  9
$UCSORG
 10
0.0
 20
0.0
 30
0.0
  9
$UCSXDIR
 10
1.0
 20
0.0
 30
0.0
  9
$UCSYDIR
 10
0.0
 20
1.0
 30
0.0
  9
$UCSORTHOREF
  2

  9
$UCSORTHOVIEW
 70
     0
  9
$UCSORGTOP
 10
0.0
 20
0.0
 30
0.0
  9
$UCSORGBOTTOM
 10
0.0
 20
0.0
 30
0.0
  9
$UCSORGLEFT
 10
0.0
 20
0.0
 30
0.0
  9
$UCSORGRIGHT
 10
0.0
 20
0.0
 30
0.0
  9
$UCSORGFRONT
 10
0.0
 20
0.0
 30
0.0
  9
$UCSORGBACK
 10
0.0
 20
0.0
 30
0.0
  9
$PUCSBASE
  2

  9
$PUCSNAME
  2

  9
$PUCSORG
 10
0.0
 20
0.0
 30
0.0
  9
$PUCSXDIR
 10
1.0
 20
0.0
 30
0.0
  9
$PUCSYDIR
 10
0.0
 20
1.0
 30
0.0
  9
$PUCSORTHOREF
  2

  9
$PUCSORTHOVIEW
 70
     0
  9
$PUCSORGTOP
 10
0.0
 20
0.0
 30
0.0
  9
$PUCSORGBOTTOM
 10
0.0
 20
0.0
 30
0.0
  9
$PUCSORGLEFT
 10
0.0
 20
0.0
 30
0.0
  9
$PUCSORGRIGHT
 10
0.0
 20
0.0
 30
0.0
  9
$PUCSORGFRONT
 10
0.0
 20
0.0
 30
0.0
  9
$PUCSORGBACK
 10
0.0
 20
0.0
 30
0.0
  9
$USERI1
 70
     0
  9
$USERI2
 70
     0
  9
$USERI3
 70
     0
  9
$USERI4
 70
     0
  9
$USERI5
 70
     0
  9
$USERR1
 40
0.0
  9
$USERR2
 40
0.0
  9
$USERR3
 40
0.0
  9
$USERR4
 40
0.0
  9
$USERR5
 40
0.0
  9
$WORLDVIEW
 70
     1
  9
$SHADEDGE
 70
     3
  9
$SHADEDIF
 70
    70
  9
$TILEMODE
 70
     1
  9
$MAXACTVP
 70
    64
  9
$PINSBASE
 10
0.0
 20
0.0
 30
0.0
  9
$PLIMCHECK
 70
     0
  9
$PEXTMIN
 10
0.0
 20
0.0
 30
0.0
  9
$PEXTMAX
 10
420.0
 20
297.0
 30
0.0
  9
$PLIMMIN
 10
0.0
 20
0.0
  9
$PLIMMAX
 10
420.0
 20
297.0
  9
$UNITMODE
 70
     0
  9
$VISRETAIN
 70
     1
  9
$PLINEGEN
 70
     0
  9
$PSLTSCALE
 70
     1
  9
$TREEDEPTH
 70
  3020
  9
$CMLSTYLE
  2
Standard
  9
$CMLJUST
 70
     0
  9
$CMLSCALE
 40
1.0
  9
$PROXYGRAPHICS
 70
     1
  9
$MEASUREMENT
 70
     1
  9
$CELWEIGHT
370
    -1
  9
$ENDCAPS
280
     0
  9
$JOINSTYLE
280
     0
  9
$LWDISPLAY
290
     0
  9
$INSUNITS
 70
     4
  9
$HYPERLINKBASE
  1

  9
$STYLESHEET
  1

  9
$XEDIT
290
     1
  9
$CEPSNTYPE
380
     0
  9
$PSTYLEMODE
290
     1
  9
$FINGERPRINTGUID
  2
{129FDDBD-2D1C-4391-A367-1EB1E5FE3CA4}
  9
$VERSIONGUID
  2
{FAEB1C32-E019-11D5-929B-00C0DF256EC4}
  9
$EXTNAMES
290
     1
  9
$PSVPSCALE
 40
0.0
  9
$OLESTARTUP
290
     0
  9
$SORTENTS
280
   127
  9
$INDEXCTL
280
     0
  9
$HIDETEXT
280
     1
  9
$XCLIPFRAME
280
     2
  9
$HALOGAP
280
     0
  9
$OBSCOLOR
 70
   257
  9
$OBSLTYPE
280
     0
  9
$INTERSECTIONDISPLAY
280
     0
  9
$INTERSECTIONCOLOR
 70
   257
  9
$DIMASSOC
280
     1
  9
$PROJECTNAME
  1

  9
$CAMERADISPLAY
290
     0
  9
$LENSLENGTH
 40
50.0
  9
$CAMERAHEIGHT
 40
0.0
  9
$STEPSPERSEC
 40
2.0
  9
$STEPSIZE
 40
6.0
  9
$3DDWFPREC
 40
2.0
  9
$PSOLWIDTH
 40
0.25
  9
$PSOLHEIGHT
 40
4.0
  9
$LOFTANG1
 40
1.570796326794897
  9
$LOFTANG2
 40
1.570796326794897
  9
$LOFTMAG1
 40
0.0
  9
$LOFTMAG2
 40
0.0
  9
$LOFTPARAM
 70
     7
  9
$LOFTNORMALS
280
     1
  9
$LATITUDE
 40
37.795
  9
$LONGITUDE
 40
-122.394
  9
$NORTHDIRECTION
 40
0.0
  9
$TIMEZONE
 70
 -8000
  9
$LIGHTGLYPHDISPLAY
280
     1
  9
$TILEMODELIGHTSYNCH
280
     1
  9
$CMATERIAL
347
44
  9
$SOLIDHIST
280
     1
  9
$SHOWHIST
280
     1
  9
$DWFFRAME
280
     2
  9
$DGNFRAME
280
     2
  9
$REALWORLDSCALE
290
     1
  9
$INTERFERECOLOR
 62
   256
  9
$CSHADOW
280
     0
  9
$SHADOWPLANELOCATION
 40
0.0
  0
ENDSEC
  0
SECTION
  2
CLASSES
  0
CLASS
  1
ACDBDICTIONARYWDFLT
  2
AcDbDictionaryWithDefault
  3
ObjectDBX Classes
 90
        0
 91
        4
280
     0
281
     0
  0
CLASS
  1
VISUALSTYLE
  2
AcDbVisualStyle
  3
ObjectDBX Classes
 90
     4095
 91
        4
280
     0
281
     0
  0
CLASS
  1
MATERIAL
  2
AcDbMaterial
  3
ObjectDBX Classes
 90
     1153
 91
        4
280
     0
281
     0
  0
CLASS
  1
SCALE
  2
AcDbScale
  3
ObjectDBX Classes
 90
     1153
 91
        4
280
     0
281
     0
  0
CLASS
  1
SUN
  2
AcDbSun
  3
SCENEOE
 90
     1153
 91
        4
280
     0
281
     0
  0
CLASS
  1
DICTIONARYVAR
  2
AcDbDictionaryVar
  3
ObjectDBX Classes
 90
        0
 91
        4
280
     0
281
     0
  0
ENDSEC
  0
SECTION
  2
TABLES
  0
TABLE
  2
VPORT
  5
8
330
0
100
AcDbSymbolTable
 70
     1
  0
VPORT
  5
29
330
8
100
AcDbSymbolTableRecord
100
AcDbViewportTableRecord
  2
*Active
 70
     0
 10
0.0
 20
0.0
 11
1.0
 21
1.0
 12
10.42990654205607
 22
4.5
 13
0.0
 23
0.0
 14
0.5
 24
0.5
 15
0.5
 25
0.5
 16
0.0
 26
0.0
 36
1.0
 17
0.0
 27
0.0
 37
0.0
 40
9.0
 41
1.972972972850329
 42
50.0
 43
0.0
 44
0.0
 50
0.0
 51
0.0
 71
     0
 72
   100
 73
     1
 74
     3
 75
     0
 76
     0
 77
     0
 78
     0
281
     0
 65
     1
110
0.0
120
0.0
130
0.0
111
1.0
121
0.0
131
0.0
112
0.0
122
1.0
132
0.0
 79
     0
146
0.0
 60
     3
 61
     5
292
     1
282
     1
141
0.0
142
0.0
 63
   250
361
69
  0
ENDTAB
  0
TABLE
  2
LTYPE
  5
5
330
0
100
AcDbSymbolTable
 70
     9
  0
LTYPE
  5
14
330
5
100
AcDbSymbolTableRecord
100
AcDbLinetypeTableRecord
  2
ByBlock
 70
     0
  3

 72
    65
 73
     0
 40
0.0
  0
LTYPE
  5
15
330
5
100
AcDbSymbolTableRecord
100
AcDbLinetypeTableRecord
  2
ByLayer
 70
     0
  3

 72
    65
 73
     0
 40
0.0
  0
LTYPE
  5
16
330
5
100
AcDbSymbolTableRecord
100
AcDbLinetypeTableRecord
  2
Continuous
 70
     0
  3
Solid line
 72
    65
 73
     0
 40
0.0
  0
LTYPE
  5
B9
330
5
100
AcDbSymbolTableRecord
100
AcDbLinetypeTableRecord
  2
DOT
 70
     0
  3
DOT
 72
    65
 73
     2
 40
4.0
 49
6.0
 74
     0
 49
-2.0
 74
     0
  0
LTYPE
  5
BA
330
5
100
AcDbSymbolTableRecord
100
AcDbLinetypeTableRecord
  2
HIDDEN
 70
     0
  3
HIDDEN
 72
    65
 73
     2
 40
4.2
 49
8.4
 74
     0
 49
-4.2
 74
     0
  0
LTYPE
  5
BB
330
5
100
AcDbSymbolTableRecord
100
AcDbLinetypeTableRecord
  2
DASHDOT
 70
     0
  3
DASHDOT
 72
    65
 73
     4
 40
14.5
 49
30.0
 74
     0
 49
-9.0
 74
     0
 49
2.5
 74
     0
 49
-9.0
 74
     0
  0
LTYPE
  5
BC
330
5
100
AcDbSymbolTableRecord
100
AcDbLinetypeTableRecord
  2
PHANTOM
 70
     0
  3
PHANTOM
 72
    65
 73
     6
 40
12.0
 49
30.0
 74
     0
 49
-9.0
 74
     0
 49
2.5
 74
     0
 49
-5.0
 74
     0
 49
2.5
 74
     0
 49
-9.0
 74
     0
  0
LTYPE
  5
BD
330
5
100
AcDbSymbolTableRecord
100
AcDbLinetypeTableRecord
  2
ACAD_ISO14W100
 70
     0
  3
ACAD_ISO14W100
 72
    65
 73
     8
 40
1.5
 49
12.0
 74
     0
 49
-3.0
 74
     0
 49
0.5
 74
     0
 49
-3.0
 74
     0
 49
0.5
 74
     0
 49
-3.0
 74
     0
 49
0.5
 74
     0
 49
-3.0
 74
     0
  0
LTYPE
  5
BE
330
5
100
AcDbSymbolTableRecord
100
AcDbLinetypeTableRecord
  2
ACAD_ISO06W100
 70
     0
  3
ACAD_ISO06W100
 72
    65
 73
     8
 40
13.5
 49
24.0
 74
     0
 49
-3.0
 74
     0
 49
0.5
 74
     0
 49
-3.0
 74
     0
 49
0.5
 74
     0
 49
-3.0
 74
     0
 49
0.5
 74
     0
 49
-3.0
 74
     0
  0
LTYPE
  5
BF
330
5
100
AcDbSymbolTableRecord
100
AcDbLinetypeTableRecord
  2
ACAD_ISO11W100
 70
     0
  3
ACAD_ISO11W100
 72
    65
 73
     6
 40
15.5
 49
12.0
 74
     0
 49
-3.0
 74
     0
 49
12.0
 74
     0
 49
-3.0
 74
     0
 49
0.5
 74
     0
 49
-3.0
 74
     0
  0
LTYPE
  5
C0
330
5
100
AcDbSymbolTableRecord
100
AcDbLinetypeTableRecord
  2
ACAD_ISO13W100
 70
     0
  3
ACAD_ISO13W100
 72
    65
 73
     8
 40
13.0
 49
12.0
 74
     0
 49
-3.0
 74
     0
 49
12.0
 74
     0
 49
-3.0
 74
     0
 49
0.5
 74
     0
 49
-3.0
 74
     0
 49
0.5
 74
     0
 49
-3.0
 74
     0
  0
ENDTAB
  0
TABLE
  2
LAYER
  5
2
330
0
100
AcDbSymbolTable
 70
    35
  0
LAYER
  5
10
330
2
100
AcDbSymbolTableRecord
100
AcDbLayerTableRecord
  2
0
 70
     0
 62
     7
  6
Continuous
370
    -3
390
F
347
46
348
0
  0
LAYER
  5
C1
330
2
100
AcDbSymbolTableRecord
100
AcDbLayerTableRecord
  2
1
 70
     0
 62
     6
  6
Continuous
370
    53
390
F
347
46
348
0
  0
LAYER
  5
C2
330
2
100
AcDbSymbolTableRecord
100
AcDbLayerTableRecord
  2
2
 70
     0
 62
     2
  6
HIDDEN
370
    25
390
F
347
46
348
0
  0
LAYER
  5
C3
330
2
100
AcDbSymbolTableRecord
100
AcDbLayerTableRecord
  2
3
 70
     0
 62
     1
  6
DASHDOT
370
    25
390
F
347
46
348
0
  0
LAYER
  5
C4
330
2
100
AcDbSymbolTableRecord
100
AcDbLayerTableRecord
  2
4
 70
     0
 62
     2
  6
PHANTOM
370
    25
390
F
347
46
348
0
  0
LAYER
  5
C5
330
2
100
AcDbSymbolTableRecord
100
AcDbLayerTableRecord
  2
5
 70
     0
 62
     4
  6
Continuous
370
    25
390
F
347
46
348
0
  0
LAYER
  5
C6
330
2
100
AcDbSymbolTableRecord
100
AcDbLayerTableRecord
  2
6
 70
     0
 62
     3
  6
Continuous
370
    25
390
F
347
46
348
0
  0
LAYER
  5
C7
330
2
100
AcDbSymbolTableRecord
100
AcDbLayerTableRecord
  2
7
 70
     0
 62
     3
  6
Continuous
370
    25
390
F
347
46
348
0
  0
LAYER
  5
C8
330
2
100
AcDbSymbolTableRecord
100
AcDbLayerTableRecord
  2
8
 70
     0
 62
     4
  6
Continuous
370
    25
390
F
347
46
348
0
  0
LAYER
  5
C9
330
2
100
AcDbSymbolTableRecord
100
AcDbLayerTableRecord
  2
9
 70
     0
 62
     7
  6
Continuous
370
    35
390
F
347
46
348
0
  0
LAYER
  5
CA
330
2
100
AcDbSymbolTableRecord
100
AcDbLayerTableRecord
  2
10
 70
     0
 62
     6
  6
Continuous
370
    53
390
F
347
46
348
0
  0
LAYER
  5
CB
330
2
100
AcDbSymbolTableRecord
100
AcDbLayerTableRecord
  2
11
 70
     0
 62
     2
  6
HIDDEN
370
    25
390
F
347
46
348
0
  0
LAYER
  5
CC
330
2
100
AcDbSymbolTableRecord
100
AcDbLayerTableRecord
  2
12
 70
     0
 62
     5
  6
Continuous
370
    53
390
F
347
46
348
0
  0
LAYER
  5
CD
330
2
100
AcDbSymbolTableRecord
100
AcDbLayerTableRecord
  2
13
 70
     0
 62
     7
  6
Continuous
370
     9
390
F
347
46
348
0
  0
LAYER
  5
CE
330
2
100
AcDbSymbolTableRecord
100
AcDbLayerTableRecord
  2
14
 70
     0
 62
     7
  6
Continuous
370
     9
390
F
347
46
348
0
  0
LAYER
  5
CF
330
2
100
AcDbSymbolTableRecord
100
AcDbLayerTableRecord
  2
15
 70
     0
 62
     7
  6
Continuous
370
    35
390
F
347
46
348
0
  0
LAYER
  5
D0
330
2
100
AcDbSymbolTableRecord
100
AcDbLayerTableRecord
  2
16
 70
     0
 62
     7
  6
HIDDEN
370
     9
390
F
347
46
348
0
  0
LAYER
  5
D1
330
2
100
AcDbSymbolTableRecord
100
AcDbLayerTableRecord
  2
17
 70
     0
 62
     7
  6
Continuous
370
     9
390
F
347
46
348
0
  0
LAYER
  5
D2
330
2
100
AcDbSymbolTableRecord
100
AcDbLayerTableRecord
  2
18
 70
     0
 62
     4
  6
Continuous
370
     9
390
F
347
46
348
0
  0
LAYER
  5
D3
330
2
100
AcDbSymbolTableRecord
100
AcDbLayerTableRecord
  2
19
 70
     0
 62
     7
  6
Continuous
370
     9
390
F
347
46
348
0
  0
LAYER
  5
D4
330
2
100
AcDbSymbolTableRecord
100
AcDbLayerTableRecord
  2
20
 70
     0
 62
     6
  6
PHANTOM
370
     9
390
F
347
46
348
0
  0
LAYER
  5
D5
330
2
100
AcDbSymbolTableRecord
100
AcDbLayerTableRecord
  2
21
 70
     0
 62
     1
  6
Continuous
370
     9
390
F
347
46
348
0
  0
LAYER
  5
D6
330
2
100
AcDbSymbolTableRecord
100
AcDbLayerTableRecord
  2
22
 70
     0
 62
     7
  6
Continuous
370
     9
390
F
347
46
348
0
  0
LAYER
  5
D7
330
2
100
AcDbSymbolTableRecord
100
AcDbLayerTableRecord
  2
23
 70
     0
 62
     4
  6
Continuous
370
     9
390
F
347
46
348
0
  0
LAYER
  5
D8
330
2
100
AcDbSymbolTableRecord
100
AcDbLayerTableRecord
  2
24
 70
     0
 62
     1
  6
DASHDOT
370
     9
390
F
347
46
348
0
  0
LAYER
  5
D9
330
2
100
AcDbSymbolTableRecord
100
AcDbLayerTableRecord
  2
25
 70
     0
 62
     1
  6
HIDDEN
370
     9
390
F
347
46
348
0
  0
LAYER
  5
DA
330
2
100
AcDbSymbolTableRecord
100
AcDbLayerTableRecord
  2
26
 70
     0
 62
     2
  6
Continuous
370
     9
390
F
347
46
348
0
  0
LAYER
  5
DB
330
2
100
AcDbSymbolTableRecord
100
AcDbLayerTableRecord
  2
27
 70
     0
 62
     5
  6
HIDDEN
370
     9
390
F
347
46
348
0
  0
LAYER
  5
DC
330
2
100
AcDbSymbolTableRecord
100
AcDbLayerTableRecord
  2
28
 70
     0
 62
     3
  6
Continuous
370
     9
390
F
347
46
348
0
  0
LAYER
  5
DD
330
2
100
AcDbSymbolTableRecord
100
AcDbLayerTableRecord
  2
29
 70
     0
 62
     7
  6
HIDDEN
370
    50
390
F
347
46
348
0
  0
LAYER
  5
DE
330
2
100
AcDbSymbolTableRecord
100
AcDbLayerTableRecord
  2
30
 70
     0
 62
     7
  6
DASHDOT
370
    50
390
F
347
46
348
0
  0
LAYER
  5
DF
330
2
100
AcDbSymbolTableRecord
100
AcDbLayerTableRecord
  2
31
 70
     0
 62
     7
  6
Continuous
370
     9
390
F
347
46
348
0
  0
LAYER
  5
E0
330
2
100
AcDbSymbolTableRecord
100
AcDbLayerTableRecord
  2
32
 70
     0
 62
     7
  6
Continuous
370
     9
390
F
347
46
348
0
  0
LAYER
  5
E1
330
2
100
AcDbSymbolTableRecord
100
AcDbLayerTableRecord
  2
33
 70
     0
 62
     1
  6
DASHDOT
370
     9
390
F
347
46
348
0
  0
LAYER
  5
E2
330
2
100
AcDbSymbolTableRecord
100
AcDbLayerTableRecord
  2
34
 70
     0
 62
     7
  6
Continuous
370
     9
390
F
347
46
348
0
  0
ENDTAB
  0
TABLE
  2
STYLE
  5
3
330
0
100
AcDbSymbolTable
 70
     3
  0
STYLE
  5
11
330
3
100
AcDbSymbolTableRecord
100
AcDbTextStyleTableRecord
  2
Standard
 70
     0
 40
0.0
 41
1.0
 50
0.0
 71
     0
 42
26.4
  3
txt
  4
bigfont
  0
STYLE
  5
6C
330
3
100
AcDbSymbolTableRecord
100
AcDbTextStyleTableRecord
  2
T_STANDARD
 70
     4
 40
10.0
 41
1.0
 50
0.0
 71
     0
 42
26.4
  3
txt
  4
bigfont
1001
ACAD
1000

1071
      256
  0
STYLE
  5
3AB
330
3
100
AcDbSymbolTableRecord
100
AcDbTextStyleTableRecord
  2
ＭＳ Ｐゴシック
 70
     0
 40
0.0
 41
1.0
 50
0.0
 71
     0
 42
26.4
  3

  4

1001
ACAD
1000
ＭＳ Ｐゴシック
1071
      256
  0
ENDTAB
  0
TABLE
  2
VIEW
  5
6
330
0
100
AcDbSymbolTable
 70
     0
  0
ENDTAB
  0
TABLE
  2
UCS
  5
7
330
0
100
AcDbSymbolTable
 70
     0
  0
ENDTAB
  0
TABLE
  2
APPID
  5
9
330
0
100
AcDbSymbolTable
 70
     2
  0
APPID
  5
12
330
9
100
AcDbSymbolTableRecord
100
AcDbRegAppTableRecord
  2
ACAD
 70
     0
  0
APPID
  5
6B
330
9
100
AcDbSymbolTableRecord
100
AcDbRegAppTableRecord
  2
ODA
 70
     0
  0
ENDTAB
  0
TABLE
  2
DIMSTYLE
  5
A
330
0
100
AcDbSymbolTable
 70
     1
100
AcDbDimStyleTable
  0
DIMSTYLE
105
27
102
{ACAD_REACTORS
330
3B5
330
3BF
330
3C9
330
3D3
330
3E5
330
3EF
330
3F9
330
403
330
41D
330
42F
330
439
102
}
330
A
100
AcDbSymbolTableRecord
100
AcDbDimStyleTableRecord
  2
Standard
 70
     0
178
     0
340
11
  0
ENDTAB
  0
TABLE
  2
BLOCK_RECORD
  5
1
330
0
100
AcDbSymbolTable
 70
    27
  0
BLOCK_RECORD
  5
1F
330
1
100
AcDbSymbolTableRecord
100
AcDbBlockTableRecord
  2
*Model_Space
340
22
 70
     0
280
     1
281
     0
  0
BLOCK_RECORD
  5
1B
330
1
100
AcDbSymbolTableRecord
100
AcDbBlockTableRecord
  2
*Paper_Space
340
1E
 70
     0
280
     1
281
     0
  0
BLOCK_RECORD
  5
23
330
1
100
AcDbSymbolTableRecord
100
AcDbBlockTableRecord
  2
*Paper_Space0
340
26
 70
     0
280
     1
281
     0
  0
BLOCK_RECORD
  5
6D
330
1
100
AcDbSymbolTableRecord
100
AcDbBlockTableRecord
  2
_ORIGIN
340
0
 70
     0
280
     1
281
     0
  0
BLOCK_RECORD
  5
72
330
1
100
AcDbSymbolTableRecord
100
AcDbBlockTableRecord
  2
_DOTBLANK
340
0
 70
     0
280
     1
281
     0
  0
BLOCK_RECORD
  5
77
330
1
100
AcDbSymbolTableRecord
100
AcDbBlockTableRecord
  2
_DOT
340
0
 70
     0
280
     1
281
     0
  0
BLOCK_RECORD
  5
7C
330
1
100
AcDbSymbolTableRecord
100
AcDbBlockTableRecord
  2
_OPEN
340
0
102
{BLKREFS
331
3B3
331
3B4
331
3BD
331
3BE
331
3C7
331
3C8
331
3D1
331
3D2
331
3D4
331
3E3
331
3E4
331
3ED
331
3EE
331
3F7
331
3F8
331
401
331
402
331
404
331
40C
331
41B
331
41C
331
41E
331
42D
331
42E
331
437
331
438
102
}
 70
     0
280
     1
281
     0
  0
BLOCK_RECORD
  5
82
330
1
100
AcDbSymbolTableRecord
100
AcDbBlockTableRecord
  2
_CLOSED
340
0
 70
     0
280
     1
281
     0
  0
BLOCK_RECORD
  5
89
330
1
100
AcDbSymbolTableRecord
100
AcDbBlockTableRecord
  2
_CLOSEDBLANK
340
0
 70
     0
280
     1
281
     0
  0
BLOCK_RECORD
  5
8F
330
1
100
AcDbSymbolTableRecord
100
AcDbBlockTableRecord
  2
_ARROWFILLED
340
0
 70
     0
280
     1
281
     0
  0
BLOCK_RECORD
  5
93
330
1
100
AcDbSymbolTableRecord
100
AcDbBlockTableRecord
  2
_BOXBLANK
340
0
 70
     0
280
     1
281
     0
  0
BLOCK_RECORD
  5
9B
330
1
100
AcDbSymbolTableRecord
100
AcDbBlockTableRecord
  2
_BOXFILLED
340
0
 70
     0
280
     1
281
     0
  0
BLOCK_RECORD
  5
A0
330
1
100
AcDbSymbolTableRecord
100
AcDbBlockTableRecord
  2
_INTEGRAL
340
0
 70
     0
280
     1
281
     0
  0
BLOCK_RECORD
  5
A5
330
1
100
AcDbSymbolTableRecord
100
AcDbBlockTableRecord
  2
_OBLIQUE
340
0
 70
     0
280
     1
281
     0
  0
BLOCK_RECORD
  5
A9
330
1
100
AcDbSymbolTableRecord
100
AcDbBlockTableRecord
  2
_NONE
340
0
 70
     0
280
     1
281
     0
  0
BLOCK_RECORD
  5
AC
330
1
100
AcDbSymbolTableRecord
100
AcDbBlockTableRecord
  2
MARK_OPEN
340
0
 70
     0
280
     1
281
     0
  0
BLOCK_RECORD
  5
B1
330
1
100
AcDbSymbolTableRecord
100
AcDbBlockTableRecord
  2
MARK_ORIGIN
340
0
 70
     0
280
     1
281
     0
  0
BLOCK_RECORD
  5
B5
330
1
100
AcDbSymbolTableRecord
100
AcDbBlockTableRecord
  2
MARK_DOT
340
0
 70
     0
280
     1
281
     0
  0
BLOCK_RECORD
  5
3AC
330
1
100
AcDbSymbolTableRecord
100
AcDbBlockTableRecord
  2
Dim1
340
0
 70
     0
280
     1
281
     0
  0
BLOCK_RECORD
  5
3B6
330
1
100
AcDbSymbolTableRecord
100
AcDbBlockTableRecord
  2
Dim2
340
0
 70
     0
280
     1
281
     0
  0
BLOCK_RECORD
  5
3C0
330
1
100
AcDbSymbolTableRecord
100
AcDbBlockTableRecord
  2
Dim3
340
0
 70
     0
280
     1
281
     0
  0
BLOCK_RECORD
  5
3CA
330
1
100
AcDbSymbolTableRecord
100
AcDbBlockTableRecord
  2
Dim4
340
0
 70
     0
280
     1
281
     0
  0
BLOCK_RECORD
  5
3DC
330
1
100
AcDbSymbolTableRecord
100
AcDbBlockTableRecord
  2
Dim5
340
0
 70
     0
280
     1
281
     0
  0
BLOCK_RECORD
  5
3E6
330
1
100
AcDbSymbolTableRecord
100
AcDbBlockTableRecord
  2
Dim6
340
0
 70
     0
280
     1
281
     0
  0
BLOCK_RECORD
  5
3F0
330
1
100
AcDbSymbolTableRecord
100
AcDbBlockTableRecord
  2
Dim7
340
0
 70
     0
280
     1
281
     0
  0
BLOCK_RECORD
  5
3FA
330
1
100
AcDbSymbolTableRecord
100
AcDbBlockTableRecord
  2
Dim8
340
0
 70
     0
280
     1
281
     0
  0
BLOCK_RECORD
  5
414
330
1
100
AcDbSymbolTableRecord
100
AcDbBlockTableRecord
  2
Dim9
340
0
 70
     0
280
     1
281
     0
  0
BLOCK_RECORD
  5
426
330
1
100
AcDbSymbolTableRecord
100
AcDbBlockTableRecord
  2
Dim10
340
0
 70
     0
280
     1
281
     0
  0
BLOCK_RECORD
  5
430
330
1
100
AcDbSymbolTableRecord
100
AcDbBlockTableRecord
  2
Dim11
340
0
 70
     0
280
     1
281
     0
  0
ENDTAB
  0
ENDSEC
  0
SECTION
  2
BLOCKS
  0
BLOCK
  5
20
330
1F
100
AcDbEntity
  8
0
100
AcDbBlockBegin
  2
*Model_Space
 70
     0
 10
0.0
 20
0.0
 30
0.0
  3
*Model_Space
  1
*Model_Space
  0
ENDBLK
  5
21
330
1F
100
AcDbEntity
  8
0
100
AcDbBlockEnd
  0
BLOCK
  5
1C
330
1B
100
AcDbEntity
 67
     1
  8
0
100
AcDbBlockBegin
  2
*Paper_Space
 70
     0
 10
0.0
 20
0.0
 30
0.0
  3
*Paper_Space
  1
*Paper_Space
  0
ENDBLK
  5
1D
330
1B
100
AcDbEntity
 67
     1
  8
0
100
AcDbBlockEnd
  0
BLOCK
  5
24
330
23
100
AcDbEntity
  8
0
100
AcDbBlockBegin
  2
*Paper_Space0
 70
     0
 10
0.0
 20
0.0
 30
0.0
  3
*Paper_Space0
  1
*Paper_Space0
  0
ENDBLK
  5
25
330
23
100
AcDbEntity
  8
0
100
AcDbBlockEnd
  0
BLOCK
  5
70
330
6D
100
AcDbEntity
  8
0
100
AcDbBlockBegin
  2
_ORIGIN
 70
     0
 10
0.0
 20
0.0
 30
0.0
  3
_ORIGIN
  1
_ORIGIN
  0
CIRCLE
  5
6E
330
6D
100
AcDbEntity
  8
0
 62
     0
100
AcDbCircle
 10
0.0
 20
0.0
 30
0.0
 40
0.5
  0
LINE
  5
6F
330
6D
100
AcDbEntity
  8
0
 62
     0
100
AcDbLine
 10
0.0
 20
0.0
 30
0.0
 11
-1.0
 21
0.0
 31
0.0
  0
ENDBLK
  5
71
330
6D
100
AcDbEntity
  8
0
100
AcDbBlockEnd
  0
BLOCK
  5
75
330
72
100
AcDbEntity
  8
0
100
AcDbBlockBegin
  2
_DOTBLANK
 70
     0
 10
0.0
 20
0.0
 30
0.0
  3
_DOTBLANK
  1
_DOTBLANK
  0
CIRCLE
  5
73
330
72
100
AcDbEntity
  8
0
 62
     0
100
AcDbCircle
 10
0.0
 20
0.0
 30
0.0
 40
0.5
  0
LINE
  5
74
330
72
100
AcDbEntity
  8
0
 62
     0
100
AcDbLine
 10
-0.5
 20
0.0
 30
0.0
 11
-1.0
 21
0.0
 31
0.0
  0
ENDBLK
  5
76
330
72
100
AcDbEntity
  8
0
100
AcDbBlockEnd
  0
BLOCK
  5
7A
330
77
100
AcDbEntity
  8
0
100
AcDbBlockBegin
  2
_DOT
 70
     0
 10
0.0
 20
0.0
 30
0.0
  3
_DOT
  1
_DOT
  0
LWPOLYLINE
  5
78
330
77
100
AcDbEntity
  8
0
 62
     0
100
AcDbPolyline
 90
        2
 70
     1
 43
0.5
 10
-0.25
 20
0.0
 42
1.0
 10
0.25
 20
0.0
 42
1.0
  0
LINE
  5
79
330
77
100
AcDbEntity
  8
0
 62
     0
100
AcDbLine
 10
-0.5
 20
0.0
 30
0.0
 11
-1.0
 21
0.0
 31
0.0
  0
ENDBLK
  5
7B
330
77
100
AcDbEntity
  8
0
100
AcDbBlockEnd
  0
BLOCK
  5
80
330
7C
100
AcDbEntity
  8
0
100
AcDbBlockBegin
  2
_OPEN
 70
     0
 10
0.0
 20
0.0
 30
0.0
  3
_OPEN
  1
_OPEN
  0
LINE
  5
7D
330
7C
100
AcDbEntity
  8
0
 62
     0
100
AcDbLine
 10
0.0
 20
0.0
 30
0.0
 11
-1.0
 21
0.1666666666666667
 31
0.0
  0
LINE
  5
7E
330
7C
100
AcDbEntity
  8
0
 62
     0
100
AcDbLine
 10
0.0
 20
0.0
 30
0.0
 11
-1.0
 21
-0.1666666666666667
 31
0.0
  0
LINE
  5
7F
330
7C
100
AcDbEntity
  8
0
 62
     0
100
AcDbLine
 10
0.0
 20
0.0
 30
0.0
 11
-1.0
 21
0.0
 31
0.0
  0
ENDBLK
  5
81
330
7C
100
AcDbEntity
  8
0
100
AcDbBlockEnd
  0
BLOCK
  5
87
330
82
100
AcDbEntity
  8
0
100
AcDbBlockBegin
  2
_CLOSED
 70
     0
 10
0.0
 20
0.0
 30
0.0
  3
_CLOSED
  1
_CLOSED
  0
LINE
  5
83
330
82
100
AcDbEntity
  8
0
 62
     0
100
AcDbLine
 10
0.0
 20
0.0
 30
0.0
 11
-1.0
 21
0.1666666666666667
 31
0.0
  0
LINE
  5
84
330
82
100
AcDbEntity
  8
0
 62
     0
100
AcDbLine
 10
0.0
 20
0.0
 30
0.0
 11
-1.0
 21
-0.1666666666666667
 31
0.0
  0
LINE
  5
85
330
82
100
AcDbEntity
  8
0
 62
     0
100
AcDbLine
 10
-1.0
 20
0.1666666666666667
 30
0.0
 11
-1.0
 21
-0.1666666666666667
 31
0.0
  0
LINE
  5
86
330
82
100
AcDbEntity
  8
0
 62
     0
100
AcDbLine
 10
0.0
 20
0.0
 30
0.0
 11
-1.0
 21
0.0
 31
0.0
  0
ENDBLK
  5
88
330
82
100
AcDbEntity
  8
0
100
AcDbBlockEnd
  0
BLOCK
  5
8D
330
89
100
AcDbEntity
  8
0
100
AcDbBlockBegin
  2
_CLOSEDBLANK
 70
     0
 10
0.0
 20
0.0
 30
0.0
  3
_CLOSEDBLANK
  1
_CLOSEDBLANK
  0
LINE
  5
8A
330
89
100
AcDbEntity
  8
0
 62
     0
100
AcDbLine
 10
0.0
 20
0.0
 30
0.0
 11
-1.0
 21
0.1666666666666667
 31
0.0
  0
LINE
  5
8B
330
89
100
AcDbEntity
  8
0
 62
     0
100
AcDbLine
 10
0.0
 20
0.0
 30
0.0
 11
-1.0
 21
-0.1666666666666667
 31
0.0
  0
LINE
  5
8C
330
89
100
AcDbEntity
  8
0
 62
     0
100
AcDbLine
 10
-1.0
 20
0.1666666666666667
 30
0.0
 11
-1.0
 21
-0.1666666666666667
 31
0.0
  0
ENDBLK
  5
8E
330
89
100
AcDbEntity
  8
0
100
AcDbBlockEnd
  0
BLOCK
  5
91
330
8F
100
AcDbEntity
  8
0
100
AcDbBlockBegin
  2
_ARROWFILLED
 70
     0
 10
0.0
 20
0.0
 30
0.0
  3
_ARROWFILLED
  1
_ARROWFILLED
  0
SOLID
  5
90
330
8F
100
AcDbEntity
  8
0
 62
     0
100
AcDbTrace
 10
0.0
 20
0.0
 30
0.0
 11
-1.0
 21
-0.1666666666666667
 31
0.0
 12
-1.0
 22
0.1666666666666667
 32
0.0
 13
0.0
 23
0.0
 33
0.0
  0
ENDBLK
  5
92
330
8F
100
AcDbEntity
  8
0
100
AcDbBlockEnd
  0
BLOCK
  5
99
330
93
100
AcDbEntity
  8
0
100
AcDbBlockBegin
  2
_BOXBLANK
 70
     0
 10
0.0
 20
0.0
 30
0.0
  3
_BOXBLANK
  1
_BOXBLANK
  0
LINE
  5
94
330
93
100
AcDbEntity
  8
0
 62
     0
100
AcDbLine
 10
-0.5
 20
-0.5
 30
0.0
 11
0.5
 21
-0.5
 31
0.0
  0
LINE
  5
95
330
93
100
AcDbEntity
  8
0
 62
     0
100
AcDbLine
 10
0.5
 20
-0.5
 30
0.0
 11
0.5
 21
0.5
 31
0.0
  0
LINE
  5
96
330
93
100
AcDbEntity
  8
0
 62
     0
100
AcDbLine
 10
0.5
 20
0.5
 30
0.0
 11
-0.5
 21
0.5
 31
0.0
  0
LINE
  5
97
330
93
100
AcDbEntity
  8
0
 62
     0
100
AcDbLine
 10
-0.5
 20
0.5
 30
0.0
 11
-0.5
 21
-0.5
 31
0.0
  0
LINE
  5
98
330
93
100
AcDbEntity
  8
0
 62
     0
100
AcDbLine
 10
-0.5
 20
0.0
 30
0.0
 11
-1.0
 21
0.0
 31
0.0
  0
ENDBLK
  5
9A
330
93
100
AcDbEntity
  8
0
100
AcDbBlockEnd
  0
BLOCK
  5
9E
330
9B
100
AcDbEntity
  8
0
100
AcDbBlockBegin
  2
_BOXFILLED
 70
     0
 10
0.0
 20
0.0
 30
0.0
  3
_BOXFILLED
  1
_BOXFILLED
  0
SOLID
  5
9C
330
9B
100
AcDbEntity
  8
0
 62
     0
100
AcDbTrace
 10
-0.5
 20
0.5
 30
0.0
 11
0.5
 21
0.5
 31
0.0
 12
-0.5
 22
-0.5
 32
0.0
 13
0.5
 23
-0.5
 33
0.0
  0
LINE
  5
9D
330
9B
100
AcDbEntity
  8
0
 62
     0
100
AcDbLine
 10
-0.5
 20
0.0
 30
0.0
 11
-1.0
 21
0.0
 31
0.0
  0
ENDBLK
  5
9F
330
9B
100
AcDbEntity
  8
0
100
AcDbBlockEnd
  0
BLOCK
  5
A3
330
A0
100
AcDbEntity
  8
0
100
AcDbBlockBegin
  2
_INTEGRAL
 70
     0
 10
0.0
 20
0.0
 30
0.0
  3
_INTEGRAL
  1
_INTEGRAL
  0
ARC
  5
A1
330
A0
100
AcDbEntity
  8
0
 62
     0
100
AcDbCircle
 10
0.444888
 20
-0.0913346
 30
0.0
 40
0.4541666
100
AcDbArc
 50
101.9999999999999
 51
167.9999999999998
  0
ARC
  5
A2
330
A0
100
AcDbEntity
  8
0
 62
     0
100
AcDbCircle
 10
-0.444888
 20
0.0913346
 30
0.0
 40
0.4541666
100
AcDbArc
 50
281.9999999999997
 51
347.9999999999997
  0
ENDBLK
  5
A4
330
A0
100
AcDbEntity
  8
0
100
AcDbBlockEnd
  0
BLOCK
  5
A7
330
A5
100
AcDbEntity
  8
0
100
AcDbBlockBegin
  2
_OBLIQUE
 70
     0
 10
0.0
 20
0.0
 30
0.0
  3
_OBLIQUE
  1
_OBLIQUE
  0
LINE
  5
A6
330
A5
100
AcDbEntity
  8
0
 62
     0
100
AcDbLine
 10
-0.5
 20
-0.5
 30
0.0
 11
0.5
 21
0.5
 31
0.0
  0
ENDBLK
  5
A8
330
A5
100
AcDbEntity
  8
0
100
AcDbBlockEnd
  0
BLOCK
  5
AA
330
A9
100
AcDbEntity
  8
0
100
AcDbBlockBegin
  2
_NONE
 70
     0
 10
0.0
 20
0.0
 30
0.0
  3
_NONE
  1
_NONE
  0
ENDBLK
  5
AB
330
A9
100
AcDbEntity
  8
0
100
AcDbBlockEnd
  0
BLOCK
  5
AF
330
AC
100
AcDbEntity
  8
0
100
AcDbBlockBegin
  2
MARK_OPEN
 70
     0
 10
0.0
 20
0.0
 30
0.0
  3
MARK_OPEN
  1
MARK_OPEN
  0
LINE
  5
AD
330
AC
100
AcDbEntity
  8
0
 62
     0
100
AcDbLine
 10
0.0
 20
0.0
 30
0.0
 11
-1.0
 21
0.1666666666666667
 31
0.0
  0
LINE
  5
AE
330
AC
100
AcDbEntity
  8
0
 62
     0
100
AcDbLine
 10
0.0
 20
0.0
 30
0.0
 11
-1.0
 21
-0.1666666666666667
 31
0.0
  0
ENDBLK
  5
B0
330
AC
100
AcDbEntity
  8
0
100
AcDbBlockEnd
  0
BLOCK
  5
B3
330
B1
100
AcDbEntity
  8
0
100
AcDbBlockBegin
  2
MARK_ORIGIN
 70
     0
 10
0.0
 20
0.0
 30
0.0
  3
MARK_ORIGIN
  1
MARK_ORIGIN
  0
CIRCLE
  5
B2
330
B1
100
AcDbEntity
  8
0
 62
     0
100
AcDbCircle
 10
0.0
 20
0.0
 30
0.0
 40
0.5
  0
ENDBLK
  5
B4
330
B1
100
AcDbEntity
  8
0
100
AcDbBlockEnd
  0
BLOCK
  5
B7
330
B5
100
AcDbEntity
  8
0
100
AcDbBlockBegin
  2
MARK_DOT
 70
     0
 10
0.0
 20
0.0
 30
0.0
  3
MARK_DOT
  1
MARK_DOT
  0
LWPOLYLINE
  5
B6
330
B5
100
AcDbEntity
  8
0
 62
     0
100
AcDbPolyline
 90
        2
 70
     1
 43
0.5
 10
-0.25
 20
0.0
 42
1.0
 10
0.25
 20
0.0
 42
1.0
  0
ENDBLK
  5
B8
330
B5
100
AcDbEntity
  8
0
100
AcDbBlockEnd
  0
BLOCK
  5
3AD
330
3AC
100
AcDbEntity
  8
0
100
AcDbBlockBegin
  2
Dim1
 70
     0
 10
0.0
 20
0.0
 30
0.0
  3
Dim1
  1
Dim1
  0
LINE
  5
3AF
330
3AC
100
AcDbEntity
  8
6
  6
Continuous
 62
     3
370
     9
100
AcDbLine
 10
1338.28746962168
 20
567.4716171457109
 30
0.0
 11
1338.287469621678
 21
463.8617245402296
 31
0.0
  0
LINE
  5
3B0
330
3AC
100
AcDbEntity
  8
6
  6
Continuous
 62
     3
370
     9
100
AcDbLine
 10
1498.28746962168
 20
564.4716171457109
 30
0.0
 11
1498.28746962168
 21
463.8617245402296
 31
0.0
  0
LINE
  5
3B1
330
3AC
100
AcDbEntity
  8
6
  6
Continuous
 62
     3
370
     9
100
AcDbLine
 10
1338.287469621679
 20
471.8617245402296
 30
0.0
 11
1498.28746962168
 21
471.8617245402296
 31
0.0
  0
MTEXT
  5
3B2
330
3AC
100
AcDbEntity
  8
6
  6
Continuous
 62
     3
370
     9
100
AcDbMText
 10
1416.552293240467
 20
478.2617245402296
 30
0.0
 40
26.4
 41
288.552
 46
26.4
 71
     8
 72
     1
  1
160
  7
ＭＳ Ｐゴシック
 73
     1
 44
1.0
1001
ACAD
1000
ACAD_MTEXT_DEFINED_HEIGHT_BEGIN
1070
    46
1040
26.4
1000
ACAD_MTEXT_DEFINED_HEIGHT_END
  0
INSERT
  5
3B3
330
3AC
100
AcDbEntity
  8
6
  6
Continuous
 62
     3
370
     9
100
AcDbBlockReference
  2
_OPEN
 10
1338.287469621679
 20
471.8617245402296
 30
0.0
 41
18.4
 42
18.4
 43
18.4
 50
179.9999999999998
  0
INSERT
  5
3B4
330
3AC
100
AcDbEntity
  8
6
  6
Continuous
 62
     3
370
     9
100
AcDbBlockReference
  2
_OPEN
 10
1498.28746962168
 20
471.8617245402296
 30
0.0
 41
18.4
 42
18.4
 43
18.4
 50
359.9999999999997
  0
ENDBLK
  5
3AE
330
3AC
100
AcDbEntity
  8
0
100
AcDbBlockEnd
  0
BLOCK
  5
3B7
330
3B6
100
AcDbEntity
  8
0
100
AcDbBlockBegin
  2
Dim2
 70
     0
 10
0.0
 20
0.0
 30
0.0
  3
Dim2
  1
Dim2
  0
LINE
  5
3B9
330
3B6
100
AcDbEntity
  8
6
  6
Continuous
 62
     3
370
     9
100
AcDbLine
 10
1338.28746962168
 20
567.4716171457109
 30
0.0
 11
1338.28746962168
 21
521.512070373806
 31
0.0
  0
LINE
  5
3BA
330
3B6
100
AcDbEntity
  8
6
  6
Continuous
 62
     3
370
     9
100
AcDbLine
 10
1363.28746962168
 20
564.4716171457109
 30
0.0
 11
1363.287469621678
 21
521.512070373806
 31
0.0
  0
LINE
  5
3BB
330
3B6
100
AcDbEntity
  8
6
  6
Continuous
 62
     3
370
     9
100
AcDbLine
 10
1294.114434417962
 20
529.512070373806
 30
0.0
 11
1387.287469621679
 21
529.512070373806
 31
0.0
  0
MTEXT
  5
3BC
330
3B6
100
AcDbEntity
  8
6
  6
Continuous
 62
     3
370
     9
100
AcDbMText
 10
1320.514434417962
 20
534.2743408036924
 30
0.0
 40
26.4
 41
222.816
 46
26.4
 71
     9
 72
     1
  1
25
  7
ＭＳ Ｐゴシック
 73
     1
 44
1.0
1001
ACAD
1000
ACAD_MTEXT_DEFINED_HEIGHT_BEGIN
1070
    46
1040
26.4
1000
ACAD_MTEXT_DEFINED_HEIGHT_END
  0
INSERT
  5
3BD
330
3B6
100
AcDbEntity
  8
6
  6
Continuous
 62
     3
370
     9
100
AcDbBlockReference
  2
_OPEN
 10
1338.28746962168
 20
529.512070373806
 30
0.0
 41
18.4
 42
18.4
 43
18.4
 50
359.9999999999997
  0
INSERT
  5
3BE
330
3B6
100
AcDbEntity
  8
6
  6
Continuous
 62
     3
370
     9
100
AcDbBlockReference
  2
_OPEN
 10
1363.287469621679
 20
529.512070373806
 30
0.0
 41
18.4
 42
18.4
 43
18.4
 50
179.9999999999995
  0
ENDBLK
  5
3B8
330
3B6
100
AcDbEntity
  8
0
100
AcDbBlockEnd
  0
BLOCK
  5
3C1
330
3C0
100
AcDbEntity
  8
0
100
AcDbBlockBegin
  2
Dim3
 70
     0
 10
0.0
 20
0.0
 30
0.0
  3
Dim3
  1
Dim3
  0
LINE
  5
3C3
330
3C0
100
AcDbEntity
  8
6
  6
Continuous
 62
     3
370
     9
100
AcDbLine
 10
642.1985474062731
 20
564.4716171457109
 30
0.0
 11
642.1985474062731
 21
463.8617245402296
 31
0.0
  0
LINE
  5
3C4
330
3C0
100
AcDbEntity
  8
6
  6
Continuous
 62
     3
370
     9
100
AcDbLine
 10
1142.198547406273
 20
564.4716171457109
 30
0.0
 11
1142.198547406273
 21
463.8617245402296
 31
0.0
  0
LINE
  5
3C5
330
3C0
100
AcDbEntity
  8
6
  6
Continuous
 62
     3
370
     9
100
AcDbLine
 10
642.1985474062731
 20
471.8617245402296
 30
0.0
 11
1142.198547406273
 21
471.8617245402296
 31
0.0
  0
MTEXT
  5
3C6
330
3C0
100
AcDbEntity
  8
6
  6
Continuous
 62
     3
370
     9
100
AcDbMText
 10
895.9909284577407
 20
478.2617245402296
 30
0.0
 40
26.4
 41
310.992
 46
26.4
 71
     8
 72
     1
  1
500
  7
ＭＳ Ｐゴシック
 73
     1
 44
1.0
1001
ACAD
1000
ACAD_MTEXT_DEFINED_HEIGHT_BEGIN
1070
    46
1040
26.4
1000
ACAD_MTEXT_DEFINED_HEIGHT_END
  0
INSERT
  5
3C7
330
3C0
100
AcDbEntity
  8
6
  6
Continuous
 62
     3
370
     9
100
AcDbBlockReference
  2
_OPEN
 10
642.1985474062731
 20
471.8617245402296
 30
0.0
 41
18.4
 42
18.4
 43
18.4
 50
179.9999999999998
  0
INSERT
  5
3C8
330
3C0
100
AcDbEntity
  8
6
  6
Continuous
 62
     3
370
     9
100
AcDbBlockReference
  2
_OPEN
 10
1142.198547406273
 20
471.8617245402296
 30
0.0
 41
18.4
 42
18.4
 43
18.4
 50
359.9999999999997
  0
ENDBLK
  5
3C2
330
3C0
100
AcDbEntity
  8
0
100
AcDbBlockEnd
  0
BLOCK
  5
3CB
330
3CA
100
AcDbEntity
  8
0
100
AcDbBlockBegin
  2
Dim4
 70
     0
 10
0.0
 20
0.0
 30
0.0
  3
Dim4
  1
Dim4
  0
LINE
  5
3CD
330
3CA
100
AcDbEntity
  8
6
  6
Continuous
 62
     3
370
     9
100
AcDbLine
 10
2031.805582558061
 20
514.4716171457109
 30
0.0
 11
2031.805582558061
 21
463.8617245402296
 31
0.0
  0
LINE
  5
3CE
330
3CA
100
AcDbEntity
  8
6
  6
Continuous
 62
     3
370
     9
100
AcDbLine
 10
2151.805480895817
 20
841.9712286251084
 30
0.0
 11
2151.805480895815
 21
463.8617245402296
 31
0.0
  0
LINE
  5
3CF
330
3CA
100
AcDbEntity
  8
6
  6
Continuous
 62
     3
370
     9
100
AcDbLine
 10
2031.805582558061
 20
471.8617245402296
 30
0.0
 11
2151.805480895815
 21
471.8617245402296
 31
0.0
  0
MTEXT
  5
3D0
330
3CA
100
AcDbEntity
  8
6
  6
Continuous
 62
     3
370
     9
100
AcDbMText
 10
2090.93766613663
 20
478.2617245402296
 30
0.0
 40
26.4
 41
288.552
 46
26.4
 71
     8
 72
     1
  1
120
  7
ＭＳ Ｐゴシック
 73
     1
 44
1.0
1001
ACAD
1000
ACAD_MTEXT_DEFINED_HEIGHT_BEGIN
1070
    46
1040
26.4
1000
ACAD_MTEXT_DEFINED_HEIGHT_END
  0
INSERT
  5
3D1
330
3CA
100
AcDbEntity
  8
6
  6
Continuous
 62
     3
370
     9
100
AcDbBlockReference
  2
_OPEN
 10
2031.805582558061
 20
471.8617245402296
 30
0.0
 41
18.4
 42
18.4
 43
18.4
 50
179.9999999999998
  0
INSERT
  5
3D2
330
3CA
100
AcDbEntity
  8
6
  6
Continuous
 62
     3
370
     9
100
AcDbBlockReference
  2
_OPEN
 10
2151.805480895815
 20
471.8617245402296
 30
0.0
 41
18.4
 42
18.4
 43
18.4
 50
359.9999999999997
  0
ENDBLK
  5
3CC
330
3CA
100
AcDbEntity
  8
0
100
AcDbBlockEnd
  0
BLOCK
  5
3DD
330
3DC
100
AcDbEntity
  8
0
100
AcDbBlockBegin
  2
Dim5
 70
     0
 10
0.0
 20
0.0
 30
0.0
  3
Dim5
  1
Dim5
  0
LINE
  5
3DF
330
3DC
100
AcDbEntity
  8
6
  6
Continuous
 62
     3
370
     9
100
AcDbLine
 10
2289.805582558061
 20
1672.471617145711
 30
0.0
 11
2346.903628283178
 21
1672.471617145711
 31
0.0
  0
LINE
  5
3E0
330
3DC
100
AcDbEntity
  8
6
  6
Continuous
 62
     3
370
     9
100
AcDbLine
 10
2177.305480895817
 20
867.4712286251084
 30
0.0
 11
2346.903628283178
 21
867.4712286251084
 31
0.0
  0
LINE
  5
3E1
330
3DC
100
AcDbEntity
  8
6
  6
Continuous
 62
     3
370
     9
100
AcDbLine
 10
2338.903628283178
 20
1672.471617145711
 30
0.0
 11
2338.903628283178
 21
867.4712286251084
 31
0.0
  0
MTEXT
  5
3E2
330
3DC
100
AcDbEntity
  8
6
  6
Continuous
 62
     3
370
     9
100
AcDbMText
 10
2332.503628283179
 20
1266.823928716388
 30
0.0
 40
26.4
 41
332.9040000000001
 46
26.4
 71
     8
 72
     1
  1
805
  7
ＭＳ Ｐゴシック
 11
1.615544574432587E-15
 21
1.0
 31
0.0
 73
     1
 44
1.0
1001
ACAD
1000
ACAD_MTEXT_DEFINED_HEIGHT_BEGIN
1070
    46
1040
26.4
1000
ACAD_MTEXT_DEFINED_HEIGHT_END
  0
INSERT
  5
3E3
330
3DC
100
AcDbEntity
  8
6
  6
Continuous
 62
     3
370
     9
100
AcDbBlockReference
  2
_OPEN
 10
2338.903628283178
 20
1672.471617145711
 30
0.0
 41
18.4
 42
18.4
 43
18.4
 50
89.99999999999991
  0
INSERT
  5
3E4
330
3DC
100
AcDbEntity
  8
6
  6
Continuous
 62
     3
370
     9
100
AcDbBlockReference
  2
_OPEN
 10
2338.903628283178
 20
867.4712286251084
 30
0.0
 41
18.4
 42
18.4
 43
18.4
 50
269.9999999999998
  0
ENDBLK
  5
3DE
330
3DC
100
AcDbEntity
  8
0
100
AcDbBlockEnd
  0
BLOCK
  5
3E7
330
3E6
100
AcDbEntity
  8
0
100
AcDbBlockBegin
  2
Dim6
 70
     0
 10
0.0
 20
0.0
 30
0.0
  3
Dim6
  1
Dim6
  0
LINE
  5
3E9
330
3E6
100
AcDbEntity
  8
6
  6
Continuous
 62
     3
370
     9
100
AcDbLine
 10
1831.805582558064
 20
1612.471617145711
 30
0.0
 11
1831.805582558064
 21
1751.07787643023
 31
0.0
  0
LINE
  5
3EA
330
3E6
100
AcDbEntity
  8
6
  6
Continuous
 62
     3
370
     9
100
AcDbLine
 10
2231.805582558064
 20
1612.471617145711
 30
0.0
 11
2231.805582558064
 21
1751.07787643023
 31
0.0
  0
LINE
  5
3EB
330
3E6
100
AcDbEntity
  8
6
  6
Continuous
 62
     3
370
     9
100
AcDbLine
 10
1831.805582558064
 20
1743.07787643023
 30
0.0
 11
2231.805582558064
 21
1743.07787643023
 31
0.0
  0
MTEXT
  5
3EC
330
3E6
100
AcDbEntity
  8
6
  6
Continuous
 62
     3
370
     9
100
AcDbMText
 10
2030.112986766501
 20
1749.47787643023
 30
0.0
 40
26.4
 41
312.576
 46
26.4
 71
     8
 72
     1
  1
400
  7
ＭＳ Ｐゴシック
 73
     1
 44
1.0
1001
ACAD
1000
ACAD_MTEXT_DEFINED_HEIGHT_BEGIN
1070
    46
1040
26.4
1000
ACAD_MTEXT_DEFINED_HEIGHT_END
  0
INSERT
  5
3ED
330
3E6
100
AcDbEntity
  8
6
  6
Continuous
 62
     3
370
     9
100
AcDbBlockReference
  2
_OPEN
 10
1831.805582558064
 20
1743.07787643023
 30
0.0
 41
18.4
 42
18.4
 43
18.4
 50
179.9999999999998
  0
INSERT
  5
3EE
330
3E6
100
AcDbEntity
  8
6
  6
Continuous
 62
     3
370
     9
100
AcDbBlockReference
  2
_OPEN
 10
2231.805582558064
 20
1743.07787643023
 30
0.0
 41
18.4
 42
18.4
 43
18.4
 50
359.9999999999997
  0
ENDBLK
  5
3E8
330
3E6
100
AcDbEntity
  8
0
100
AcDbBlockEnd
  0
BLOCK
  5
3F1
330
3F0
100
AcDbEntity
  8
0
100
AcDbBlockBegin
  2
Dim7
 70
     0
 10
0.0
 20
0.0
 30
0.0
  3
Dim7
  1
Dim7
  0
LINE
  5
3F3
330
3F0
100
AcDbEntity
  8
6
  6
Continuous
 62
     3
370
     9
100
AcDbLine
 10
1506.287469621679
 20
1672.471617145711
 30
0.0
 11
1565.024372701443
 21
1672.471617145711
 31
0.0
  0
LINE
  5
3F4
330
3F0
100
AcDbEntity
  8
6
  6
Continuous
 62
     3
370
     9
100
AcDbLine
 10
1523.639787547715
 20
1589.471617145691
 30
0.0
 11
1565.024372701443
 21
1589.471617145691
 31
0.0
  0
LINE
  5
3F5
330
3F0
100
AcDbEntity
  8
6
  6
Continuous
 62
     3
370
     9
100
AcDbLine
 10
1557.024372701443
 20
1672.471617145711
 30
0.0
 11
1557.024372701443
 21
1589.471617145691
 31
0.0
  0
MTEXT
  5
3F6
330
3F0
100
AcDbEntity
  8
6
  6
Continuous
 62
     3
370
     9
100
AcDbMText
 10
1550.624372701443
 20
1627.936725188891
 30
0.0
 40
26.4
 41
222.816
 46
26.4
 71
     8
 72
     1
  1
83
  7
ＭＳ Ｐゴシック
 11
1.615544574432587E-15
 21
1.0
 31
0.0
 73
     1
 44
1.0
1001
ACAD
1000
ACAD_MTEXT_DEFINED_HEIGHT_BEGIN
1070
    46
1040
26.4
1000
ACAD_MTEXT_DEFINED_HEIGHT_END
  0
INSERT
  5
3F7
330
3F0
100
AcDbEntity
  8
6
  6
Continuous
 62
     3
370
     9
100
AcDbBlockReference
  2
_OPEN
 10
1557.024372701443
 20
1672.471617145711
 30
0.0
 41
18.4
 42
18.4
 43
18.4
 50
89.99999999999991
  0
INSERT
  5
3F8
330
3F0
100
AcDbEntity
  8
6
  6
Continuous
 62
     3
370
     9
100
AcDbBlockReference
  2
_OPEN
 10
1557.024372701443
 20
1589.471617145691
 30
0.0
 41
18.4
 42
18.4
 43
18.4
 50
269.9999999999998
  0
ENDBLK
  5
3F2
330
3F0
100
AcDbEntity
  8
0
100
AcDbBlockEnd
  0
BLOCK
  5
3FB
330
3FA
100
AcDbEntity
  8
0
100
AcDbBlockBegin
  2
Dim8
 70
     0
 10
0.0
 20
0.0
 30
0.0
  3
Dim8
  1
Dim8
  0
LINE
  5
3FD
330
3FA
100
AcDbEntity
  8
6
  6
Continuous
 62
     3
370
     9
100
AcDbLine
 10
1523.639787547715
 20
1589.471617145691
 30
0.0
 11
1565.024372701443
 21
1589.471617145691
 31
0.0
  0
LINE
  5
3FE
330
3FA
100
AcDbEntity
  8
6
  6
Continuous
 62
     3
370
     9
100
AcDbLine
 10
1523.639787547715
 20
612.4695514855517
 30
0.0
 11
1565.024372701444
 21
612.4695514855517
 31
0.0
  0
LINE
  5
3FF
330
3FA
100
AcDbEntity
  8
6
  6
Continuous
 62
     3
370
     9
100
AcDbLine
 10
1557.024372701443
 20
1589.471617145691
 30
0.0
 11
1557.024372701444
 21
612.4695514855517
 31
0.0
  0
MTEXT
  5
400
330
3FA
100
AcDbEntity
  8
6
  6
Continuous
 62
     3
370
     9
100
AcDbMText
 10
1550.624372701443
 20
1113.327880731239
 30
0.0
 40
26.4
 41
355.7400000000001
 46
26.4
 71
     8
 72
     1
  1
977
  7
ＭＳ Ｐゴシック
 11
2.281678389207681E-15
 21
1.0
 31
0.0
 73
     1
 44
1.0
1001
ACAD
1000
ACAD_MTEXT_DEFINED_HEIGHT_BEGIN
1070
    46
1040
26.4
1000
ACAD_MTEXT_DEFINED_HEIGHT_END
  0
INSERT
  5
401
330
3FA
100
AcDbEntity
  8
6
  6
Continuous
 62
     3
370
     9
100
AcDbBlockReference
  2
_OPEN
 10
1557.024372701443
 20
1589.471617145691
 30
0.0
 41
18.4
 42
18.4
 43
18.4
 50
89.99999999999987
  0
INSERT
  5
402
330
3FA
100
AcDbEntity
  8
6
  6
Continuous
 62
     3
370
     9
100
AcDbBlockReference
  2
_OPEN
 10
1557.024372701444
 20
612.4695514855517
 30
0.0
 41
18.4
 42
18.4
 43
18.4
 50
269.9999999999999
  0
ENDBLK
  5
3FC
330
3FA
100
AcDbEntity
  8
0
100
AcDbBlockEnd
  0
BLOCK
  5
415
330
414
100
AcDbEntity
  8
0
100
AcDbBlockBegin
  2
Dim9
 70
     0
 10
0.0
 20
0.0
 30
0.0
  3
Dim9
  1
Dim9
  0
LINE
  5
417
330
414
100
AcDbEntity
  8
6
  6
Continuous
 62
     3
370
     9
100
AcDbLine
 10
1481.287469621679
 20
564.4716171457109
 30
0.0
 11
1481.287469621679
 21
521.512070373806
 31
0.0
  0
LINE
  5
418
330
414
100
AcDbEntity
  8
6
  6
Continuous
 62
     3
370
     9
100
AcDbLine
 10
1498.28746962168
 20
564.4716171457109
 30
0.0
 11
1498.28746962168
 21
521.512070373806
 31
0.0
  0
LINE
  5
419
330
414
100
AcDbEntity
  8
6
  6
Continuous
 62
     3
370
     9
100
AcDbLine
 10
1457.287469621679
 20
529.512070373806
 30
0.0
 11
1545.524707058826
 21
529.512070373806
 31
0.0
  0
MTEXT
  5
41A
330
414
100
AcDbEntity
  8
6
  6
Continuous
 62
     3
370
     9
100
AcDbMText
 10
1519.124707058826
 20
535.9120703738059
 30
0.0
 40
26.4
 41
179.388
 46
26.4
 71
     7
 72
     1
  1
17
  7
ＭＳ Ｐゴシック
 73
     1
 44
1.0
1001
ACAD
1000
ACAD_MTEXT_DEFINED_HEIGHT_BEGIN
1070
    46
1040
26.4
1000
ACAD_MTEXT_DEFINED_HEIGHT_END
  0
INSERT
  5
41B
330
414
100
AcDbEntity
  8
6
  6
Continuous
 62
     3
370
     9
100
AcDbBlockReference
  2
_OPEN
 10
1481.287469621679
 20
529.512070373806
 30
0.0
 41
18.4
 42
18.4
 43
18.4
 50
359.9999999999997
  0
INSERT
  5
41C
330
414
100
AcDbEntity
  8
6
  6
Continuous
 62
     3
370
     9
100
AcDbBlockReference
  2
_OPEN
 10
1498.28746962168
 20
529.512070373806
 30
0.0
 41
18.4
 42
18.4
 43
18.4
 50
179.9999999999995
  0
ENDBLK
  5
416
330
414
100
AcDbEntity
  8
0
100
AcDbBlockEnd
  0
BLOCK
  5
427
330
426
100
AcDbEntity
  8
0
100
AcDbBlockBegin
  2
Dim10
 70
     0
 10
0.0
 20
0.0
 30
0.0
  3
Dim10
  1
Dim10
  0
LINE
  5
429
330
426
100
AcDbEntity
  8
6
  6
Continuous
 62
     3
370
     9
100
AcDbLine
 10
1773.805582558065
 20
1672.471617145711
 30
0.0
 11
1710.47955443812
 21
1672.471617145711
 31
0.0
  0
LINE
  5
42A
330
426
100
AcDbEntity
  8
6
  6
Continuous
 62
     3
370
     9
100
AcDbLine
 10
1951.305590773298
 20
820.4712674489962
 30
0.0
 11
1710.47955443812
 21
820.4712674489967
 31
0.0
  0
LINE
  5
42B
330
426
100
AcDbEntity
  8
6
  6
Continuous
 62
     3
370
     9
100
AcDbLine
 10
1718.47955443812
 20
1672.471617145711
 30
0.0
 11
1718.47955443812
 21
820.4712674489967
 31
0.0
  0
MTEXT
  5
42C
330
426
100
AcDbEntity
  8
6
  6
Continuous
 62
     3
370
     9
100
AcDbMText
 10
1712.079554438121
 20
1264.821794745531
 30
0.0
 40
26.4
 41
354.816
 46
26.4
 71
     8
 72
     1
  1
852
  7
ＭＳ Ｐゴシック
 11
1.615544574432587E-15
 21
1.0
 31
0.0
 73
     1
 44
1.0
1001
ACAD
1000
ACAD_MTEXT_DEFINED_HEIGHT_BEGIN
1070
    46
1040
26.4
1000
ACAD_MTEXT_DEFINED_HEIGHT_END
  0
INSERT
  5
42D
330
426
100
AcDbEntity
  8
6
  6
Continuous
 62
     3
370
     9
100
AcDbBlockReference
  2
_OPEN
 10
1718.47955443812
 20
1672.471617145711
 30
0.0
 41
18.4
 42
18.4
 43
18.4
 50
89.99999999999991
  0
INSERT
  5
42E
330
426
100
AcDbEntity
  8
6
  6
Continuous
 62
     3
370
     9
100
AcDbBlockReference
  2
_OPEN
 10
1718.47955443812
 20
820.4712674489967
 30
0.0
 41
18.4
 42
18.4
 43
18.4
 50
269.9999999999998
  0
ENDBLK
  5
428
330
426
100
AcDbEntity
  8
0
100
AcDbBlockEnd
  0
BLOCK
  5
431
330
430
100
AcDbEntity
  8
0
100
AcDbBlockBegin
  2
Dim11
 70
     0
 10
0.0
 20
0.0
 30
0.0
  3
Dim11
  1
Dim11
  0
LINE
  5
433
330
430
100
AcDbEntity
  8
6
  6
Continuous
 62
     3
370
     9
100
AcDbLine
 10
1150.198547406273
 20
572.4716171457109
 30
0.0
 11
1218.931756889497
 21
572.4716171457109
 31
0.0
  0
LINE
  5
434
330
430
100
AcDbEntity
  8
6
  6
Continuous
 62
     3
370
     9
100
AcDbLine
 10
1150.198547406273
 20
1672.471617145711
 30
0.0
 11
1218.931756889497
 21
1672.471617145711
 31
0.0
  0
LINE
  5
435
330
430
100
AcDbEntity
  8
6
  6
Continuous
 62
     3
370
     9
100
AcDbLine
 10
1210.931756889497
 20
572.4716171457109
 30
0.0
 11
1210.931756889497
 21
1672.471617145711
 31
0.0
  0
MTEXT
  5
436
330
430
100
AcDbEntity
  8
6
  6
Continuous
 62
     3
370
     9
100
AcDbMText
 10
1204.531756889497
 20
1111.936785556617
 30
0.0
 40
26.4
 41
354.684
 46
26.4
 71
     8
 72
     1
  1
1100
  7
ＭＳ Ｐゴシック
 11
1.615544574432587E-15
 21
1.0
 31
0.0
 73
     1
 44
1.0
1001
ACAD
1000
ACAD_MTEXT_DEFINED_HEIGHT_BEGIN
1070
    46
1040
26.4
1000
ACAD_MTEXT_DEFINED_HEIGHT_END
  0
INSERT
  5
437
330
430
100
AcDbEntity
  8
6
  6
Continuous
 62
     3
370
     9
100
AcDbBlockReference
  2
_OPEN
 10
1210.931756889497
 20
572.4716171457109
 30
0.0
 41
18.4
 42
18.4
 43
18.4
 50
269.9999999999998
  0
INSERT
  5
438
330
430
100
AcDbEntity
  8
6
  6
Continuous
 62
     3
370
     9
100
AcDbBlockReference
  2
_OPEN
 10
1210.931756889497
 20
1672.471617145711
 30
0.0
 41
18.4
 42
18.4
 43
18.4
 50
89.99999999999991
  0
ENDBLK
  5
432
330
430
100
AcDbEntity
  8
0
100
AcDbBlockEnd
  0
ENDSEC
  0
SECTION
  2
ENTITIES
  0
LINE
  5
E3
330
1F
100
AcDbEntity
  8
12
  6
Continuous
 62
     5
370
    53
100
AcDbLine
 10
0.0
 20
2184.000000000002
 30
0.0
 11
2895.999988416
 21
2184.000000000002
 31
0.0
  0
LINE
  5
E4
330
1F
100
AcDbEntity
  8
12
  6
Continuous
 62
     5
370
    53
100
AcDbLine
 10
2895.999988416
 20
0.0
 30
0.0
 11
0.0
 21
0.0
 31
0.0
  0
LINE
  5
E5
330
1F
100
AcDbEntity
  8
12
  6
Continuous
 62
     5
370
    53
100
AcDbLine
 10
0.0
 20
2184.000000000002
 30
0.0
 11
0.0
 21
0.0
 31
0.0
  0
LINE
  5
E6
330
1F
100
AcDbEntity
  8
12
  6
Continuous
 62
     5
370
    53
100
AcDbLine
 10
0.0
 20
0.0
 30
0.0
 11
0.0
 21
2184.000000000002
 31
0.0
  0
LINE
  5
E7
330
1F
100
AcDbEntity
  8
12
  6
Continuous
 62
     5
370
    53
100
AcDbLine
 10
2895.999988416
 20
2184.000000000002
 30
0.0
 11
2895.999988416
 21
0.0
 31
0.0
  0
MTEXT
  5
E8
330
1F
100
AcDbEntity
  8
9
  6
Continuous
 62
     7
370
     9
100
AcDbMText
 10
2823.352351816229
 20
26.84522403045148
 30
0.0
 40
22.0
 41
93.40763736303998
 46
22.0
 71
     5
 72
     1
  1
{\fＭＳ Ｐゴシック;\W0.714286;A3 1/8}
 73
     1
 44
1.0
1001
ACAD
1000
ACAD_MTEXT_DEFINED_HEIGHT_BEGIN
1070
    46
1040
22.0
1000
ACAD_MTEXT_DEFINED_HEIGHT_END
  0
MTEXT
  5
E9
330
1F
100
AcDbEntity
  8
9
  6
Continuous
 62
     7
370
     9
100
AcDbMText
 10
2581.397231113086
 20
204.5376669526566
 30
0.0
 40
30.8
 41
801.8061607223362
 46
30.8
 71
     5
 72
     1
  1
{\fＭＳ Ｐゴシック;\W0.714286;プリアクション制御盤（5回線、予作動式用）}
 73
     1
 44
1.0
1001
ACAD
1000
ACAD_MTEXT_DEFINED_HEIGHT_BEGIN
1070
    46
1040
30.8
1000
ACAD_MTEXT_DEFINED_HEIGHT_END
  0
LINE
  5
EA
330
1F
100
AcDbEntity
  8
6
  6
Continuous
 62
     3
370
    25
100
AcDbLine
 10
2578.57169989956
 20
136.2000635640683
 30
0.0
 11
2848.4114850094
 21
136.2000635640683
 31
0.0
  0
MTEXT
  5
EB
330
1F
100
AcDbEntity
  8
9
  6
Continuous
 62
     7
370
     9
100
AcDbMText
 10
2713.379472116209
 20
151.6000635640683
 30
0.0
 40
30.8
 41
358.0730232291521
 46
30.8
 71
     5
 72
     1
  1
{\fＭＳ Ｐゴシック;\W0.714286;SDP-5L, SDP-5LA}
 73
     1
 44
1.0
1001
ACAD
1000
ACAD_MTEXT_DEFINED_HEIGHT_BEGIN
1070
    46
1040
30.8
1000
ACAD_MTEXT_DEFINED_HEIGHT_END
  0
LINE
  5
EC
330
1F
100
AcDbEntity
  8
6
  6
Continuous
 62
     3
370
    25
100
AcDbLine
 10
2578.57169989956
 20
92.68206669395873
 30
0.0
 11
2848.4114850094
 21
92.68206669395873
 31
0.0
  0
MTEXT
  5
ED
330
1F
100
AcDbEntity
  8
9
  6
Continuous
 62
     7
370
     9
100
AcDbMText
 10
2713.379472116209
 20
108.0820666939588
 30
0.0
 40
30.8
 41
366.5703066280639
 46
30.8
 71
     5
 72
     1
  1
{\fＭＳ Ｐゴシック;\W0.714286;SWP-5L, SWP-5LA}
 73
     1
 44
1.0
1001
ACAD
1000
ACAD_MTEXT_DEFINED_HEIGHT_BEGIN
1070
    46
1040
30.8
1000
ACAD_MTEXT_DEFINED_HEIGHT_END
  0
LINE
  5
EE
330
1F
100
AcDbEntity
  8
11
  6
HIDDEN
 62
     2
370
    25
100
AcDbLine
 10
1498.28746962168
 20
574.0716171457094
 30
0.0
 11
1498.28746962168
 21
575.6716171457116
 31
0.0
  0
LINE
  5
EF
330
1F
100
AcDbEntity
  8
9
  6
Continuous
 62
     7
370
    35
100
AcDbLine
 10
642.1985474062731
 20
1672.471617145711
 30
0.0
 11
642.1985474062731
 21
572.4716171457109
 31
0.0
  0
LINE
  5
F0
330
1F
100
AcDbEntity
  8
9
  6
Continuous
 62
     7
370
    35
100
AcDbLine
 10
1142.198547406273
 20
572.4716171457109
 30
0.0
 11
1142.198547406273
 21
1672.471617145711
 31
0.0
  0
LINE
  5
F1
330
1F
100
AcDbEntity
  8
9
  6
Continuous
 62
     7
370
    35
100
AcDbLine
 10
1142.198547406273
 20
1672.471617145711
 30
0.0
 11
642.1985474062731
 21
1672.471617145711
 31
0.0
  0
LINE
  5
F2
330
1F
100
AcDbEntity
  8
9
  6
Continuous
 62
     7
370
    35
100
AcDbLine
 10
1142.198547406273
 20
572.4716171457109
 30
0.0
 11
642.1985474062731
 21
572.4716171457109
 31
0.0
  0
LINE
  5
F3
330
1F
100
AcDbEntity
  8
9
  6
Continuous
 62
     7
370
    35
100
AcDbLine
 10
1139.198547406273
 20
1669.471617145711
 30
0.0
 11
1139.198547406273
 21
575.4716171457109
 31
0.0
  0
LINE
  5
F4
330
1F
100
AcDbEntity
  8
9
  6
Continuous
 62
     7
370
    35
100
AcDbLine
 10
1139.198547406273
 20
1669.471617145711
 30
0.0
 11
645.1985474062731
 21
1669.471617145711
 31
0.0
  0
LINE
  5
F5
330
1F
100
AcDbEntity
  8
9
  6
Continuous
 62
     7
370
    35
100
AcDbLine
 10
645.1985474062731
 20
1669.471617145711
 30
0.0
 11
645.1985474062731
 21
575.4716171457109
 31
0.0
  0
LINE
  5
F6
330
1F
100
AcDbEntity
  8
9
  6
Continuous
 62
     7
370
    35
100
AcDbLine
 10
1139.198547406273
 20
575.4716171457109
 30
0.0
 11
645.1985474062731
 21
575.4716171457109
 31
0.0
  0
LINE
  5
F7
330
1F
100
AcDbEntity
  8
9
  6
Continuous
 62
     7
370
    35
100
AcDbLine
 10
671.2985474062716
 20
1128.403733125696
 30
0.0
 11
671.2985474062716
 21
1116.539501165725
 31
0.0
  0
LINE
  5
F8
330
1F
100
AcDbEntity
  8
9
  6
Continuous
 62
     7
370
    35
100
AcDbLine
 10
673.0985474062727
 20
1128.403733125696
 30
0.0
 11
673.0985474062709
 21
1116.539501165725
 31
0.0
  0
CIRCLE
  5
F9
330
1F
100
AcDbEntity
  8
9
  6
Continuous
 62
     7
370
    35
100
AcDbCircle
 10
672.1985474062731
 20
1122.471617145711
 30
0.0
 40
9.0
  0
CIRCLE
  5
FA
330
1F
100
AcDbEntity
  8
9
  6
Continuous
 62
     7
370
    35
100
AcDbCircle
 10
672.1985474062731
 20
1122.471617145711
 30
0.0
 40
6.0
  0
LINE
  5
FB
330
1F
100
AcDbEntity
  8
5
  6
Continuous
 62
     4
370
    25
100
AcDbLine
 10
712.1985474062731
 20
1557.471617145711
 30
0.0
 11
712.1985474062731
 21
1359.221617145714
 31
0.0
  0
LINE
  5
FC
330
1F
100
AcDbEntity
  8
5
  6
Continuous
 62
     4
370
    25
100
AcDbLine
 10
1072.198547406273
 20
1359.221617145714
 30
0.0
 11
1072.198547406273
 21
1557.471617145711
 31
0.0
  0
LINE
  5
FD
330
1F
100
AcDbEntity
  8
5
  6
Continuous
 62
     4
370
    25
100
AcDbLine
 10
1070.198547406273
 20
1559.471617145711
 30
0.0
 11
714.1985474062731
 21
1559.471617145711
 31
0.0
  0
ARC
  5
FE
330
1F
100
AcDbEntity
  8
5
  6
Continuous
 62
     4
370
    25
100
AcDbCircle
 10
714.1985474062731
 20
1557.471617145711
 30
0.0
 40
2.0
100
AcDbArc
 50
89.99999999999991
 51
179.9999999999998
  0
ARC
  5
FF
330
1F
100
AcDbEntity
  8
5
  6
Continuous
 62
     4
370
    25
100
AcDbCircle
 10
1070.198547406273
 20
1557.471617145711
 30
0.0
 40
2.0
100
AcDbArc
 50
0.0
 51
89.99999999999991
  0
LINE
  5
100
330
1F
100
AcDbEntity
  8
5
  6
Continuous
 62
     4
370
    25
100
AcDbLine
 10
1072.198547406273
 20
1359.221617145714
 30
0.0
 11
712.1985474062731
 21
1359.221617145714
 31
0.0
  0
LINE
  5
101
330
1F
100
AcDbEntity
  8
5
  6
Continuous
 62
     4
370
    25
100
AcDbLine
 10
1072.198547406273
 20
1403.721617145714
 30
0.0
 11
712.1985474062731
 21
1403.721617145714
 31
0.0
  0
LINE
  5
102
330
1F
100
AcDbEntity
  8
5
  6
Continuous
 62
     4
370
    25
100
AcDbLine
 10
712.1985474062731
 20
1349.221617145714
 30
0.0
 11
712.1985474062731
 21
1393.721617145714
 31
0.0
  0
LINE
  5
103
330
1F
100
AcDbEntity
  8
5
  6
Continuous
 62
     4
370
    25
100
AcDbLine
 10
1072.198547406273
 20
1349.221617145714
 30
0.0
 11
1072.198547406273
 21
1393.721617145714
 31
0.0
  0
LINE
  5
104
330
1F
100
AcDbEntity
  8
5
  6
Continuous
 62
     4
370
    25
100
AcDbLine
 10
712.1985474062731
 20
1537.221617145715
 30
0.0
 11
1072.198547406273
 21
1537.221617145715
 31
0.0
  0
LINE
  5
105
330
1F
100
AcDbEntity
  8
5
  6
Continuous
 62
     4
370
    25
100
AcDbLine
 10
712.1985474062731
 20
1393.721617145714
 30
0.0
 11
712.1985474062731
 21
1527.221617145715
 31
0.0
  0
LINE
  5
106
330
1F
100
AcDbEntity
  8
5
  6
Continuous
 62
     4
370
    25
100
AcDbLine
 10
1072.198547406273
 20
1393.721617145714
 30
0.0
 11
1072.198547406273
 21
1527.221617145715
 31
0.0
  0
LINE
  5
107
330
1F
100
AcDbEntity
  8
5
  6
Continuous
 62
     4
370
    25
100
AcDbLine
 10
1072.198547406273
 20
1359.221617145714
 30
0.0
 11
712.1985474062731
 21
1359.221617145714
 31
0.0
  0
LINE
  5
108
330
1F
100
AcDbEntity
  8
5
  6
Continuous
 62
     4
370
    25
100
AcDbLine
 10
712.1985474062731
 20
1359.221617145714
 30
0.0
 11
712.1985474062731
 21
1188.471617145711
 31
0.0
  0
ARC
  5
109
330
1F
100
AcDbEntity
  8
5
  6
Continuous
 62
     4
370
    25
100
AcDbCircle
 10
714.1985474062731
 20
1188.471617145711
 30
0.0
 40
2.0
100
AcDbArc
 50
179.9999999999998
 51
269.9999999999998
  0
LINE
  5
10A
330
1F
100
AcDbEntity
  8
5
  6
Continuous
 62
     4
370
    25
100
AcDbLine
 10
714.1985474062731
 20
1186.471617145711
 30
0.0
 11
1070.198547406273
 21
1186.471617145711
 31
0.0
  0
ARC
  5
10B
330
1F
100
AcDbEntity
  8
5
  6
Continuous
 62
     4
370
    25
100
AcDbCircle
 10
1070.198547406273
 20
1188.471617145711
 30
0.0
 40
2.0
100
AcDbArc
 50
269.9999999999998
 51
0.0
  0
LINE
  5
10C
330
1F
100
AcDbEntity
  8
5
  6
Continuous
 62
     4
370
    25
100
AcDbLine
 10
1072.198547406273
 20
1359.221617145714
 30
0.0
 11
1072.198547406273
 21
1188.471617145711
 31
0.0
  0
LINE
  5
10D
330
1F
100
AcDbEntity
  8
5
  6
Continuous
 62
     4
370
    25
100
AcDbLine
 10
711.1985474062767
 20
1173.471617145711
 30
0.0
 11
711.1985474062767
 21
1038.471617145711
 31
0.0
  0
LINE
  5
10E
330
1F
100
AcDbEntity
  8
5
  6
Continuous
 62
     4
370
    25
100
AcDbLine
 10
1073.198547406275
 20
1173.471617145711
 30
0.0
 11
1073.198547406275
 21
1038.471617145711
 31
0.0
  0
ARC
  5
10F
330
1F
100
AcDbEntity
  8
5
  6
Continuous
 62
     4
370
    25
100
AcDbCircle
 10
1070.198547406275
 20
1038.471617145711
 30
0.0
 40
3.0
100
AcDbArc
 50
269.9999999999998
 51
0.0
  0
ARC
  5
110
330
1F
100
AcDbEntity
  8
5
  6
Continuous
 62
     4
370
    25
100
AcDbCircle
 10
1070.198547406275
 20
1173.471617145711
 30
0.0
 40
3.0
100
AcDbArc
 50
0.0
 51
89.99999999999991
  0
LINE
  5
111
330
1F
100
AcDbEntity
  8
5
  6
Continuous
 62
     4
370
    25
100
AcDbLine
 10
714.1985474062767
 20
1176.471617145711
 30
0.0
 11
1070.198547406275
 21
1176.471617145711
 31
0.0
  0
ARC
  5
112
330
1F
100
AcDbEntity
  8
5
  6
Continuous
 62
     4
370
    25
100
AcDbCircle
 10
714.1985474062767
 20
1173.471617145711
 30
0.0
 40
3.0
100
AcDbArc
 50
89.99999999999991
 51
179.9999999999998
  0
LINE
  5
113
330
1F
100
AcDbEntity
  8
5
  6
Continuous
 62
     4
370
    25
100
AcDbLine
 10
714.1985474062767
 20
1035.471617145711
 30
0.0
 11
1070.198547406275
 21
1035.471617145711
 31
0.0
  0
ARC
  5
114
330
1F
100
AcDbEntity
  8
5
  6
Continuous
 62
     4
370
    25
100
AcDbCircle
 10
714.1985474062767
 20
1038.471617145711
 30
0.0
 40
3.0
100
AcDbArc
 50
179.9999999999998
 51
269.9999999999998
  0
LINE
  5
115
330
1F
100
AcDbEntity
  8
5
  6
Continuous
 62
     4
370
    25
100
AcDbLine
 10
867.1985474062731
 20
1506.471617145714
 30
0.0
 11
867.1985474062731
 21
1518.471617145715
 31
0.0
  0
ARC
  5
116
330
1F
100
AcDbEntity
  8
5
  6
Continuous
 62
     4
370
    25
100
AcDbCircle
 10
868.1985474062731
 20
1518.471617145715
 30
0.0
 40
1.0
100
AcDbArc
 50
89.99999999999991
 51
179.9999999999998
  0
LINE
  5
117
330
1F
100
AcDbEntity
  8
5
  6
Continuous
 62
     4
370
    25
100
AcDbLine
 10
917.1985474062731
 20
1518.471617145715
 30
0.0
 11
917.1985474062731
 21
1506.471617145714
 31
0.0
  0
ARC
  5
118
330
1F
100
AcDbEntity
  8
5
  6
Continuous
 62
     4
370
    25
100
AcDbCircle
 10
916.1985474062731
 20
1518.471617145715
 30
0.0
 40
1.0
100
AcDbArc
 50
0.0
 51
89.99999999999991
  0
LINE
  5
119
330
1F
100
AcDbEntity
  8
5
  6
Continuous
 62
     4
370
    25
100
AcDbLine
 10
916.1985474062731
 20
1505.471617145714
 30
0.0
 11
868.1985474062731
 21
1505.471617145714
 31
0.0
  0
ARC
  5
11A
330
1F
100
AcDbEntity
  8
5
  6
Continuous
 62
     4
370
    25
100
AcDbCircle
 10
916.1985474062731
 20
1506.471617145714
 30
0.0
 40
1.0
100
AcDbArc
 50
269.9999999999998
 51
0.0
  0
ARC
  5
11B
330
1F
100
AcDbEntity
  8
5
  6
Continuous
 62
     4
370
    25
100
AcDbCircle
 10
868.1985474062731
 20
1506.471617145714
 30
0.0
 40
1.0
100
AcDbArc
 50
179.9999999999998
 51
269.9999999999998
  0
LINE
  5
11C
330
1F
100
AcDbEntity
  8
5
  6
Continuous
 62
     4
370
    25
100
AcDbLine
 10
916.1985474062731
 20
1519.471617145714
 30
0.0
 11
868.1985474062731
 21
1519.471617145714
 31
0.0
  0
LINE
  5
11D
330
1F
100
AcDbEntity
  8
5
  6
Continuous
 62
     4
370
    25
100
AcDbLine
 10
865.1985474062731
 20
1408.471617145714
 30
0.0
 11
919.1985474062731
 21
1408.471617145714
 31
0.0
  0
ARC
  5
11E
330
1F
100
AcDbEntity
  8
5
  6
Continuous
 62
     4
370
    25
100
AcDbCircle
 10
919.1985474062731
 20
1411.471617145715
 30
0.0
 40
3.0
100
AcDbArc
 50
269.9999999999998
 51
0.0
  0
LINE
  5
11F
330
1F
100
AcDbEntity
  8
5
  6
Continuous
 62
     4
370
    25
100
AcDbLine
 10
862.1985474062731
 20
1411.471617145715
 30
0.0
 11
862.1985474062731
 21
1529.471617145714
 31
0.0
  0
ARC
  5
120
330
1F
100
AcDbEntity
  8
5
  6
Continuous
 62
     4
370
    25
100
AcDbCircle
 10
865.1985474062731
 20
1411.471617145715
 30
0.0
 40
3.0
100
AcDbArc
 50
179.9999999999998
 51
269.9999999999998
  0
ARC
  5
121
330
1F
100
AcDbEntity
  8
5
  6
Continuous
 62
     4
370
    25
100
AcDbCircle
 10
865.1985474062731
 20
1529.471617145714
 30
0.0
 40
3.0
100
AcDbArc
 50
89.99999999999991
 51
179.9999999999998
  0
LINE
  5
122
330
1F
100
AcDbEntity
  8
5
  6
Continuous
 62
     4
370
    25
100
AcDbLine
 10
922.1985474062731
 20
1411.471617145715
 30
0.0
 11
922.1985474062731
 21
1529.471617145714
 31
0.0
  0
ARC
  5
123
330
1F
100
AcDbEntity
  8
5
  6
Continuous
 62
     4
370
    25
100
AcDbCircle
 10
919.1985474062731
 20
1529.471617145714
 30
0.0
 40
3.0
100
AcDbArc
 50
0.0
 51
89.99999999999991
  0
LINE
  5
124
330
1F
100
AcDbEntity
  8
5
  6
Continuous
 62
     4
370
    25
100
AcDbLine
 10
865.1985474062731
 20
1532.471617145715
 30
0.0
 11
919.1985474062731
 21
1532.471617145715
 31
0.0
  0
CIRCLE
  5
125
330
1F
100
AcDbEntity
  8
5
  6
Continuous
 62
     4
370
    25
100
AcDbCircle
 10
874.6985474062731
 20
1473.471616710315
 30
0.0
 40
3.0
  0
CIRCLE
  5
126
330
1F
100
AcDbEntity
  8
5
  6
Continuous
 62
     4
370
    25
100
AcDbCircle
 10
874.6985474062731
 20
1483.471616710315
 30
0.0
 40
3.0
  0
MTEXT
  5
127
330
1F
100
AcDbEntity
  8
5
  6
Continuous
 62
     4
370
     9
100
AcDbMText
 10
908.700773735336
 20
1483.471616710315
 30
0.0
 40
6.050000000000001
 41
8.050997506112001
 46
6.050000000000001
 71
     5
 72
     1
  1
{\fＭＳ Ｐゴシック;\W0.714286;水}
 73
     1
 44
1.0
1001
ACAD
1000
ACAD_MTEXT_DEFINED_HEIGHT_BEGIN
1070
    46
1040
6.050000000000001
1000
ACAD_MTEXT_DEFINED_HEIGHT_END
  0
MTEXT
  5
128
330
1F
100
AcDbEntity
  8
5
  6
Continuous
 62
     4
370
     9
100
AcDbMText
 10
884.700773735336
 20
1483.471616710315
 30
0.0
 40
6.050000000000001
 41
8.050997506112001
 46
6.050000000000001
 71
     5
 72
     1
  1
{\fＭＳ Ｐゴシック;\W0.714286;流}
 73
     1
 44
1.0
1001
ACAD
1000
ACAD_MTEXT_DEFINED_HEIGHT_BEGIN
1070
    46
1040
6.050000000000001
1000
ACAD_MTEXT_DEFINED_HEIGHT_END
  0
CIRCLE
  5
129
330
1F
100
AcDbEntity
  8
5
  6
Continuous
 62
     4
370
    25
100
AcDbCircle
 10
874.6985474062731
 20
1463.471616710315
 30
0.0
 40
3.0
  0
MTEXT
  5
12A
330
1F
100
AcDbEntity
  8
5
  6
Continuous
 62
     4
370
     9
100
AcDbMText
 10
908.700773735336
 20
1463.471616710315
 30
0.0
 40
6.050000000000001
 41
8.22281757484
 46
6.050000000000001
 71
     5
 72
     1
  1
{\fＭＳ Ｐゴシック;\W0.714286;減}
 73
     1
 44
1.0
1001
ACAD
1000
ACAD_MTEXT_DEFINED_HEIGHT_BEGIN
1070
    46
1040
6.050000000000001
1000
ACAD_MTEXT_DEFINED_HEIGHT_END
  0
MTEXT
  5
12B
330
1F
100
AcDbEntity
  8
5
  6
Continuous
 62
     4
370
     9
100
AcDbMText
 10
900.700773735336
 20
1463.471616710315
 30
0.0
 40
6.050000000000001
 41
7.842358851228001
 46
6.050000000000001
 71
     5
 72
     1
  1
{\fＭＳ Ｐゴシック;\W0.714286;圧}
 73
     1
 44
1.0
1001
ACAD
1000
ACAD_MTEXT_DEFINED_HEIGHT_BEGIN
1070
    46
1040
6.050000000000001
1000
ACAD_MTEXT_DEFINED_HEIGHT_END
  0
MTEXT
  5
12C
330
1F
100
AcDbEntity
  8
5
  6
Continuous
 62
     4
370
     9
100
AcDbMText
 10
892.700773735336
 20
1463.471616710315
 30
0.0
 40
6.050000000000001
 41
8.050997506112001
 46
6.050000000000001
 71
     5
 72
     1
  1
{\fＭＳ Ｐゴシック;\W0.714286;次}
 73
     1
 44
1.0
1001
ACAD
1000
ACAD_MTEXT_DEFINED_HEIGHT_BEGIN
1070
    46
1040
6.050000000000001
1000
ACAD_MTEXT_DEFINED_HEIGHT_END
  0
MTEXT
  5
12D
330
1F
100
AcDbEntity
  8
5
  6
Continuous
 62
     4
370
     9
100
AcDbMText
 10
884.700773735336
 20
1463.471616710315
 30
0.0
 40
6.050000000000001
 41
3.552993564054001
 46
6.050000000000001
 71
     5
 72
     1
  1
{\fＭＳ Ｐゴシック;\W0.714286;2}
 73
     1
 44
1.0
1001
ACAD
1000
ACAD_MTEXT_DEFINED_HEIGHT_BEGIN
1070
    46
1040
6.050000000000001
1000
ACAD_MTEXT_DEFINED_HEIGHT_END
  0
ARC
  5
12E
330
1F
100
AcDbEntity
  8
5
  6
Continuous
 62
     4
370
    25
100
AcDbCircle
 10
874.1985474062731
 20
1483.471618016515
 30
0.0
 40
4.5
100
AcDbArc
 50
89.99999999999991
 51
269.9999999999998
  0
LINE
  5
12F
330
1F
100
AcDbEntity
  8
5
  6
Continuous
 62
     4
370
    25
100
AcDbLine
 10
874.1985474062731
 20
1487.971618016515
 30
0.0
 11
911.1985474062731
 21
1487.971618016515
 31
0.0
  0
LINE
  5
130
330
1F
100
AcDbEntity
  8
5
  6
Continuous
 62
     4
370
    25
100
AcDbLine
 10
874.1985474062731
 20
1478.971618016515
 30
0.0
 11
911.1985474062731
 21
1478.971618016515
 31
0.0
  0
ARC
  5
131
330
1F
100
AcDbEntity
  8
5
  6
Continuous
 62
     4
370
    25
100
AcDbCircle
 10
911.1985474062731
 20
1483.471618016515
 30
0.0
 40
4.5
100
AcDbArc
 50
269.9999999999998
 51
89.99999999999991
  0
ARC
  5
132
330
1F
100
AcDbEntity
  8
5
  6
Continuous
 62
     4
370
    25
100
AcDbCircle
 10
874.1985474062731
 20
1473.471617581114
 30
0.0
 40
4.5
100
AcDbArc
 50
89.99999999999991
 51
269.9999999999998
  0
LINE
  5
133
330
1F
100
AcDbEntity
  8
5
  6
Continuous
 62
     4
370
    25
100
AcDbLine
 10
874.1985474062731
 20
1477.971617581114
 30
0.0
 11
911.1985474062731
 21
1477.971617581114
 31
0.0
  0
LINE
  5
134
330
1F
100
AcDbEntity
  8
5
  6
Continuous
 62
     4
370
    25
100
AcDbLine
 10
874.1985474062731
 20
1468.971617581114
 30
0.0
 11
911.1985474062731
 21
1468.971617581114
 31
0.0
  0
ARC
  5
135
330
1F
100
AcDbEntity
  8
5
  6
Continuous
 62
     4
370
    25
100
AcDbCircle
 10
911.1985474062731
 20
1473.471617581114
 30
0.0
 40
4.5
100
AcDbArc
 50
269.9999999999998
 51
89.99999999999991
  0
ARC
  5
136
330
1F
100
AcDbEntity
  8
5
  6
Continuous
 62
     4
370
    25
100
AcDbCircle
 10
874.1985474062731
 20
1463.471617581114
 30
0.0
 40
4.5
100
AcDbArc
 50
89.99999999999991
 51
269.9999999999998
  0
LINE
  5
137
330
1F
100
AcDbEntity
  8
5
  6
Continuous
 62
     4
370
    25
100
AcDbLine
 10
874.1985474062731
 20
1467.971617581114
 30
0.0
 11
911.1985474062731
 21
1467.971617581114
 31
0.0
  0
LINE
  5
138
330
1F
100
AcDbEntity
  8
5
  6
Continuous
 62
     4
370
    25
100
AcDbLine
 10
874.1985474062731
 20
1458.971617581114
 30
0.0
 11
911.1985474062731
 21
1458.971617581114
 31
0.0
  0
ARC
  5
139
330
1F
100
AcDbEntity
  8
5
  6
Continuous
 62
     4
370
    25
100
AcDbCircle
 10
911.1985474062731
 20
1463.471617581114
 30
0.0
 40
4.5
100
AcDbArc
 50
269.9999999999998
 51
89.99999999999991
  0
CIRCLE
  5
13A
330
1F
100
AcDbEntity
  8
5
  6
Continuous
 62
     4
370
    25
100
AcDbCircle
 10
874.6985474062731
 20
1453.471616710315
 30
0.0
 40
3.0
  0
ARC
  5
13B
330
1F
100
AcDbEntity
  8
5
  6
Continuous
 62
     4
370
    25
100
AcDbCircle
 10
874.1985474062731
 20
1453.471617581114
 30
0.0
 40
4.5
100
AcDbArc
 50
89.99999999999991
 51
269.9999999999998
  0
LINE
  5
13C
330
1F
100
AcDbEntity
  8
5
  6
Continuous
 62
     4
370
    25
100
AcDbLine
 10
874.1985474062731
 20
1457.971617581114
 30
0.0
 11
911.1985474062731
 21
1457.971617581114
 31
0.0
  0
LINE
  5
13D
330
1F
100
AcDbEntity
  8
5
  6
Continuous
 62
     4
370
    25
100
AcDbLine
 10
874.1985474062731
 20
1448.971617581114
 30
0.0
 11
911.1985474062731
 21
1448.971617581114
 31
0.0
  0
ARC
  5
13E
330
1F
100
AcDbEntity
  8
5
  6
Continuous
 62
     4
370
    25
100
AcDbCircle
 10
911.1985474062731
 20
1453.471617581114
 30
0.0
 40
4.5
100
AcDbArc
 50
269.9999999999998
 51
89.99999999999991
  0
MTEXT
  5
13F
330
1F
100
AcDbEntity
  8
5
  6
Continuous
 62
     4
370
     9
100
AcDbMText
 10
908.700773735336
 20
1453.471616710315
 30
0.0
 40
6.050000000000001
 41
7.738039523786001
 46
6.050000000000001
 71
     5
 72
     1
  1
{\fＭＳ Ｐゴシック;\W0.714286;弁}
 73
     1
 44
1.0
1001
ACAD
1000
ACAD_MTEXT_DEFINED_HEIGHT_BEGIN
1070
    46
1040
6.050000000000001
1000
ACAD_MTEXT_DEFINED_HEIGHT_END
  0
MTEXT
  5
140
330
1F
100
AcDbEntity
  8
5
  6
Continuous
 62
     4
370
     9
100
AcDbMText
 10
884.700773735336
 20
1453.471616710315
 30
0.0
 40
6.050000000000001
 41
7.842358851228001
 46
6.050000000000001
 71
     5
 72
     1
  1
{\fＭＳ Ｐゴシック;\W0.714286;電}
 73
     1
 44
1.0
1001
ACAD
1000
ACAD_MTEXT_DEFINED_HEIGHT_BEGIN
1070
    46
1040
6.050000000000001
1000
ACAD_MTEXT_DEFINED_HEIGHT_END
  0
MTEXT
  5
141
330
1F
100
AcDbEntity
  8
5
  6
Continuous
 62
     4
370
     9
100
AcDbMText
 10
896.700773735336
 20
1453.471616710315
 30
0.0
 40
6.050000000000001
 41
7.664402351474001
 46
6.050000000000001
 71
     5
 72
     1
  1
{\fＭＳ Ｐゴシック;\W0.714286;動}
 73
     1
 44
1.0
1001
ACAD
1000
ACAD_MTEXT_DEFINED_HEIGHT_BEGIN
1070
    46
1040
6.050000000000001
1000
ACAD_MTEXT_DEFINED_HEIGHT_END
  0
MTEXT
  5
142
330
1F
100
AcDbEntity
  8
5
  6
Continuous
 62
     4
370
     9
100
AcDbMText
 10
908.700773735336
 20
1473.471616710315
 30
0.0
 40
6.050000000000001
 41
8.22281757484
 46
6.050000000000001
 71
     5
 72
     1
  1
{\fＭＳ Ｐゴシック;\W0.714286;器}
 73
     1
 44
1.0
1001
ACAD
1000
ACAD_MTEXT_DEFINED_HEIGHT_BEGIN
1070
    46
1040
6.050000000000001
1000
ACAD_MTEXT_DEFINED_HEIGHT_END
  0
MTEXT
  5
143
330
1F
100
AcDbEntity
  8
5
  6
Continuous
 62
     4
370
     9
100
AcDbMText
 10
884.700773735336
 20
1473.471616710315
 30
0.0
 40
6.050000000000001
 41
7.977360333800002
 46
6.050000000000001
 71
     5
 72
     1
  1
{\fＭＳ Ｐゴシック;\W0.714286;感}
 73
     1
 44
1.0
1001
ACAD
1000
ACAD_MTEXT_DEFINED_HEIGHT_BEGIN
1070
    46
1040
6.050000000000001
1000
ACAD_MTEXT_DEFINED_HEIGHT_END
  0
MTEXT
  5
144
330
1F
100
AcDbEntity
  8
5
  6
Continuous
 62
     4
370
     9
100
AcDbMText
 10
896.700773735336
 20
1473.471616710315
 30
0.0
 40
6.050000000000001
 41
7.455763696590001
 46
6.050000000000001
 71
     5
 72
     1
  1
{\fＭＳ Ｐゴシック;\W0.714286;知}
 73
     1
 44
1.0
1001
ACAD
1000
ACAD_MTEXT_DEFINED_HEIGHT_BEGIN
1070
    46
1040
6.050000000000001
1000
ACAD_MTEXT_DEFINED_HEIGHT_END
  0
LINE
  5
145
330
1F
100
AcDbEntity
  8
5
  6
Continuous
 62
     4
370
    25
100
AcDbLine
 10
882.7985474062716
 20
1414.069139480378
 30
0.0
 11
901.5985474062709
 21
1414.069139480378
 31
0.0
  0
LINE
  5
146
330
1F
100
AcDbEntity
  8
5
  6
Continuous
 62
     4
370
    25
100
AcDbLine
 10
901.5985474062727
 20
1414.069139480378
 30
0.0
 11
901.5985474062709
 21
1432.869139480378
 31
0.0
  0
LINE
  5
147
330
1F
100
AcDbEntity
  8
5
  6
Continuous
 62
     4
370
    25
100
AcDbLine
 10
901.5985474062709
 20
1432.869139480378
 30
0.0
 11
882.7985474062716
 21
1432.869139480378
 31
0.0
  0
LINE
  5
148
330
1F
100
AcDbEntity
  8
5
  6
Continuous
 62
     4
370
    25
100
AcDbLine
 10
882.7985474062716
 20
1432.869139480378
 30
0.0
 11
882.7985474062716
 21
1414.069139480378
 31
0.0
  0
LINE
  5
149
330
1F
100
AcDbEntity
  8
5
  6
Continuous
 62
     4
370
    25
100
AcDbLine
 10
881.9985474062723
 20
1433.719139480378
 30
0.0
 11
902.398547406272
 21
1433.719139480378
 31
0.0
  0
LINE
  5
14A
330
1F
100
AcDbEntity
  8
5
  6
Continuous
 62
     4
370
    25
100
AcDbLine
 10
881.9985474062723
 20
1433.719139480378
 30
0.0
 11
881.9985474062723
 21
1413.219139480378
 31
0.0
  0
LINE
  5
14B
330
1F
100
AcDbEntity
  8
5
  6
Continuous
 62
     4
370
    25
100
AcDbLine
 10
902.398547406272
 20
1433.719139480378
 30
0.0
 11
902.398547406272
 21
1413.219139480378
 31
0.0
  0
LINE
  5
14C
330
1F
100
AcDbEntity
  8
5
  6
Continuous
 62
     4
370
    25
100
AcDbLine
 10
881.9985474062723
 20
1413.219139480378
 30
0.0
 11
902.398547406272
 21
1413.219139480378
 31
0.0
  0
LINE
  5
14D
330
1F
100
AcDbEntity
  8
5
  6
Continuous
 62
     4
370
    25
100
AcDbLine
 10
894.9985549062731
 20
1430.719144480378
 30
0.0
 11
886.9985474062742
 21
1430.719144480378
 31
0.0
  0
LINE
  5
14E
330
1F
100
AcDbEntity
  8
5
  6
Continuous
 62
     4
370
    25
100
AcDbLine
 10
894.9985549062731
 20
1430.719144480378
 30
0.0
 11
894.9985549062731
 21
1432.869139480378
 31
0.0
  0
LINE
  5
14F
330
1F
100
AcDbEntity
  8
5
  6
Continuous
 62
     4
370
    25
100
AcDbLine
 10
886.9985474062723
 20
1430.719144480378
 30
0.0
 11
886.9985474062723
 21
1432.869139480378
 31
0.0
  0
MTEXT
  5
150
330
1F
100
AcDbEntity
  8
5
  6
Continuous
 62
     4
370
     9
100
AcDbMText
 10
892.1985474062731
 20
1423.469139480378
 30
0.0
 40
6.050000000000001
 41
16.869048890474
 46
6.050000000000001
 71
     5
 72
     1
  1
{\fＭＳ Ｐゴシック;\W0.714286;起動}
 73
     1
 44
1.0
1001
ACAD
1000
ACAD_MTEXT_DEFINED_HEIGHT_BEGIN
1070
    46
1040
6.050000000000001
1000
ACAD_MTEXT_DEFINED_HEIGHT_END
  0
LINE
  5
151
330
1F
100
AcDbEntity
  8
5
  6
Continuous
 62
     4
370
    25
100
AcDbLine
 10
929.1985474062731
 20
1506.471617145714
 30
0.0
 11
929.1985474062731
 21
1518.471617145715
 31
0.0
  0
ARC
  5
152
330
1F
100
AcDbEntity
  8
5
  6
Continuous
 62
     4
370
    25
100
AcDbCircle
 10
930.1985474062731
 20
1518.471617145715
 30
0.0
 40
1.0
100
AcDbArc
 50
89.99999999999991
 51
179.9999999999998
  0
LINE
  5
153
330
1F
100
AcDbEntity
  8
5
  6
Continuous
 62
     4
370
    25
100
AcDbLine
 10
979.1985474062731
 20
1518.471617145715
 30
0.0
 11
979.1985474062731
 21
1506.471617145714
 31
0.0
  0
ARC
  5
154
330
1F
100
AcDbEntity
  8
5
  6
Continuous
 62
     4
370
    25
100
AcDbCircle
 10
978.1985474062731
 20
1518.471617145715
 30
0.0
 40
1.0
100
AcDbArc
 50
0.0
 51
89.99999999999991
  0
LINE
  5
155
330
1F
100
AcDbEntity
  8
5
  6
Continuous
 62
     4
370
    25
100
AcDbLine
 10
978.1985474062731
 20
1505.471617145714
 30
0.0
 11
930.1985474062731
 21
1505.471617145714
 31
0.0
  0
ARC
  5
156
330
1F
100
AcDbEntity
  8
5
  6
Continuous
 62
     4
370
    25
100
AcDbCircle
 10
978.1985474062731
 20
1506.471617145714
 30
0.0
 40
1.0
100
AcDbArc
 50
269.9999999999998
 51
0.0
  0
ARC
  5
157
330
1F
100
AcDbEntity
  8
5
  6
Continuous
 62
     4
370
    25
100
AcDbCircle
 10
930.1985474062731
 20
1506.471617145714
 30
0.0
 40
1.0
100
AcDbArc
 50
179.9999999999998
 51
269.9999999999998
  0
LINE
  5
158
330
1F
100
AcDbEntity
  8
5
  6
Continuous
 62
     4
370
    25
100
AcDbLine
 10
978.1985474062731
 20
1519.471617145714
 30
0.0
 11
930.1985474062731
 21
1519.471617145714
 31
0.0
  0
LINE
  5
159
330
1F
100
AcDbEntity
  8
5
  6
Continuous
 62
     4
370
    25
100
AcDbLine
 10
927.1985474062731
 20
1408.471617145714
 30
0.0
 11
981.1985474062731
 21
1408.471617145714
 31
0.0
  0
ARC
  5
15A
330
1F
100
AcDbEntity
  8
5
  6
Continuous
 62
     4
370
    25
100
AcDbCircle
 10
981.1985474062731
 20
1411.471617145715
 30
0.0
 40
3.0
100
AcDbArc
 50
269.9999999999998
 51
0.0
  0
LINE
  5
15B
330
1F
100
AcDbEntity
  8
5
  6
Continuous
 62
     4
370
    25
100
AcDbLine
 10
924.1985474062731
 20
1411.471617145715
 30
0.0
 11
924.1985474062731
 21
1529.471617145714
 31
0.0
  0
ARC
  5
15C
330
1F
100
AcDbEntity
  8
5
  6
Continuous
 62
     4
370
    25
100
AcDbCircle
 10
927.1985474062731
 20
1411.471617145715
 30
0.0
 40
3.0
100
AcDbArc
 50
179.9999999999998
 51
269.9999999999998
  0
ARC
  5
15D
330
1F
100
AcDbEntity
  8
5
  6
Continuous
 62
     4
370
    25
100
AcDbCircle
 10
927.1985474062731
 20
1529.471617145714
 30
0.0
 40
3.0
100
AcDbArc
 50
89.99999999999991
 51
179.9999999999998
  0
LINE
  5
15E
330
1F
100
AcDbEntity
  8
5
  6
Continuous
 62
     4
370
    25
100
AcDbLine
 10
984.1985474062731
 20
1411.471617145715
 30
0.0
 11
984.1985474062731
 21
1529.471617145714
 31
0.0
  0
ARC
  5
15F
330
1F
100
AcDbEntity
  8
5
  6
Continuous
 62
     4
370
    25
100
AcDbCircle
 10
981.1985474062731
 20
1529.471617145714
 30
0.0
 40
3.0
100
AcDbArc
 50
0.0
 51
89.99999999999991
  0
LINE
  5
160
330
1F
100
AcDbEntity
  8
5
  6
Continuous
 62
     4
370
    25
100
AcDbLine
 10
927.1985474062731
 20
1532.471617145715
 30
0.0
 11
981.1985474062731
 21
1532.471617145715
 31
0.0
  0
CIRCLE
  5
161
330
1F
100
AcDbEntity
  8
5
  6
Continuous
 62
     4
370
    25
100
AcDbCircle
 10
936.6985474062749
 20
1473.471616710315
 30
0.0
 40
3.0
  0
CIRCLE
  5
162
330
1F
100
AcDbEntity
  8
5
  6
Continuous
 62
     4
370
    25
100
AcDbCircle
 10
936.6985474062749
 20
1483.471616710315
 30
0.0
 40
3.0
  0
MTEXT
  5
163
330
1F
100
AcDbEntity
  8
5
  6
Continuous
 62
     4
370
     9
100
AcDbMText
 10
970.700773735336
 20
1483.471616710315
 30
0.0
 40
6.050000000000001
 41
8.050997506112001
 46
6.050000000000001
 71
     5
 72
     1
  1
{\fＭＳ Ｐゴシック;\W0.714286;水}
 73
     1
 44
1.0
1001
ACAD
1000
ACAD_MTEXT_DEFINED_HEIGHT_BEGIN
1070
    46
1040
6.050000000000001
1000
ACAD_MTEXT_DEFINED_HEIGHT_END
  0
MTEXT
  5
164
330
1F
100
AcDbEntity
  8
5
  6
Continuous
 62
     4
370
     9
100
AcDbMText
 10
946.700773735336
 20
1483.471616710315
 30
0.0
 40
6.050000000000001
 41
8.050997506112001
 46
6.050000000000001
 71
     5
 72
     1
  1
{\fＭＳ Ｐゴシック;\W0.714286;流}
 73
     1
 44
1.0
1001
ACAD
1000
ACAD_MTEXT_DEFINED_HEIGHT_BEGIN
1070
    46
1040
6.050000000000001
1000
ACAD_MTEXT_DEFINED_HEIGHT_END
  0
CIRCLE
  5
165
330
1F
100
AcDbEntity
  8
5
  6
Continuous
 62
     4
370
    25
100
AcDbCircle
 10
936.6985474062749
 20
1463.471616710315
 30
0.0
 40
3.0
  0
MTEXT
  5
166
330
1F
100
AcDbEntity
  8
5
  6
Continuous
 62
     4
370
     9
100
AcDbMText
 10
970.700773735336
 20
1463.471616710315
 30
0.0
 40
6.050000000000001
 41
8.22281757484
 46
6.050000000000001
 71
     5
 72
     1
  1
{\fＭＳ Ｐゴシック;\W0.714286;減}
 73
     1
 44
1.0
1001
ACAD
1000
ACAD_MTEXT_DEFINED_HEIGHT_BEGIN
1070
    46
1040
6.050000000000001
1000
ACAD_MTEXT_DEFINED_HEIGHT_END
  0
MTEXT
  5
167
330
1F
100
AcDbEntity
  8
5
  6
Continuous
 62
     4
370
     9
100
AcDbMText
 10
962.700773735336
 20
1463.471616710315
 30
0.0
 40
6.050000000000001
 41
7.842358851228001
 46
6.050000000000001
 71
     5
 72
     1
  1
{\fＭＳ Ｐゴシック;\W0.714286;圧}
 73
     1
 44
1.0
1001
ACAD
1000
ACAD_MTEXT_DEFINED_HEIGHT_BEGIN
1070
    46
1040
6.050000000000001
1000
ACAD_MTEXT_DEFINED_HEIGHT_END
  0
MTEXT
  5
168
330
1F
100
AcDbEntity
  8
5
  6
Continuous
 62
     4
370
     9
100
AcDbMText
 10
954.700773735336
 20
1463.471616710315
 30
0.0
 40
6.050000000000001
 41
8.050997506112001
 46
6.050000000000001
 71
     5
 72
     1
  1
{\fＭＳ Ｐゴシック;\W0.714286;次}
 73
     1
 44
1.0
1001
ACAD
1000
ACAD_MTEXT_DEFINED_HEIGHT_BEGIN
1070
    46
1040
6.050000000000001
1000
ACAD_MTEXT_DEFINED_HEIGHT_END
  0
MTEXT
  5
169
330
1F
100
AcDbEntity
  8
5
  6
Continuous
 62
     4
370
     9
100
AcDbMText
 10
946.700773735336
 20
1463.471616710315
 30
0.0
 40
6.050000000000001
 41
3.552993564054001
 46
6.050000000000001
 71
     5
 72
     1
  1
{\fＭＳ Ｐゴシック;\W0.714286;2}
 73
     1
 44
1.0
1001
ACAD
1000
ACAD_MTEXT_DEFINED_HEIGHT_BEGIN
1070
    46
1040
6.050000000000001
1000
ACAD_MTEXT_DEFINED_HEIGHT_END
  0
ARC
  5
16A
330
1F
100
AcDbEntity
  8
5
  6
Continuous
 62
     4
370
    25
100
AcDbCircle
 10
936.1985474062749
 20
1483.471618016515
 30
0.0
 40
4.5
100
AcDbArc
 50
89.99999999999991
 51
269.9999999999998
  0
LINE
  5
16B
330
1F
100
AcDbEntity
  8
5
  6
Continuous
 62
     4
370
    25
100
AcDbLine
 10
936.1985474062749
 20
1487.971618016515
 30
0.0
 11
973.1985474062749
 21
1487.971618016515
 31
0.0
  0
LINE
  5
16C
330
1F
100
AcDbEntity
  8
5
  6
Continuous
 62
     4
370
    25
100
AcDbLine
 10
936.1985474062749
 20
1478.971618016515
 30
0.0
 11
973.1985474062749
 21
1478.971618016515
 31
0.0
  0
ARC
  5
16D
330
1F
100
AcDbEntity
  8
5
  6
Continuous
 62
     4
370
    25
100
AcDbCircle
 10
973.1985474062749
 20
1483.471618016515
 30
0.0
 40
4.5
100
AcDbArc
 50
269.9999999999998
 51
89.99999999999991
  0
ARC
  5
16E
330
1F
100
AcDbEntity
  8
5
  6
Continuous
 62
     4
370
    25
100
AcDbCircle
 10
936.1985474062749
 20
1473.471617581114
 30
0.0
 40
4.5
100
AcDbArc
 50
89.99999999999991
 51
269.9999999999998
  0
LINE
  5
16F
330
1F
100
AcDbEntity
  8
5
  6
Continuous
 62
     4
370
    25
100
AcDbLine
 10
936.1985474062749
 20
1477.971617581114
 30
0.0
 11
973.1985474062749
 21
1477.971617581114
 31
0.0
  0
LINE
  5
170
330
1F
100
AcDbEntity
  8
5
  6
Continuous
 62
     4
370
    25
100
AcDbLine
 10
936.1985474062749
 20
1468.971617581114
 30
0.0
 11
973.1985474062749
 21
1468.971617581114
 31
0.0
  0
ARC
  5
171
330
1F
100
AcDbEntity
  8
5
  6
Continuous
 62
     4
370
    25
100
AcDbCircle
 10
973.1985474062749
 20
1473.471617581114
 30
0.0
 40
4.5
100
AcDbArc
 50
269.9999999999998
 51
89.99999999999991
  0
ARC
  5
172
330
1F
100
AcDbEntity
  8
5
  6
Continuous
 62
     4
370
    25
100
AcDbCircle
 10
936.1985474062749
 20
1463.471617581114
 30
0.0
 40
4.5
100
AcDbArc
 50
89.99999999999991
 51
269.9999999999998
  0
LINE
  5
173
330
1F
100
AcDbEntity
  8
5
  6
Continuous
 62
     4
370
    25
100
AcDbLine
 10
936.1985474062749
 20
1467.971617581114
 30
0.0
 11
973.1985474062749
 21
1467.971617581114
 31
0.0
  0
LINE
  5
174
330
1F
100
AcDbEntity
  8
5
  6
Continuous
 62
     4
370
    25
100
AcDbLine
 10
936.1985474062749
 20
1458.971617581114
 30
0.0
 11
973.1985474062749
 21
1458.971617581114
 31
0.0
  0
ARC
  5
175
330
1F
100
AcDbEntity
  8
5
  6
Continuous
 62
     4
370
    25
100
AcDbCircle
 10
973.1985474062749
 20
1463.471617581114
 30
0.0
 40
4.5
100
AcDbArc
 50
269.9999999999998
 51
89.99999999999991
  0
CIRCLE
  5
176
330
1F
100
AcDbEntity
  8
5
  6
Continuous
 62
     4
370
    25
100
AcDbCircle
 10
936.6985474062749
 20
1453.471616710315
 30
0.0
 40
3.0
  0
ARC
  5
177
330
1F
100
AcDbEntity
  8
5
  6
Continuous
 62
     4
370
    25
100
AcDbCircle
 10
936.1985474062749
 20
1453.471617581114
 30
0.0
 40
4.5
100
AcDbArc
 50
89.99999999999991
 51
269.9999999999998
  0
LINE
  5
178
330
1F
100
AcDbEntity
  8
5
  6
Continuous
 62
     4
370
    25
100
AcDbLine
 10
936.1985474062749
 20
1457.971617581114
 30
0.0
 11
973.1985474062749
 21
1457.971617581114
 31
0.0
  0
LINE
  5
179
330
1F
100
AcDbEntity
  8
5
  6
Continuous
 62
     4
370
    25
100
AcDbLine
 10
936.1985474062749
 20
1448.971617581114
 30
0.0
 11
973.1985474062749
 21
1448.971617581114
 31
0.0
  0
ARC
  5
17A
330
1F
100
AcDbEntity
  8
5
  6
Continuous
 62
     4
370
    25
100
AcDbCircle
 10
973.1985474062749
 20
1453.471617581114
 30
0.0
 40
4.5
100
AcDbArc
 50
269.9999999999998
 51
89.99999999999991
  0
MTEXT
  5
17B
330
1F
100
AcDbEntity
  8
5
  6
Continuous
 62
     4
370
     9
100
AcDbMText
 10
970.700773735336
 20
1453.471616710315
 30
0.0
 40
6.050000000000001
 41
7.738039523786001
 46
6.050000000000001
 71
     5
 72
     1
  1
{\fＭＳ Ｐゴシック;\W0.714286;弁}
 73
     1
 44
1.0
1001
ACAD
1000
ACAD_MTEXT_DEFINED_HEIGHT_BEGIN
1070
    46
1040
6.050000000000001
1000
ACAD_MTEXT_DEFINED_HEIGHT_END
  0
MTEXT
  5
17C
330
1F
100
AcDbEntity
  8
5
  6
Continuous
 62
     4
370
     9
100
AcDbMText
 10
946.700773735336
 20
1453.471616710315
 30
0.0
 40
6.050000000000001
 41
7.842358851228001
 46
6.050000000000001
 71
     5
 72
     1
  1
{\fＭＳ Ｐゴシック;\W0.714286;電}
 73
     1
 44
1.0
1001
ACAD
1000
ACAD_MTEXT_DEFINED_HEIGHT_BEGIN
1070
    46
1040
6.050000000000001
1000
ACAD_MTEXT_DEFINED_HEIGHT_END
  0
MTEXT
  5
17D
330
1F
100
AcDbEntity
  8
5
  6
Continuous
 62
     4
370
     9
100
AcDbMText
 10
958.700773735336
 20
1453.471616710315
 30
0.0
 40
6.050000000000001
 41
7.664402351474001
 46
6.050000000000001
 71
     5
 72
     1
  1
{\fＭＳ Ｐゴシック;\W0.714286;動}
 73
     1
 44
1.0
1001
ACAD
1000
ACAD_MTEXT_DEFINED_HEIGHT_BEGIN
1070
    46
1040
6.050000000000001
1000
ACAD_MTEXT_DEFINED_HEIGHT_END
  0
MTEXT
  5
17E
330
1F
100
AcDbEntity
  8
5
  6
Continuous
 62
     4
370
     9
100
AcDbMText
 10
970.700773735336
 20
1473.471616710315
 30
0.0
 40
6.050000000000001
 41
8.22281757484
 46
6.050000000000001
 71
     5
 72
     1
  1
{\fＭＳ Ｐゴシック;\W0.714286;器}
 73
     1
 44
1.0
1001
ACAD
1000
ACAD_MTEXT_DEFINED_HEIGHT_BEGIN
1070
    46
1040
6.050000000000001
1000
ACAD_MTEXT_DEFINED_HEIGHT_END
  0
MTEXT
  5
17F
330
1F
100
AcDbEntity
  8
5
  6
Continuous
 62
     4
370
     9
100
AcDbMText
 10
946.700773735336
 20
1473.471616710315
 30
0.0
 40
6.050000000000001
 41
7.977360333800002
 46
6.050000000000001
 71
     5
 72
     1
  1
{\fＭＳ Ｐゴシック;\W0.714286;感}
 73
     1
 44
1.0
1001
ACAD
1000
ACAD_MTEXT_DEFINED_HEIGHT_BEGIN
1070
    46
1040
6.050000000000001
1000
ACAD_MTEXT_DEFINED_HEIGHT_END
  0
MTEXT
  5
180
330
1F
100
AcDbEntity
  8
5
  6
Continuous
 62
     4
370
     9
100
AcDbMText
 10
958.700773735336
 20
1473.471616710315
 30
0.0
 40
6.050000000000001
 41
7.455763696590001
 46
6.050000000000001
 71
     5
 72
     1
  1
{\fＭＳ Ｐゴシック;\W0.714286;知}
 73
     1
 44
1.0
1001
ACAD
1000
ACAD_MTEXT_DEFINED_HEIGHT_BEGIN
1070
    46
1040
6.050000000000001
1000
ACAD_MTEXT_DEFINED_HEIGHT_END
  0
LINE
  5
181
330
1F
100
AcDbEntity
  8
5
  6
Continuous
 62
     4
370
    25
100
AcDbLine
 10
944.7985474062716
 20
1414.069139480378
 30
0.0
 11
963.5985474062727
 21
1414.069139480378
 31
0.0
  0
LINE
  5
182
330
1F
100
AcDbEntity
  8
5
  6
Continuous
 62
     4
370
    25
100
AcDbLine
 10
963.5985474062727
 20
1414.069139480378
 30
0.0
 11
963.5985474062727
 21
1432.869139480378
 31
0.0
  0
LINE
  5
183
330
1F
100
AcDbEntity
  8
5
  6
Continuous
 62
     4
370
    25
100
AcDbLine
 10
963.5985474062727
 20
1432.869139480378
 30
0.0
 11
944.7985474062716
 21
1432.869139480378
 31
0.0
  0
LINE
  5
184
330
1F
100
AcDbEntity
  8
5
  6
Continuous
 62
     4
370
    25
100
AcDbLine
 10
944.7985474062716
 20
1432.869139480378
 30
0.0
 11
944.7985474062734
 21
1414.069139480378
 31
0.0
  0
LINE
  5
185
330
1F
100
AcDbEntity
  8
5
  6
Continuous
 62
     4
370
    25
100
AcDbLine
 10
943.9985474062742
 20
1433.719139480378
 30
0.0
 11
964.3985474062738
 21
1433.719139480378
 31
0.0
  0
LINE
  5
186
330
1F
100
AcDbEntity
  8
5
  6
Continuous
 62
     4
370
    25
100
AcDbLine
 10
943.9985474062742
 20
1433.719139480378
 30
0.0
 11
943.9985474062742
 21
1413.219139480378
 31
0.0
  0
LINE
  5
187
330
1F
100
AcDbEntity
  8
5
  6
Continuous
 62
     4
370
    25
100
AcDbLine
 10
964.3985474062738
 20
1433.719139480378
 30
0.0
 11
964.3985474062738
 21
1413.219139480378
 31
0.0
  0
LINE
  5
188
330
1F
100
AcDbEntity
  8
5
  6
Continuous
 62
     4
370
    25
100
AcDbLine
 10
943.9985474062742
 20
1413.219139480378
 30
0.0
 11
964.3985474062738
 21
1413.219139480378
 31
0.0
  0
LINE
  5
189
330
1F
100
AcDbEntity
  8
5
  6
Continuous
 62
     4
370
    25
100
AcDbLine
 10
956.9985549062749
 20
1430.719144480378
 30
0.0
 11
948.9985474062742
 21
1430.719144480378
 31
0.0
  0
LINE
  5
18A
330
1F
100
AcDbEntity
  8
5
  6
Continuous
 62
     4
370
    25
100
AcDbLine
 10
956.9985549062749
 20
1430.719144480378
 30
0.0
 11
956.9985549062749
 21
1432.869139480378
 31
0.0
  0
LINE
  5
18B
330
1F
100
AcDbEntity
  8
5
  6
Continuous
 62
     4
370
    25
100
AcDbLine
 10
948.9985474062742
 20
1430.719144480378
 30
0.0
 11
948.9985474062742
 21
1432.869139480378
 31
0.0
  0
MTEXT
  5
18C
330
1F
100
AcDbEntity
  8
5
  6
Continuous
 62
     4
370
     9
100
AcDbMText
 10
954.1985474062731
 20
1423.469139480378
 30
0.0
 40
6.050000000000001
 41
16.869048890474
 46
6.050000000000001
 71
     5
 72
     1
  1
{\fＭＳ Ｐゴシック;\W0.714286;起動}
 73
     1
 44
1.0
1001
ACAD
1000
ACAD_MTEXT_DEFINED_HEIGHT_BEGIN
1070
    46
1040
6.050000000000001
1000
ACAD_MTEXT_DEFINED_HEIGHT_END
  0
LINE
  5
18D
330
1F
100
AcDbEntity
  8
5
  6
Continuous
 62
     4
370
    25
100
AcDbLine
 10
991.1985474062731
 20
1506.471617145713
 30
0.0
 11
991.1985474062731
 21
1518.471617145714
 31
0.0
  0
ARC
  5
18E
330
1F
100
AcDbEntity
  8
5
  6
Continuous
 62
     4
370
    25
100
AcDbCircle
 10
992.1985474062731
 20
1518.471617145714
 30
0.0
 40
1.0
100
AcDbArc
 50
89.99999999999991
 51
179.9999999999998
  0
LINE
  5
18F
330
1F
100
AcDbEntity
  8
5
  6
Continuous
 62
     4
370
    25
100
AcDbLine
 10
1041.198547406273
 20
1518.471617145714
 30
0.0
 11
1041.198547406273
 21
1506.471617145713
 31
0.0
  0
ARC
  5
190
330
1F
100
AcDbEntity
  8
5
  6
Continuous
 62
     4
370
    25
100
AcDbCircle
 10
1040.198547406273
 20
1518.471617145714
 30
0.0
 40
1.0
100
AcDbArc
 50
0.0
 51
89.99999999999991
  0
LINE
  5
191
330
1F
100
AcDbEntity
  8
5
  6
Continuous
 62
     4
370
    25
100
AcDbLine
 10
1040.198547406273
 20
1505.471617145714
 30
0.0
 11
992.1985474062731
 21
1505.471617145714
 31
0.0
  0
ARC
  5
192
330
1F
100
AcDbEntity
  8
5
  6
Continuous
 62
     4
370
    25
100
AcDbCircle
 10
1040.198547406273
 20
1506.471617145713
 30
0.0
 40
1.0
100
AcDbArc
 50
269.9999999999998
 51
0.0
  0
ARC
  5
193
330
1F
100
AcDbEntity
  8
5
  6
Continuous
 62
     4
370
    25
100
AcDbCircle
 10
992.1985474062731
 20
1506.471617145713
 30
0.0
 40
1.0
100
AcDbArc
 50
179.9999999999998
 51
269.9999999999998
  0
LINE
  5
194
330
1F
100
AcDbEntity
  8
5
  6
Continuous
 62
     4
370
    25
100
AcDbLine
 10
1040.198547406273
 20
1519.471617145714
 30
0.0
 11
992.1985474062731
 21
1519.471617145714
 31
0.0
  0
LINE
  5
195
330
1F
100
AcDbEntity
  8
5
  6
Continuous
 62
     4
370
    25
100
AcDbLine
 10
989.1985474062731
 20
1408.471617145714
 30
0.0
 11
1043.198547406273
 21
1408.471617145714
 31
0.0
  0
ARC
  5
196
330
1F
100
AcDbEntity
  8
5
  6
Continuous
 62
     4
370
    25
100
AcDbCircle
 10
1043.198547406273
 20
1411.471617145714
 30
0.0
 40
3.0
100
AcDbArc
 50
269.9999999999998
 51
0.0
  0
LINE
  5
197
330
1F
100
AcDbEntity
  8
5
  6
Continuous
 62
     4
370
    25
100
AcDbLine
 10
986.1985474062731
 20
1411.471617145714
 30
0.0
 11
986.1985474062731
 21
1529.471617145714
 31
0.0
  0
ARC
  5
198
330
1F
100
AcDbEntity
  8
5
  6
Continuous
 62
     4
370
    25
100
AcDbCircle
 10
989.1985474062731
 20
1411.471617145714
 30
0.0
 40
3.0
100
AcDbArc
 50
179.9999999999998
 51
269.9999999999998
  0
ARC
  5
199
330
1F
100
AcDbEntity
  8
5
  6
Continuous
 62
     4
370
    25
100
AcDbCircle
 10
989.1985474062731
 20
1529.471617145714
 30
0.0
 40
3.0
100
AcDbArc
 50
89.99999999999991
 51
179.9999999999998
  0
LINE
  5
19A
330
1F
100
AcDbEntity
  8
5
  6
Continuous
 62
     4
370
    25
100
AcDbLine
 10
1046.198547406273
 20
1411.471617145714
 30
0.0
 11
1046.198547406273
 21
1529.471617145714
 31
0.0
  0
ARC
  5
19B
330
1F
100
AcDbEntity
  8
5
  6
Continuous
 62
     4
370
    25
100
AcDbCircle
 10
1043.198547406273
 20
1529.471617145714
 30
0.0
 40
3.0
100
AcDbArc
 50
0.0
 51
89.99999999999991
  0
LINE
  5
19C
330
1F
100
AcDbEntity
  8
5
  6
Continuous
 62
     4
370
    25
100
AcDbLine
 10
989.1985474062731
 20
1532.471617145713
 30
0.0
 11
1043.198547406273
 21
1532.471617145713
 31
0.0
  0
CIRCLE
  5
19D
330
1F
100
AcDbEntity
  8
5
  6
Continuous
 62
     4
370
    25
100
AcDbCircle
 10
998.6985474062749
 20
1473.471616710314
 30
0.0
 40
3.0
  0
CIRCLE
  5
19E
330
1F
100
AcDbEntity
  8
5
  6
Continuous
 62
     4
370
    25
100
AcDbCircle
 10
998.6985474062749
 20
1483.471616710314
 30
0.0
 40
3.0
  0
MTEXT
  5
19F
330
1F
100
AcDbEntity
  8
5
  6
Continuous
 62
     4
370
     9
100
AcDbMText
 10
1032.700773735336
 20
1483.471616710314
 30
0.0
 40
6.050000000000001
 41
8.050997506112001
 46
6.050000000000001
 71
     5
 72
     1
  1
{\fＭＳ Ｐゴシック;\W0.714286;水}
 73
     1
 44
1.0
1001
ACAD
1000
ACAD_MTEXT_DEFINED_HEIGHT_BEGIN
1070
    46
1040
6.050000000000001
1000
ACAD_MTEXT_DEFINED_HEIGHT_END
  0
MTEXT
  5
1A0
330
1F
100
AcDbEntity
  8
5
  6
Continuous
 62
     4
370
     9
100
AcDbMText
 10
1008.700773735336
 20
1483.471616710314
 30
0.0
 40
6.050000000000001
 41
8.050997506112001
 46
6.050000000000001
 71
     5
 72
     1
  1
{\fＭＳ Ｐゴシック;\W0.714286;流}
 73
     1
 44
1.0
1001
ACAD
1000
ACAD_MTEXT_DEFINED_HEIGHT_BEGIN
1070
    46
1040
6.050000000000001
1000
ACAD_MTEXT_DEFINED_HEIGHT_END
  0
CIRCLE
  5
1A1
330
1F
100
AcDbEntity
  8
5
  6
Continuous
 62
     4
370
    25
100
AcDbCircle
 10
998.6985474062749
 20
1463.471616710314
 30
0.0
 40
3.0
  0
MTEXT
  5
1A2
330
1F
100
AcDbEntity
  8
5
  6
Continuous
 62
     4
370
     9
100
AcDbMText
 10
1032.700773735336
 20
1463.471616710314
 30
0.0
 40
6.050000000000001
 41
8.22281757484
 46
6.050000000000001
 71
     5
 72
     1
  1
{\fＭＳ Ｐゴシック;\W0.714286;減}
 73
     1
 44
1.0
1001
ACAD
1000
ACAD_MTEXT_DEFINED_HEIGHT_BEGIN
1070
    46
1040
6.050000000000001
1000
ACAD_MTEXT_DEFINED_HEIGHT_END
  0
MTEXT
  5
1A3
330
1F
100
AcDbEntity
  8
5
  6
Continuous
 62
     4
370
     9
100
AcDbMText
 10
1024.700773735336
 20
1463.471616710314
 30
0.0
 40
6.050000000000001
 41
7.842358851228001
 46
6.050000000000001
 71
     5
 72
     1
  1
{\fＭＳ Ｐゴシック;\W0.714286;圧}
 73
     1
 44
1.0
1001
ACAD
1000
ACAD_MTEXT_DEFINED_HEIGHT_BEGIN
1070
    46
1040
6.050000000000001
1000
ACAD_MTEXT_DEFINED_HEIGHT_END
  0
MTEXT
  5
1A4
330
1F
100
AcDbEntity
  8
5
  6
Continuous
 62
     4
370
     9
100
AcDbMText
 10
1016.700773735336
 20
1463.471616710314
 30
0.0
 40
6.050000000000001
 41
8.050997506112001
 46
6.050000000000001
 71
     5
 72
     1
  1
{\fＭＳ Ｐゴシック;\W0.714286;次}
 73
     1
 44
1.0
1001
ACAD
1000
ACAD_MTEXT_DEFINED_HEIGHT_BEGIN
1070
    46
1040
6.050000000000001
1000
ACAD_MTEXT_DEFINED_HEIGHT_END
  0
MTEXT
  5
1A5
330
1F
100
AcDbEntity
  8
5
  6
Continuous
 62
     4
370
     9
100
AcDbMText
 10
1008.700773735336
 20
1463.471616710314
 30
0.0
 40
6.050000000000001
 41
3.552993564054001
 46
6.050000000000001
 71
     5
 72
     1
  1
{\fＭＳ Ｐゴシック;\W0.714286;2}
 73
     1
 44
1.0
1001
ACAD
1000
ACAD_MTEXT_DEFINED_HEIGHT_BEGIN
1070
    46
1040
6.050000000000001
1000
ACAD_MTEXT_DEFINED_HEIGHT_END
  0
ARC
  5
1A6
330
1F
100
AcDbEntity
  8
5
  6
Continuous
 62
     4
370
    25
100
AcDbCircle
 10
998.1985474062749
 20
1483.471618016514
 30
0.0
 40
4.5
100
AcDbArc
 50
89.99999999999991
 51
269.9999999999998
  0
LINE
  5
1A7
330
1F
100
AcDbEntity
  8
5
  6
Continuous
 62
     4
370
    25
100
AcDbLine
 10
998.1985474062749
 20
1487.971618016514
 30
0.0
 11
1035.198547406275
 21
1487.971618016514
 31
0.0
  0
LINE
  5
1A8
330
1F
100
AcDbEntity
  8
5
  6
Continuous
 62
     4
370
    25
100
AcDbLine
 10
998.1985474062749
 20
1478.971618016514
 30
0.0
 11
1035.198547406275
 21
1478.971618016514
 31
0.0
  0
ARC
  5
1A9
330
1F
100
AcDbEntity
  8
5
  6
Continuous
 62
     4
370
    25
100
AcDbCircle
 10
1035.198547406275
 20
1483.471618016514
 30
0.0
 40
4.5
100
AcDbArc
 50
269.9999999999998
 51
89.99999999999991
  0
ARC
  5
1AA
330
1F
100
AcDbEntity
  8
5
  6
Continuous
 62
     4
370
    25
100
AcDbCircle
 10
998.1985474062749
 20
1473.471617581113
 30
0.0
 40
4.5
100
AcDbArc
 50
89.99999999999991
 51
269.9999999999998
  0
LINE
  5
1AB
330
1F
100
AcDbEntity
  8
5
  6
Continuous
 62
     4
370
    25
100
AcDbLine
 10
998.1985474062749
 20
1477.971617581113
 30
0.0
 11
1035.198547406275
 21
1477.971617581113
 31
0.0
  0
LINE
  5
1AC
330
1F
100
AcDbEntity
  8
5
  6
Continuous
 62
     4
370
    25
100
AcDbLine
 10
998.1985474062749
 20
1468.971617581113
 30
0.0
 11
1035.198547406275
 21
1468.971617581113
 31
0.0
  0
ARC
  5
1AD
330
1F
100
AcDbEntity
  8
5
  6
Continuous
 62
     4
370
    25
100
AcDbCircle
 10
1035.198547406275
 20
1473.471617581113
 30
0.0
 40
4.5
100
AcDbArc
 50
269.9999999999998
 51
89.99999999999991
  0
ARC
  5
1AE
330
1F
100
AcDbEntity
  8
5
  6
Continuous
 62
     4
370
    25
100
AcDbCircle
 10
998.1985474062749
 20
1463.471617581113
 30
0.0
 40
4.5
100
AcDbArc
 50
89.99999999999991
 51
269.9999999999998
  0
LINE
  5
1AF
330
1F
100
AcDbEntity
  8
5
  6
Continuous
 62
     4
370
    25
100
AcDbLine
 10
998.1985474062749
 20
1467.971617581113
 30
0.0
 11
1035.198547406275
 21
1467.971617581113
 31
0.0
  0
LINE
  5
1B0
330
1F
100
AcDbEntity
  8
5
  6
Continuous
 62
     4
370
    25
100
AcDbLine
 10
998.1985474062749
 20
1458.971617581113
 30
0.0
 11
1035.198547406275
 21
1458.971617581113
 31
0.0
  0
ARC
  5
1B1
330
1F
100
AcDbEntity
  8
5
  6
Continuous
 62
     4
370
    25
100
AcDbCircle
 10
1035.198547406275
 20
1463.471617581113
 30
0.0
 40
4.5
100
AcDbArc
 50
269.9999999999998
 51
89.99999999999991
  0
CIRCLE
  5
1B2
330
1F
100
AcDbEntity
  8
5
  6
Continuous
 62
     4
370
    25
100
AcDbCircle
 10
998.6985474062749
 20
1453.471616710314
 30
0.0
 40
3.0
  0
ARC
  5
1B3
330
1F
100
AcDbEntity
  8
5
  6
Continuous
 62
     4
370
    25
100
AcDbCircle
 10
998.1985474062749
 20
1453.471617581113
 30
0.0
 40
4.5
100
AcDbArc
 50
89.99999999999991
 51
269.9999999999998
  0
LINE
  5
1B4
330
1F
100
AcDbEntity
  8
5
  6
Continuous
 62
     4
370
    25
100
AcDbLine
 10
998.1985474062749
 20
1457.971617581113
 30
0.0
 11
1035.198547406275
 21
1457.971617581113
 31
0.0
  0
LINE
  5
1B5
330
1F
100
AcDbEntity
  8
5
  6
Continuous
 62
     4
370
    25
100
AcDbLine
 10
998.1985474062749
 20
1448.971617581113
 30
0.0
 11
1035.198547406275
 21
1448.971617581113
 31
0.0
  0
ARC
  5
1B6
330
1F
100
AcDbEntity
  8
5
  6
Continuous
 62
     4
370
    25
100
AcDbCircle
 10
1035.198547406275
 20
1453.471617581113
 30
0.0
 40
4.5
100
AcDbArc
 50
269.9999999999998
 51
89.99999999999991
  0
MTEXT
  5
1B7
330
1F
100
AcDbEntity
  8
5
  6
Continuous
 62
     4
370
     9
100
AcDbMText
 10
1032.700773735336
 20
1453.471616710314
 30
0.0
 40
6.050000000000001
 41
7.738039523786001
 46
6.050000000000001
 71
     5
 72
     1
  1
{\fＭＳ Ｐゴシック;\W0.714286;弁}
 73
     1
 44
1.0
1001
ACAD
1000
ACAD_MTEXT_DEFINED_HEIGHT_BEGIN
1070
    46
1040
6.050000000000001
1000
ACAD_MTEXT_DEFINED_HEIGHT_END
  0
MTEXT
  5
1B8
330
1F
100
AcDbEntity
  8
5
  6
Continuous
 62
     4
370
     9
100
AcDbMText
 10
1008.700773735336
 20
1453.471616710314
 30
0.0
 40
6.050000000000001
 41
7.842358851228001
 46
6.050000000000001
 71
     5
 72
     1
  1
{\fＭＳ Ｐゴシック;\W0.714286;電}
 73
     1
 44
1.0
1001
ACAD
1000
ACAD_MTEXT_DEFINED_HEIGHT_BEGIN
1070
    46
1040
6.050000000000001
1000
ACAD_MTEXT_DEFINED_HEIGHT_END
  0
MTEXT
  5
1B9
330
1F
100
AcDbEntity
  8
5
  6
Continuous
 62
     4
370
     9
100
AcDbMText
 10
1020.700773735336
 20
1453.471616710314
 30
0.0
 40
6.050000000000001
 41
7.664402351474001
 46
6.050000000000001
 71
     5
 72
     1
  1
{\fＭＳ Ｐゴシック;\W0.714286;動}
 73
     1
 44
1.0
1001
ACAD
1000
ACAD_MTEXT_DEFINED_HEIGHT_BEGIN
1070
    46
1040
6.050000000000001
1000
ACAD_MTEXT_DEFINED_HEIGHT_END
  0
MTEXT
  5
1BA
330
1F
100
AcDbEntity
  8
5
  6
Continuous
 62
     4
370
     9
100
AcDbMText
 10
1032.700773735336
 20
1473.471616710314
 30
0.0
 40
6.050000000000001
 41
8.22281757484
 46
6.050000000000001
 71
     5
 72
     1
  1
{\fＭＳ Ｐゴシック;\W0.714286;器}
 73
     1
 44
1.0
1001
ACAD
1000
ACAD_MTEXT_DEFINED_HEIGHT_BEGIN
1070
    46
1040
6.050000000000001
1000
ACAD_MTEXT_DEFINED_HEIGHT_END
  0
MTEXT
  5
1BB
330
1F
100
AcDbEntity
  8
5
  6
Continuous
 62
     4
370
     9
100
AcDbMText
 10
1008.700773735336
 20
1473.471616710314
 30
0.0
 40
6.050000000000001
 41
7.977360333800002
 46
6.050000000000001
 71
     5
 72
     1
  1
{\fＭＳ Ｐゴシック;\W0.714286;感}
 73
     1
 44
1.0
1001
ACAD
1000
ACAD_MTEXT_DEFINED_HEIGHT_BEGIN
1070
    46
1040
6.050000000000001
1000
ACAD_MTEXT_DEFINED_HEIGHT_END
  0
MTEXT
  5
1BC
330
1F
100
AcDbEntity
  8
5
  6
Continuous
 62
     4
370
     9
100
AcDbMText
 10
1020.700773735336
 20
1473.471616710314
 30
0.0
 40
6.050000000000001
 41
7.455763696590001
 46
6.050000000000001
 71
     5
 72
     1
  1
{\fＭＳ Ｐゴシック;\W0.714286;知}
 73
     1
 44
1.0
1001
ACAD
1000
ACAD_MTEXT_DEFINED_HEIGHT_BEGIN
1070
    46
1040
6.050000000000001
1000
ACAD_MTEXT_DEFINED_HEIGHT_END
  0
LINE
  5
1BD
330
1F
100
AcDbEntity
  8
5
  6
Continuous
 62
     4
370
    25
100
AcDbLine
 10
1006.798547406272
 20
1414.069139480377
 30
0.0
 11
1025.598547406273
 21
1414.069139480377
 31
0.0
  0
LINE
  5
1BE
330
1F
100
AcDbEntity
  8
5
  6
Continuous
 62
     4
370
    25
100
AcDbLine
 10
1025.598547406273
 20
1414.069139480377
 30
0.0
 11
1025.598547406273
 21
1432.869139480377
 31
0.0
  0
LINE
  5
1BF
330
1F
100
AcDbEntity
  8
5
  6
Continuous
 62
     4
370
    25
100
AcDbLine
 10
1025.598547406273
 20
1432.869139480377
 30
0.0
 11
1006.798547406272
 21
1432.869139480377
 31
0.0
  0
LINE
  5
1C0
330
1F
100
AcDbEntity
  8
5
  6
Continuous
 62
     4
370
    25
100
AcDbLine
 10
1006.798547406272
 20
1432.869139480377
 30
0.0
 11
1006.798547406273
 21
1414.069139480377
 31
0.0
  0
LINE
  5
1C1
330
1F
100
AcDbEntity
  8
5
  6
Continuous
 62
     4
370
    25
100
AcDbLine
 10
1005.998547406274
 20
1433.719139480377
 30
0.0
 11
1026.398547406274
 21
1433.719139480377
 31
0.0
  0
LINE
  5
1C2
330
1F
100
AcDbEntity
  8
5
  6
Continuous
 62
     4
370
    25
100
AcDbLine
 10
1005.998547406274
 20
1433.719139480377
 30
0.0
 11
1005.998547406274
 21
1413.219139480377
 31
0.0
  0
LINE
  5
1C3
330
1F
100
AcDbEntity
  8
5
  6
Continuous
 62
     4
370
    25
100
AcDbLine
 10
1026.398547406274
 20
1433.719139480377
 30
0.0
 11
1026.398547406274
 21
1413.219139480377
 31
0.0
  0
LINE
  5
1C4
330
1F
100
AcDbEntity
  8
5
  6
Continuous
 62
     4
370
    25
100
AcDbLine
 10
1005.998547406274
 20
1413.219139480377
 30
0.0
 11
1026.398547406274
 21
1413.219139480377
 31
0.0
  0
LINE
  5
1C5
330
1F
100
AcDbEntity
  8
5
  6
Continuous
 62
     4
370
    25
100
AcDbLine
 10
1018.998554906275
 20
1430.719144480377
 30
0.0
 11
1010.998547406274
 21
1430.719144480377
 31
0.0
  0
LINE
  5
1C6
330
1F
100
AcDbEntity
  8
5
  6
Continuous
 62
     4
370
    25
100
AcDbLine
 10
1018.998554906275
 20
1430.719144480377
 30
0.0
 11
1018.998554906275
 21
1432.869139480377
 31
0.0
  0
LINE
  5
1C7
330
1F
100
AcDbEntity
  8
5
  6
Continuous
 62
     4
370
    25
100
AcDbLine
 10
1010.998547406274
 20
1430.719144480377
 30
0.0
 11
1010.998547406274
 21
1432.869139480377
 31
0.0
  0
MTEXT
  5
1C8
330
1F
100
AcDbEntity
  8
5
  6
Continuous
 62
     4
370
     9
100
AcDbMText
 10
1016.198547406273
 20
1423.469139480377
 30
0.0
 40
6.050000000000001
 41
16.869048890474
 46
6.050000000000001
 71
     5
 72
     1
  1
{\fＭＳ Ｐゴシック;\W0.714286;起動}
 73
     1
 44
1.0
1001
ACAD
1000
ACAD_MTEXT_DEFINED_HEIGHT_BEGIN
1070
    46
1040
6.050000000000001
1000
ACAD_MTEXT_DEFINED_HEIGHT_END
  0
LINE
  5
1C9
330
1F
100
AcDbEntity
  8
5
  6
Continuous
 62
     4
370
    25
100
AcDbLine
 10
805.1985474062731
 20
1506.471617145714
 30
0.0
 11
805.1985474062731
 21
1518.471617145715
 31
0.0
  0
ARC
  5
1CA
330
1F
100
AcDbEntity
  8
5
  6
Continuous
 62
     4
370
    25
100
AcDbCircle
 10
806.1985474062731
 20
1518.471617145715
 30
0.0
 40
1.0
100
AcDbArc
 50
89.99999999999991
 51
179.9999999999998
  0
LINE
  5
1CB
330
1F
100
AcDbEntity
  8
5
  6
Continuous
 62
     4
370
    25
100
AcDbLine
 10
855.1985474062731
 20
1518.471617145715
 30
0.0
 11
855.1985474062731
 21
1506.471617145714
 31
0.0
  0
ARC
  5
1CC
330
1F
100
AcDbEntity
  8
5
  6
Continuous
 62
     4
370
    25
100
AcDbCircle
 10
854.1985474062731
 20
1518.471617145715
 30
0.0
 40
1.0
100
AcDbArc
 50
0.0
 51
89.99999999999991
  0
LINE
  5
1CD
330
1F
100
AcDbEntity
  8
5
  6
Continuous
 62
     4
370
    25
100
AcDbLine
 10
854.1985474062731
 20
1505.471617145714
 30
0.0
 11
806.1985474062731
 21
1505.471617145714
 31
0.0
  0
ARC
  5
1CE
330
1F
100
AcDbEntity
  8
5
  6
Continuous
 62
     4
370
    25
100
AcDbCircle
 10
854.1985474062731
 20
1506.471617145714
 30
0.0
 40
1.0
100
AcDbArc
 50
269.9999999999998
 51
0.0
  0
ARC
  5
1CF
330
1F
100
AcDbEntity
  8
5
  6
Continuous
 62
     4
370
    25
100
AcDbCircle
 10
806.1985474062731
 20
1506.471617145714
 30
0.0
 40
1.0
100
AcDbArc
 50
179.9999999999998
 51
269.9999999999998
  0
LINE
  5
1D0
330
1F
100
AcDbEntity
  8
5
  6
Continuous
 62
     4
370
    25
100
AcDbLine
 10
854.1985474062731
 20
1519.471617145714
 30
0.0
 11
806.1985474062731
 21
1519.471617145714
 31
0.0
  0
LINE
  5
1D1
330
1F
100
AcDbEntity
  8
5
  6
Continuous
 62
     4
370
    25
100
AcDbLine
 10
803.1985474062731
 20
1408.471617145714
 30
0.0
 11
857.1985474062731
 21
1408.471617145714
 31
0.0
  0
ARC
  5
1D2
330
1F
100
AcDbEntity
  8
5
  6
Continuous
 62
     4
370
    25
100
AcDbCircle
 10
857.1985474062731
 20
1411.471617145715
 30
0.0
 40
3.0
100
AcDbArc
 50
269.9999999999998
 51
0.0
  0
LINE
  5
1D3
330
1F
100
AcDbEntity
  8
5
  6
Continuous
 62
     4
370
    25
100
AcDbLine
 10
800.1985474062731
 20
1411.471617145715
 30
0.0
 11
800.1985474062731
 21
1529.471617145714
 31
0.0
  0
ARC
  5
1D4
330
1F
100
AcDbEntity
  8
5
  6
Continuous
 62
     4
370
    25
100
AcDbCircle
 10
803.1985474062731
 20
1411.471617145715
 30
0.0
 40
3.0
100
AcDbArc
 50
179.9999999999998
 51
269.9999999999998
  0
ARC
  5
1D5
330
1F
100
AcDbEntity
  8
5
  6
Continuous
 62
     4
370
    25
100
AcDbCircle
 10
803.1985474062731
 20
1529.471617145714
 30
0.0
 40
3.0
100
AcDbArc
 50
89.99999999999991
 51
179.9999999999998
  0
LINE
  5
1D6
330
1F
100
AcDbEntity
  8
5
  6
Continuous
 62
     4
370
    25
100
AcDbLine
 10
860.1985474062731
 20
1411.471617145715
 30
0.0
 11
860.1985474062731
 21
1529.471617145714
 31
0.0
  0
ARC
  5
1D7
330
1F
100
AcDbEntity
  8
5
  6
Continuous
 62
     4
370
    25
100
AcDbCircle
 10
857.1985474062731
 20
1529.471617145714
 30
0.0
 40
3.0
100
AcDbArc
 50
0.0
 51
89.99999999999991
  0
LINE
  5
1D8
330
1F
100
AcDbEntity
  8
5
  6
Continuous
 62
     4
370
    25
100
AcDbLine
 10
803.1985474062731
 20
1532.471617145715
 30
0.0
 11
857.1985474062731
 21
1532.471617145715
 31
0.0
  0
CIRCLE
  5
1D9
330
1F
100
AcDbEntity
  8
5
  6
Continuous
 62
     4
370
    25
100
AcDbCircle
 10
812.6985474062749
 20
1473.471616710315
 30
0.0
 40
3.0
  0
CIRCLE
  5
1DA
330
1F
100
AcDbEntity
  8
5
  6
Continuous
 62
     4
370
    25
100
AcDbCircle
 10
812.6985474062749
 20
1483.471616710315
 30
0.0
 40
3.0
  0
MTEXT
  5
1DB
330
1F
100
AcDbEntity
  8
5
  6
Continuous
 62
     4
370
     9
100
AcDbMText
 10
846.700773735336
 20
1483.471616710315
 30
0.0
 40
6.050000000000001
 41
8.050997506112001
 46
6.050000000000001
 71
     5
 72
     1
  1
{\fＭＳ Ｐゴシック;\W0.714286;水}
 73
     1
 44
1.0
1001
ACAD
1000
ACAD_MTEXT_DEFINED_HEIGHT_BEGIN
1070
    46
1040
6.050000000000001
1000
ACAD_MTEXT_DEFINED_HEIGHT_END
  0
MTEXT
  5
1DC
330
1F
100
AcDbEntity
  8
5
  6
Continuous
 62
     4
370
     9
100
AcDbMText
 10
822.700773735336
 20
1483.471616710315
 30
0.0
 40
6.050000000000001
 41
8.050997506112001
 46
6.050000000000001
 71
     5
 72
     1
  1
{\fＭＳ Ｐゴシック;\W0.714286;流}
 73
     1
 44
1.0
1001
ACAD
1000
ACAD_MTEXT_DEFINED_HEIGHT_BEGIN
1070
    46
1040
6.050000000000001
1000
ACAD_MTEXT_DEFINED_HEIGHT_END
  0
CIRCLE
  5
1DD
330
1F
100
AcDbEntity
  8
5
  6
Continuous
 62
     4
370
    25
100
AcDbCircle
 10
812.6985474062749
 20
1463.471616710315
 30
0.0
 40
3.0
  0
MTEXT
  5
1DE
330
1F
100
AcDbEntity
  8
5
  6
Continuous
 62
     4
370
     9
100
AcDbMText
 10
846.700773735336
 20
1463.471616710315
 30
0.0
 40
6.050000000000001
 41
8.22281757484
 46
6.050000000000001
 71
     5
 72
     1
  1
{\fＭＳ Ｐゴシック;\W0.714286;減}
 73
     1
 44
1.0
1001
ACAD
1000
ACAD_MTEXT_DEFINED_HEIGHT_BEGIN
1070
    46
1040
6.050000000000001
1000
ACAD_MTEXT_DEFINED_HEIGHT_END
  0
MTEXT
  5
1DF
330
1F
100
AcDbEntity
  8
5
  6
Continuous
 62
     4
370
     9
100
AcDbMText
 10
838.700773735336
 20
1463.471616710315
 30
0.0
 40
6.050000000000001
 41
7.842358851228001
 46
6.050000000000001
 71
     5
 72
     1
  1
{\fＭＳ Ｐゴシック;\W0.714286;圧}
 73
     1
 44
1.0
1001
ACAD
1000
ACAD_MTEXT_DEFINED_HEIGHT_BEGIN
1070
    46
1040
6.050000000000001
1000
ACAD_MTEXT_DEFINED_HEIGHT_END
  0
MTEXT
  5
1E0
330
1F
100
AcDbEntity
  8
5
  6
Continuous
 62
     4
370
     9
100
AcDbMText
 10
830.700773735336
 20
1463.471616710315
 30
0.0
 40
6.050000000000001
 41
8.050997506112001
 46
6.050000000000001
 71
     5
 72
     1
  1
{\fＭＳ Ｐゴシック;\W0.714286;次}
 73
     1
 44
1.0
1001
ACAD
1000
ACAD_MTEXT_DEFINED_HEIGHT_BEGIN
1070
    46
1040
6.050000000000001
1000
ACAD_MTEXT_DEFINED_HEIGHT_END
  0
MTEXT
  5
1E1
330
1F
100
AcDbEntity
  8
5
  6
Continuous
 62
     4
370
     9
100
AcDbMText
 10
822.700773735336
 20
1463.471616710315
 30
0.0
 40
6.050000000000001
 41
3.552993564054001
 46
6.050000000000001
 71
     5
 72
     1
  1
{\fＭＳ Ｐゴシック;\W0.714286;2}
 73
     1
 44
1.0
1001
ACAD
1000
ACAD_MTEXT_DEFINED_HEIGHT_BEGIN
1070
    46
1040
6.050000000000001
1000
ACAD_MTEXT_DEFINED_HEIGHT_END
  0
ARC
  5
1E2
330
1F
100
AcDbEntity
  8
5
  6
Continuous
 62
     4
370
    25
100
AcDbCircle
 10
812.1985474062749
 20
1483.471618016515
 30
0.0
 40
4.5
100
AcDbArc
 50
89.99999999999991
 51
269.9999999999998
  0
LINE
  5
1E3
330
1F
100
AcDbEntity
  8
5
  6
Continuous
 62
     4
370
    25
100
AcDbLine
 10
812.1985474062749
 20
1487.971618016515
 30
0.0
 11
849.1985474062749
 21
1487.971618016515
 31
0.0
  0
LINE
  5
1E4
330
1F
100
AcDbEntity
  8
5
  6
Continuous
 62
     4
370
    25
100
AcDbLine
 10
812.1985474062749
 20
1478.971618016515
 30
0.0
 11
849.1985474062749
 21
1478.971618016515
 31
0.0
  0
ARC
  5
1E5
330
1F
100
AcDbEntity
  8
5
  6
Continuous
 62
     4
370
    25
100
AcDbCircle
 10
849.1985474062749
 20
1483.471618016515
 30
0.0
 40
4.5
100
AcDbArc
 50
269.9999999999998
 51
89.99999999999991
  0
ARC
  5
1E6
330
1F
100
AcDbEntity
  8
5
  6
Continuous
 62
     4
370
    25
100
AcDbCircle
 10
812.1985474062749
 20
1473.471617581114
 30
0.0
 40
4.5
100
AcDbArc
 50
89.99999999999991
 51
269.9999999999998
  0
LINE
  5
1E7
330
1F
100
AcDbEntity
  8
5
  6
Continuous
 62
     4
370
    25
100
AcDbLine
 10
812.1985474062749
 20
1477.971617581114
 30
0.0
 11
849.1985474062749
 21
1477.971617581114
 31
0.0
  0
LINE
  5
1E8
330
1F
100
AcDbEntity
  8
5
  6
Continuous
 62
     4
370
    25
100
AcDbLine
 10
812.1985474062749
 20
1468.971617581114
 30
0.0
 11
849.1985474062749
 21
1468.971617581114
 31
0.0
  0
ARC
  5
1E9
330
1F
100
AcDbEntity
  8
5
  6
Continuous
 62
     4
370
    25
100
AcDbCircle
 10
849.1985474062749
 20
1473.471617581114
 30
0.0
 40
4.5
100
AcDbArc
 50
269.9999999999998
 51
89.99999999999991
  0
ARC
  5
1EA
330
1F
100
AcDbEntity
  8
5
  6
Continuous
 62
     4
370
    25
100
AcDbCircle
 10
812.1985474062749
 20
1463.471617581114
 30
0.0
 40
4.5
100
AcDbArc
 50
89.99999999999991
 51
269.9999999999998
  0
LINE
  5
1EB
330
1F
100
AcDbEntity
  8
5
  6
Continuous
 62
     4
370
    25
100
AcDbLine
 10
812.1985474062749
 20
1467.971617581114
 30
0.0
 11
849.1985474062749
 21
1467.971617581114
 31
0.0
  0
LINE
  5
1EC
330
1F
100
AcDbEntity
  8
5
  6
Continuous
 62
     4
370
    25
100
AcDbLine
 10
812.1985474062749
 20
1458.971617581114
 30
0.0
 11
849.1985474062749
 21
1458.971617581114
 31
0.0
  0
ARC
  5
1ED
330
1F
100
AcDbEntity
  8
5
  6
Continuous
 62
     4
370
    25
100
AcDbCircle
 10
849.1985474062749
 20
1463.471617581114
 30
0.0
 40
4.5
100
AcDbArc
 50
269.9999999999998
 51
89.99999999999991
  0
CIRCLE
  5
1EE
330
1F
100
AcDbEntity
  8
5
  6
Continuous
 62
     4
370
    25
100
AcDbCircle
 10
812.6985474062749
 20
1453.471616710315
 30
0.0
 40
3.0
  0
ARC
  5
1EF
330
1F
100
AcDbEntity
  8
5
  6
Continuous
 62
     4
370
    25
100
AcDbCircle
 10
812.1985474062749
 20
1453.471617581114
 30
0.0
 40
4.5
100
AcDbArc
 50
89.99999999999991
 51
269.9999999999998
  0
LINE
  5
1F0
330
1F
100
AcDbEntity
  8
5
  6
Continuous
 62
     4
370
    25
100
AcDbLine
 10
812.1985474062749
 20
1457.971617581114
 30
0.0
 11
849.1985474062749
 21
1457.971617581114
 31
0.0
  0
LINE
  5
1F1
330
1F
100
AcDbEntity
  8
5
  6
Continuous
 62
     4
370
    25
100
AcDbLine
 10
812.1985474062749
 20
1448.971617581114
 30
0.0
 11
849.1985474062749
 21
1448.971617581114
 31
0.0
  0
ARC
  5
1F2
330
1F
100
AcDbEntity
  8
5
  6
Continuous
 62
     4
370
    25
100
AcDbCircle
 10
849.1985474062749
 20
1453.471617581114
 30
0.0
 40
4.5
100
AcDbArc
 50
269.9999999999998
 51
89.99999999999991
  0
MTEXT
  5
1F3
330
1F
100
AcDbEntity
  8
5
  6
Continuous
 62
     4
370
     9
100
AcDbMText
 10
846.700773735336
 20
1453.471616710315
 30
0.0
 40
6.050000000000001
 41
7.738039523786001
 46
6.050000000000001
 71
     5
 72
     1
  1
{\fＭＳ Ｐゴシック;\W0.714286;弁}
 73
     1
 44
1.0
1001
ACAD
1000
ACAD_MTEXT_DEFINED_HEIGHT_BEGIN
1070
    46
1040
6.050000000000001
1000
ACAD_MTEXT_DEFINED_HEIGHT_END
  0
MTEXT
  5
1F4
330
1F
100
AcDbEntity
  8
5
  6
Continuous
 62
     4
370
     9
100
AcDbMText
 10
822.700773735336
 20
1453.471616710315
 30
0.0
 40
6.050000000000001
 41
7.842358851228001
 46
6.050000000000001
 71
     5
 72
     1
  1
{\fＭＳ Ｐゴシック;\W0.714286;電}
 73
     1
 44
1.0
1001
ACAD
1000
ACAD_MTEXT_DEFINED_HEIGHT_BEGIN
1070
    46
1040
6.050000000000001
1000
ACAD_MTEXT_DEFINED_HEIGHT_END
  0
MTEXT
  5
1F5
330
1F
100
AcDbEntity
  8
5
  6
Continuous
 62
     4
370
     9
100
AcDbMText
 10
834.700773735336
 20
1453.471616710315
 30
0.0
 40
6.050000000000001
 41
7.664402351474001
 46
6.050000000000001
 71
     5
 72
     1
  1
{\fＭＳ Ｐゴシック;\W0.714286;動}
 73
     1
 44
1.0
1001
ACAD
1000
ACAD_MTEXT_DEFINED_HEIGHT_BEGIN
1070
    46
1040
6.050000000000001
1000
ACAD_MTEXT_DEFINED_HEIGHT_END
  0
MTEXT
  5
1F6
330
1F
100
AcDbEntity
  8
5
  6
Continuous
 62
     4
370
     9
100
AcDbMText
 10
846.700773735336
 20
1473.471616710315
 30
0.0
 40
6.050000000000001
 41
8.22281757484
 46
6.050000000000001
 71
     5
 72
     1
  1
{\fＭＳ Ｐゴシック;\W0.714286;器}
 73
     1
 44
1.0
1001
ACAD
1000
ACAD_MTEXT_DEFINED_HEIGHT_BEGIN
1070
    46
1040
6.050000000000001
1000
ACAD_MTEXT_DEFINED_HEIGHT_END
  0
MTEXT
  5
1F7
330
1F
100
AcDbEntity
  8
5
  6
Continuous
 62
     4
370
     9
100
AcDbMText
 10
822.700773735336
 20
1473.471616710315
 30
0.0
 40
6.050000000000001
 41
7.977360333800002
 46
6.050000000000001
 71
     5
 72
     1
  1
{\fＭＳ Ｐゴシック;\W0.714286;感}
 73
     1
 44
1.0
1001
ACAD
1000
ACAD_MTEXT_DEFINED_HEIGHT_BEGIN
1070
    46
1040
6.050000000000001
1000
ACAD_MTEXT_DEFINED_HEIGHT_END
  0
MTEXT
  5
1F8
330
1F
100
AcDbEntity
  8
5
  6
Continuous
 62
     4
370
     9
100
AcDbMText
 10
834.700773735336
 20
1473.471616710315
 30
0.0
 40
6.050000000000001
 41
7.455763696590001
 46
6.050000000000001
 71
     5
 72
     1
  1
{\fＭＳ Ｐゴシック;\W0.714286;知}
 73
     1
 44
1.0
1001
ACAD
1000
ACAD_MTEXT_DEFINED_HEIGHT_BEGIN
1070
    46
1040
6.050000000000001
1000
ACAD_MTEXT_DEFINED_HEIGHT_END
  0
LINE
  5
1F9
330
1F
100
AcDbEntity
  8
5
  6
Continuous
 62
     4
370
    25
100
AcDbLine
 10
820.7985474062716
 20
1414.069139480378
 30
0.0
 11
839.5985474062727
 21
1414.069139480378
 31
0.0
  0
LINE
  5
1FA
330
1F
100
AcDbEntity
  8
5
  6
Continuous
 62
     4
370
    25
100
AcDbLine
 10
839.5985474062727
 20
1414.069139480378
 30
0.0
 11
839.5985474062727
 21
1432.869139480378
 31
0.0
  0
LINE
  5
1FB
330
1F
100
AcDbEntity
  8
5
  6
Continuous
 62
     4
370
    25
100
AcDbLine
 10
839.5985474062727
 20
1432.869139480378
 30
0.0
 11
820.7985474062716
 21
1432.869139480378
 31
0.0
  0
LINE
  5
1FC
330
1F
100
AcDbEntity
  8
5
  6
Continuous
 62
     4
370
    25
100
AcDbLine
 10
820.7985474062716
 20
1432.869139480378
 30
0.0
 11
820.7985474062734
 21
1414.069139480378
 31
0.0
  0
LINE
  5
1FD
330
1F
100
AcDbEntity
  8
5
  6
Continuous
 62
     4
370
    25
100
AcDbLine
 10
819.9985474062742
 20
1433.719139480378
 30
0.0
 11
840.3985474062738
 21
1433.719139480378
 31
0.0
  0
LINE
  5
1FE
330
1F
100
AcDbEntity
  8
5
  6
Continuous
 62
     4
370
    25
100
AcDbLine
 10
819.9985474062742
 20
1433.719139480378
 30
0.0
 11
819.9985474062742
 21
1413.219139480378
 31
0.0
  0
LINE
  5
1FF
330
1F
100
AcDbEntity
  8
5
  6
Continuous
 62
     4
370
    25
100
AcDbLine
 10
840.3985474062738
 20
1433.719139480378
 30
0.0
 11
840.3985474062738
 21
1413.219139480378
 31
0.0
  0
LINE
  5
200
330
1F
100
AcDbEntity
  8
5
  6
Continuous
 62
     4
370
    25
100
AcDbLine
 10
819.9985474062742
 20
1413.219139480378
 30
0.0
 11
840.3985474062738
 21
1413.219139480378
 31
0.0
  0
LINE
  5
201
330
1F
100
AcDbEntity
  8
5
  6
Continuous
 62
     4
370
    25
100
AcDbLine
 10
832.9985549062749
 20
1430.719144480378
 30
0.0
 11
824.9985474062742
 21
1430.719144480378
 31
0.0
  0
LINE
  5
202
330
1F
100
AcDbEntity
  8
5
  6
Continuous
 62
     4
370
    25
100
AcDbLine
 10
832.9985549062749
 20
1430.719144480378
 30
0.0
 11
832.9985549062749
 21
1432.869139480378
 31
0.0
  0
LINE
  5
203
330
1F
100
AcDbEntity
  8
5
  6
Continuous
 62
     4
370
    25
100
AcDbLine
 10
824.9985474062742
 20
1430.719144480378
 30
0.0
 11
824.9985474062742
 21
1432.869139480378
 31
0.0
  0
MTEXT
  5
204
330
1F
100
AcDbEntity
  8
5
  6
Continuous
 62
     4
370
     9
100
AcDbMText
 10
830.1985474062731
 20
1423.469139480378
 30
0.0
 40
6.050000000000001
 41
16.869048890474
 46
6.050000000000001
 71
     5
 72
     1
  1
{\fＭＳ Ｐゴシック;\W0.714286;起動}
 73
     1
 44
1.0
1001
ACAD
1000
ACAD_MTEXT_DEFINED_HEIGHT_BEGIN
1070
    46
1040
6.050000000000001
1000
ACAD_MTEXT_DEFINED_HEIGHT_END
  0
LINE
  5
205
330
1F
100
AcDbEntity
  8
5
  6
Continuous
 62
     4
370
    25
100
AcDbLine
 10
743.1985474062731
 20
1506.471617145715
 30
0.0
 11
743.1985474062731
 21
1518.471617145715
 31
0.0
  0
ARC
  5
206
330
1F
100
AcDbEntity
  8
5
  6
Continuous
 62
     4
370
    25
100
AcDbCircle
 10
744.1985474062731
 20
1518.471617145715
 30
0.0
 40
1.0
100
AcDbArc
 50
89.99999999999991
 51
179.9999999999998
  0
LINE
  5
207
330
1F
100
AcDbEntity
  8
5
  6
Continuous
 62
     4
370
    25
100
AcDbLine
 10
793.1985474062731
 20
1518.471617145715
 30
0.0
 11
793.1985474062731
 21
1506.471617145715
 31
0.0
  0
ARC
  5
208
330
1F
100
AcDbEntity
  8
5
  6
Continuous
 62
     4
370
    25
100
AcDbCircle
 10
792.1985474062731
 20
1518.471617145715
 30
0.0
 40
1.0
100
AcDbArc
 50
0.0
 51
89.99999999999991
  0
LINE
  5
209
330
1F
100
AcDbEntity
  8
5
  6
Continuous
 62
     4
370
    25
100
AcDbLine
 10
792.1985474062731
 20
1505.471617145715
 30
0.0
 11
744.1985474062731
 21
1505.471617145715
 31
0.0
  0
ARC
  5
20A
330
1F
100
AcDbEntity
  8
5
  6
Continuous
 62
     4
370
    25
100
AcDbCircle
 10
792.1985474062731
 20
1506.471617145715
 30
0.0
 40
1.0
100
AcDbArc
 50
269.9999999999998
 51
0.0
  0
ARC
  5
20B
330
1F
100
AcDbEntity
  8
5
  6
Continuous
 62
     4
370
    25
100
AcDbCircle
 10
744.1985474062731
 20
1506.471617145715
 30
0.0
 40
1.0
100
AcDbArc
 50
179.9999999999998
 51
269.9999999999998
  0
LINE
  5
20C
330
1F
100
AcDbEntity
  8
5
  6
Continuous
 62
     4
370
    25
100
AcDbLine
 10
792.1985474062731
 20
1519.471617145715
 30
0.0
 11
744.1985474062731
 21
1519.471617145715
 31
0.0
  0
LINE
  5
20D
330
1F
100
AcDbEntity
  8
5
  6
Continuous
 62
     4
370
    25
100
AcDbLine
 10
741.1985474062731
 20
1408.471617145715
 30
0.0
 11
795.1985474062731
 21
1408.471617145715
 31
0.0
  0
ARC
  5
20E
330
1F
100
AcDbEntity
  8
5
  6
Continuous
 62
     4
370
    25
100
AcDbCircle
 10
795.1985474062731
 20
1411.471617145715
 30
0.0
 40
3.0
100
AcDbArc
 50
269.9999999999998
 51
0.0
  0
LINE
  5
20F
330
1F
100
AcDbEntity
  8
5
  6
Continuous
 62
     4
370
    25
100
AcDbLine
 10
738.1985474062731
 20
1411.471617145715
 30
0.0
 11
738.1985474062731
 21
1529.471617145715
 31
0.0
  0
ARC
  5
210
330
1F
100
AcDbEntity
  8
5
  6
Continuous
 62
     4
370
    25
100
AcDbCircle
 10
741.1985474062731
 20
1411.471617145715
 30
0.0
 40
3.0
100
AcDbArc
 50
179.9999999999998
 51
269.9999999999998
  0
ARC
  5
211
330
1F
100
AcDbEntity
  8
5
  6
Continuous
 62
     4
370
    25
100
AcDbCircle
 10
741.1985474062731
 20
1529.471617145715
 30
0.0
 40
3.0
100
AcDbArc
 50
89.99999999999991
 51
179.9999999999998
  0
LINE
  5
212
330
1F
100
AcDbEntity
  8
5
  6
Continuous
 62
     4
370
    25
100
AcDbLine
 10
798.1985474062731
 20
1411.471617145715
 30
0.0
 11
798.1985474062731
 21
1529.471617145715
 31
0.0
  0
ARC
  5
213
330
1F
100
AcDbEntity
  8
5
  6
Continuous
 62
     4
370
    25
100
AcDbCircle
 10
795.1985474062731
 20
1529.471617145715
 30
0.0
 40
3.0
100
AcDbArc
 50
0.0
 51
89.99999999999991
  0
LINE
  5
214
330
1F
100
AcDbEntity
  8
5
  6
Continuous
 62
     4
370
    25
100
AcDbLine
 10
741.1985474062731
 20
1532.471617145715
 30
0.0
 11
795.1985474062731
 21
1532.471617145715
 31
0.0
  0
CIRCLE
  5
215
330
1F
100
AcDbEntity
  8
5
  6
Continuous
 62
     4
370
    25
100
AcDbCircle
 10
750.6985474062749
 20
1473.471616710316
 30
0.0
 40
3.0
  0
CIRCLE
  5
216
330
1F
100
AcDbEntity
  8
5
  6
Continuous
 62
     4
370
    25
100
AcDbCircle
 10
750.6985474062749
 20
1483.471616710316
 30
0.0
 40
3.0
  0
MTEXT
  5
217
330
1F
100
AcDbEntity
  8
5
  6
Continuous
 62
     4
370
     9
100
AcDbMText
 10
784.700773735336
 20
1483.471616710316
 30
0.0
 40
6.050000000000001
 41
8.050997506112001
 46
6.050000000000001
 71
     5
 72
     1
  1
{\fＭＳ Ｐゴシック;\W0.714286;水}
 73
     1
 44
1.0
1001
ACAD
1000
ACAD_MTEXT_DEFINED_HEIGHT_BEGIN
1070
    46
1040
6.050000000000001
1000
ACAD_MTEXT_DEFINED_HEIGHT_END
  0
MTEXT
  5
218
330
1F
100
AcDbEntity
  8
5
  6
Continuous
 62
     4
370
     9
100
AcDbMText
 10
760.700773735336
 20
1483.471616710316
 30
0.0
 40
6.050000000000001
 41
8.050997506112001
 46
6.050000000000001
 71
     5
 72
     1
  1
{\fＭＳ Ｐゴシック;\W0.714286;流}
 73
     1
 44
1.0
1001
ACAD
1000
ACAD_MTEXT_DEFINED_HEIGHT_BEGIN
1070
    46
1040
6.050000000000001
1000
ACAD_MTEXT_DEFINED_HEIGHT_END
  0
CIRCLE
  5
219
330
1F
100
AcDbEntity
  8
5
  6
Continuous
 62
     4
370
    25
100
AcDbCircle
 10
750.6985474062749
 20
1463.471616710316
 30
0.0
 40
3.0
  0
MTEXT
  5
21A
330
1F
100
AcDbEntity
  8
5
  6
Continuous
 62
     4
370
     9
100
AcDbMText
 10
784.700773735336
 20
1463.471616710316
 30
0.0
 40
6.050000000000001
 41
8.22281757484
 46
6.050000000000001
 71
     5
 72
     1
  1
{\fＭＳ Ｐゴシック;\W0.714286;減}
 73
     1
 44
1.0
1001
ACAD
1000
ACAD_MTEXT_DEFINED_HEIGHT_BEGIN
1070
    46
1040
6.050000000000001
1000
ACAD_MTEXT_DEFINED_HEIGHT_END
  0
MTEXT
  5
21B
330
1F
100
AcDbEntity
  8
5
  6
Continuous
 62
     4
370
     9
100
AcDbMText
 10
776.700773735336
 20
1463.471616710316
 30
0.0
 40
6.050000000000001
 41
7.842358851228001
 46
6.050000000000001
 71
     5
 72
     1
  1
{\fＭＳ Ｐゴシック;\W0.714286;圧}
 73
     1
 44
1.0
1001
ACAD
1000
ACAD_MTEXT_DEFINED_HEIGHT_BEGIN
1070
    46
1040
6.050000000000001
1000
ACAD_MTEXT_DEFINED_HEIGHT_END
  0
MTEXT
  5
21C
330
1F
100
AcDbEntity
  8
5
  6
Continuous
 62
     4
370
     9
100
AcDbMText
 10
768.700773735336
 20
1463.471616710316
 30
0.0
 40
6.050000000000001
 41
8.050997506112001
 46
6.050000000000001
 71
     5
 72
     1
  1
{\fＭＳ Ｐゴシック;\W0.714286;次}
 73
     1
 44
1.0
1001
ACAD
1000
ACAD_MTEXT_DEFINED_HEIGHT_BEGIN
1070
    46
1040
6.050000000000001
1000
ACAD_MTEXT_DEFINED_HEIGHT_END
  0
MTEXT
  5
21D
330
1F
100
AcDbEntity
  8
5
  6
Continuous
 62
     4
370
     9
100
AcDbMText
 10
760.700773735336
 20
1463.471616710316
 30
0.0
 40
6.050000000000001
 41
3.552993564054001
 46
6.050000000000001
 71
     5
 72
     1
  1
{\fＭＳ Ｐゴシック;\W0.714286;2}
 73
     1
 44
1.0
1001
ACAD
1000
ACAD_MTEXT_DEFINED_HEIGHT_BEGIN
1070
    46
1040
6.050000000000001
1000
ACAD_MTEXT_DEFINED_HEIGHT_END
  0
ARC
  5
21E
330
1F
100
AcDbEntity
  8
5
  6
Continuous
 62
     4
370
    25
100
AcDbCircle
 10
750.1985474062749
 20
1483.471618016516
 30
0.0
 40
4.5
100
AcDbArc
 50
89.99999999999991
 51
269.9999999999998
  0
LINE
  5
21F
330
1F
100
AcDbEntity
  8
5
  6
Continuous
 62
     4
370
    25
100
AcDbLine
 10
750.1985474062749
 20
1487.971618016516
 30
0.0
 11
787.1985474062749
 21
1487.971618016516
 31
0.0
  0
LINE
  5
220
330
1F
100
AcDbEntity
  8
5
  6
Continuous
 62
     4
370
    25
100
AcDbLine
 10
750.1985474062749
 20
1478.971618016516
 30
0.0
 11
787.1985474062749
 21
1478.971618016516
 31
0.0
  0
ARC
  5
221
330
1F
100
AcDbEntity
  8
5
  6
Continuous
 62
     4
370
    25
100
AcDbCircle
 10
787.1985474062749
 20
1483.471618016516
 30
0.0
 40
4.5
100
AcDbArc
 50
269.9999999999998
 51
89.99999999999991
  0
ARC
  5
222
330
1F
100
AcDbEntity
  8
5
  6
Continuous
 62
     4
370
    25
100
AcDbCircle
 10
750.1985474062749
 20
1473.471617581115
 30
0.0
 40
4.5
100
AcDbArc
 50
89.99999999999991
 51
269.9999999999998
  0
LINE
  5
223
330
1F
100
AcDbEntity
  8
5
  6
Continuous
 62
     4
370
    25
100
AcDbLine
 10
750.1985474062749
 20
1477.971617581115
 30
0.0
 11
787.1985474062749
 21
1477.971617581115
 31
0.0
  0
LINE
  5
224
330
1F
100
AcDbEntity
  8
5
  6
Continuous
 62
     4
370
    25
100
AcDbLine
 10
750.1985474062749
 20
1468.971617581115
 30
0.0
 11
787.1985474062749
 21
1468.971617581115
 31
0.0
  0
ARC
  5
225
330
1F
100
AcDbEntity
  8
5
  6
Continuous
 62
     4
370
    25
100
AcDbCircle
 10
787.1985474062749
 20
1473.471617581115
 30
0.0
 40
4.5
100
AcDbArc
 50
269.9999999999998
 51
89.99999999999991
  0
ARC
  5
226
330
1F
100
AcDbEntity
  8
5
  6
Continuous
 62
     4
370
    25
100
AcDbCircle
 10
750.1985474062749
 20
1463.471617581115
 30
0.0
 40
4.5
100
AcDbArc
 50
89.99999999999991
 51
269.9999999999998
  0
LINE
  5
227
330
1F
100
AcDbEntity
  8
5
  6
Continuous
 62
     4
370
    25
100
AcDbLine
 10
750.1985474062749
 20
1467.971617581115
 30
0.0
 11
787.1985474062749
 21
1467.971617581115
 31
0.0
  0
LINE
  5
228
330
1F
100
AcDbEntity
  8
5
  6
Continuous
 62
     4
370
    25
100
AcDbLine
 10
750.1985474062749
 20
1458.971617581115
 30
0.0
 11
787.1985474062749
 21
1458.971617581115
 31
0.0
  0
ARC
  5
229
330
1F
100
AcDbEntity
  8
5
  6
Continuous
 62
     4
370
    25
100
AcDbCircle
 10
787.1985474062749
 20
1463.471617581115
 30
0.0
 40
4.5
100
AcDbArc
 50
269.9999999999998
 51
89.99999999999991
  0
CIRCLE
  5
22A
330
1F
100
AcDbEntity
  8
5
  6
Continuous
 62
     4
370
    25
100
AcDbCircle
 10
750.6985474062749
 20
1453.471616710316
 30
0.0
 40
3.0
  0
ARC
  5
22B
330
1F
100
AcDbEntity
  8
5
  6
Continuous
 62
     4
370
    25
100
AcDbCircle
 10
750.1985474062749
 20
1453.471617581115
 30
0.0
 40
4.5
100
AcDbArc
 50
89.99999999999991
 51
269.9999999999998
  0
LINE
  5
22C
330
1F
100
AcDbEntity
  8
5
  6
Continuous
 62
     4
370
    25
100
AcDbLine
 10
750.1985474062749
 20
1457.971617581115
 30
0.0
 11
787.1985474062749
 21
1457.971617581115
 31
0.0
  0
LINE
  5
22D
330
1F
100
AcDbEntity
  8
5
  6
Continuous
 62
     4
370
    25
100
AcDbLine
 10
750.1985474062749
 20
1448.971617581115
 30
0.0
 11
787.1985474062749
 21
1448.971617581115
 31
0.0
  0
ARC
  5
22E
330
1F
100
AcDbEntity
  8
5
  6
Continuous
 62
     4
370
    25
100
AcDbCircle
 10
787.1985474062749
 20
1453.471617581115
 30
0.0
 40
4.5
100
AcDbArc
 50
269.9999999999998
 51
89.99999999999991
  0
MTEXT
  5
22F
330
1F
100
AcDbEntity
  8
5
  6
Continuous
 62
     4
370
     9
100
AcDbMText
 10
784.700773735336
 20
1453.471616710316
 30
0.0
 40
6.050000000000001
 41
7.738039523786001
 46
6.050000000000001
 71
     5
 72
     1
  1
{\fＭＳ Ｐゴシック;\W0.714286;弁}
 73
     1
 44
1.0
1001
ACAD
1000
ACAD_MTEXT_DEFINED_HEIGHT_BEGIN
1070
    46
1040
6.050000000000001
1000
ACAD_MTEXT_DEFINED_HEIGHT_END
  0
MTEXT
  5
230
330
1F
100
AcDbEntity
  8
5
  6
Continuous
 62
     4
370
     9
100
AcDbMText
 10
760.700773735336
 20
1453.471616710316
 30
0.0
 40
6.050000000000001
 41
7.842358851228001
 46
6.050000000000001
 71
     5
 72
     1
  1
{\fＭＳ Ｐゴシック;\W0.714286;電}
 73
     1
 44
1.0
1001
ACAD
1000
ACAD_MTEXT_DEFINED_HEIGHT_BEGIN
1070
    46
1040
6.050000000000001
1000
ACAD_MTEXT_DEFINED_HEIGHT_END
  0
MTEXT
  5
231
330
1F
100
AcDbEntity
  8
5
  6
Continuous
 62
     4
370
     9
100
AcDbMText
 10
772.700773735336
 20
1453.471616710316
 30
0.0
 40
6.050000000000001
 41
7.664402351474001
 46
6.050000000000001
 71
     5
 72
     1
  1
{\fＭＳ Ｐゴシック;\W0.714286;動}
 73
     1
 44
1.0
1001
ACAD
1000
ACAD_MTEXT_DEFINED_HEIGHT_BEGIN
1070
    46
1040
6.050000000000001
1000
ACAD_MTEXT_DEFINED_HEIGHT_END
  0
MTEXT
  5
232
330
1F
100
AcDbEntity
  8
5
  6
Continuous
 62
     4
370
     9
100
AcDbMText
 10
784.700773735336
 20
1473.471616710316
 30
0.0
 40
6.050000000000001
 41
8.22281757484
 46
6.050000000000001
 71
     5
 72
     1
  1
{\fＭＳ Ｐゴシック;\W0.714286;器}
 73
     1
 44
1.0
1001
ACAD
1000
ACAD_MTEXT_DEFINED_HEIGHT_BEGIN
1070
    46
1040
6.050000000000001
1000
ACAD_MTEXT_DEFINED_HEIGHT_END
  0
MTEXT
  5
233
330
1F
100
AcDbEntity
  8
5
  6
Continuous
 62
     4
370
     9
100
AcDbMText
 10
760.700773735336
 20
1473.471616710316
 30
0.0
 40
6.050000000000001
 41
7.977360333800002
 46
6.050000000000001
 71
     5
 72
     1
  1
{\fＭＳ Ｐゴシック;\W0.714286;感}
 73
     1
 44
1.0
1001
ACAD
1000
ACAD_MTEXT_DEFINED_HEIGHT_BEGIN
1070
    46
1040
6.050000000000001
1000
ACAD_MTEXT_DEFINED_HEIGHT_END
  0
MTEXT
  5
234
330
1F
100
AcDbEntity
  8
5
  6
Continuous
 62
     4
370
     9
100
AcDbMText
 10
772.700773735336
 20
1473.471616710316
 30
0.0
 40
6.050000000000001
 41
7.455763696590001
 46
6.050000000000001
 71
     5
 72
     1
  1
{\fＭＳ Ｐゴシック;\W0.714286;知}
 73
     1
 44
1.0
1001
ACAD
1000
ACAD_MTEXT_DEFINED_HEIGHT_BEGIN
1070
    46
1040
6.050000000000001
1000
ACAD_MTEXT_DEFINED_HEIGHT_END
  0
LINE
  5
235
330
1F
100
AcDbEntity
  8
5
  6
Continuous
 62
     4
370
    25
100
AcDbLine
 10
758.7985474062716
 20
1414.069139480379
 30
0.0
 11
777.5985474062727
 21
1414.069139480379
 31
0.0
  0
LINE
  5
236
330
1F
100
AcDbEntity
  8
5
  6
Continuous
 62
     4
370
    25
100
AcDbLine
 10
777.5985474062727
 20
1414.069139480379
 30
0.0
 11
777.5985474062727
 21
1432.869139480379
 31
0.0
  0
LINE
  5
237
330
1F
100
AcDbEntity
  8
5
  6
Continuous
 62
     4
370
    25
100
AcDbLine
 10
777.5985474062727
 20
1432.869139480379
 30
0.0
 11
758.7985474062716
 21
1432.869139480379
 31
0.0
  0
LINE
  5
238
330
1F
100
AcDbEntity
  8
5
  6
Continuous
 62
     4
370
    25
100
AcDbLine
 10
758.7985474062716
 20
1432.869139480379
 30
0.0
 11
758.7985474062734
 21
1414.069139480379
 31
0.0
  0
LINE
  5
239
330
1F
100
AcDbEntity
  8
5
  6
Continuous
 62
     4
370
    25
100
AcDbLine
 10
757.9985474062742
 20
1433.719139480379
 30
0.0
 11
778.3985474062738
 21
1433.719139480379
 31
0.0
  0
LINE
  5
23A
330
1F
100
AcDbEntity
  8
5
  6
Continuous
 62
     4
370
    25
100
AcDbLine
 10
757.9985474062742
 20
1433.719139480379
 30
0.0
 11
757.9985474062742
 21
1413.219139480379
 31
0.0
  0
LINE
  5
23B
330
1F
100
AcDbEntity
  8
5
  6
Continuous
 62
     4
370
    25
100
AcDbLine
 10
778.3985474062738
 20
1433.719139480379
 30
0.0
 11
778.3985474062738
 21
1413.219139480379
 31
0.0
  0
LINE
  5
23C
330
1F
100
AcDbEntity
  8
5
  6
Continuous
 62
     4
370
    25
100
AcDbLine
 10
757.9985474062742
 20
1413.219139480379
 30
0.0
 11
778.3985474062738
 21
1413.219139480379
 31
0.0
  0
LINE
  5
23D
330
1F
100
AcDbEntity
  8
5
  6
Continuous
 62
     4
370
    25
100
AcDbLine
 10
770.9985549062749
 20
1430.719144480379
 30
0.0
 11
762.9985474062742
 21
1430.719144480379
 31
0.0
  0
LINE
  5
23E
330
1F
100
AcDbEntity
  8
5
  6
Continuous
 62
     4
370
    25
100
AcDbLine
 10
770.9985549062749
 20
1430.719144480379
 30
0.0
 11
770.9985549062749
 21
1432.869139480379
 31
0.0
  0
LINE
  5
23F
330
1F
100
AcDbEntity
  8
5
  6
Continuous
 62
     4
370
    25
100
AcDbLine
 10
762.9985474062742
 20
1430.719144480379
 30
0.0
 11
762.9985474062742
 21
1432.869139480379
 31
0.0
  0
MTEXT
  5
240
330
1F
100
AcDbEntity
  8
5
  6
Continuous
 62
     4
370
     9
100
AcDbMText
 10
768.1985474062731
 20
1423.469139480379
 30
0.0
 40
6.050000000000001
 41
16.869048890474
 46
6.050000000000001
 71
     5
 72
     1
  1
{\fＭＳ Ｐゴシック;\W0.714286;起動}
 73
     1
 44
1.0
1001
ACAD
1000
ACAD_MTEXT_DEFINED_HEIGHT_BEGIN
1070
    46
1040
6.050000000000001
1000
ACAD_MTEXT_DEFINED_HEIGHT_END
  0
HATCH
  5
241
330
1F
100
AcDbEntity
  8
5
  6
Continuous
 62
     4
370
    25
100
AcDbHatch
 10
0.0
 20
0.0
 30
0.0
210
0.0
220
0.0
230
1.0
  2
SOLID
 70
     1
 71
     0
 91
        2
 92
        0
 93
        4
 72
     1
 10
827.1988847118791
 20
1340.221434411544
 11
712.1985474062712
 21
1340.221434411545
 72
     1
 10
712.1985474062712
 20
1340.221434411545
 11
712.1985474062712
 21
1335.221434411545
 72
     1
 10
712.1985474062712
 20
1335.221434411545
 11
830.6999686390136
 21
1335.221434411545
 72
     1
 10
830.6999686390136
 20
1335.221434411545
 11
827.1988847118791
 21
1340.221434411544
 97
        0
 92
        0
 93
        4
 72
     1
 10
1072.198547406271
 20
1340.221434411545
 11
957.1972800954936
 21
1340.221434411545
 72
     1
 10
957.1972800954936
 20
1340.221434411545
 11
953.6962886401288
 21
1335.221434411545
 72
     1
 10
953.6962886401288
 20
1335.221434411545
 11
1072.198547406271
 21
1335.221434411545
 72
     1
 10
1072.198547406271
 20
1335.221434411545
 11
1072.198547406271
 21
1340.221434411545
 97
        0
 75
     0
 76
     1
 98
        0
  0
CIRCLE
  5
242
330
1F
100
AcDbEntity
  8
5
  6
Continuous
 62
     4
370
    25
100
AcDbCircle
 10
757.1985814018044
 20
1301.72255043149
 30
0.0
 40
3.0
  0
CIRCLE
  5
243
330
1F
100
AcDbEntity
  8
5
  6
Continuous
 62
     4
370
    25
100
AcDbCircle
 10
757.1985814018044
 20
1291.72255043149
 30
0.0
 40
3.0
  0
CIRCLE
  5
244
330
1F
100
AcDbEntity
  8
5
  6
Continuous
 62
     4
370
    25
100
AcDbCircle
 10
757.1985814020045
 20
1281.72255043149
 30
0.0
 40
3.0
  0
CIRCLE
  5
245
330
1F
100
AcDbEntity
  8
5
  6
Continuous
 62
     4
370
    25
100
AcDbCircle
 10
807.1985814020045
 20
1311.722550431489
 30
0.0
 40
3.0
  0
CIRCLE
  5
246
330
1F
100
AcDbEntity
  8
5
  6
Continuous
 62
     4
370
    25
100
AcDbCircle
 10
807.1985814018044
 20
1301.72255043149
 30
0.0
 40
3.0
  0
CIRCLE
  5
247
330
1F
100
AcDbEntity
  8
5
  6
Continuous
 62
     4
370
    25
100
AcDbCircle
 10
807.1985814018044
 20
1291.72255043149
 30
0.0
 40
3.0
  0
CIRCLE
  5
248
330
1F
100
AcDbEntity
  8
5
  6
Continuous
 62
     4
370
    25
100
AcDbCircle
 10
807.1985814020045
 20
1281.72255043149
 30
0.0
 40
3.0
  0
CIRCLE
  5
249
330
1F
100
AcDbEntity
  8
5
  6
Continuous
 62
     4
370
    25
100
AcDbCircle
 10
857.1985814020045
 20
1311.722550431489
 30
0.0
 40
3.0
  0
CIRCLE
  5
24A
330
1F
100
AcDbEntity
  8
5
  6
Continuous
 62
     4
370
    25
100
AcDbCircle
 10
857.1985814018044
 20
1301.72255043149
 30
0.0
 40
3.0
  0
CIRCLE
  5
24B
330
1F
100
AcDbEntity
  8
5
  6
Continuous
 62
     4
370
    25
100
AcDbCircle
 10
857.1985814018044
 20
1291.72255043149
 30
0.0
 40
3.0
  0
CIRCLE
  5
24C
330
1F
100
AcDbEntity
  8
5
  6
Continuous
 62
     4
370
    25
100
AcDbCircle
 10
857.1985814020045
 20
1281.72255043149
 30
0.0
 40
3.0
  0
LINE
  5
24D
330
1F
100
AcDbEntity
  8
5
  6
Continuous
 62
     4
370
    25
100
AcDbLine
 10
751.2007250312545
 20
1227.722497924762
 30
0.0
 11
751.2007250312545
 21
1230.722497924762
 31
0.0
  0
LINE
  5
24E
330
1F
100
AcDbEntity
  8
5
  6
Continuous
 62
     4
370
    25
100
AcDbLine
 10
757.2007250312545
 20
1227.722497924762
 30
0.0
 11
757.2007250312545
 21
1230.722497924762
 31
0.0
  0
LINE
  5
24F
330
1F
100
AcDbEntity
  8
5
  6
Continuous
 62
     4
370
    25
100
AcDbLine
 10
757.2007250312545
 20
1227.722497924762
 30
0.0
 11
751.2007250312545
 21
1227.722497924762
 31
0.0
  0
LINE
  5
250
330
1F
100
AcDbEntity
  8
5
  6
Continuous
 62
     4
370
    25
100
AcDbLine
 10
757.2007250312545
 20
1230.722497924762
 30
0.0
 11
751.2007250312545
 21
1230.722497924762
 31
0.0
  0
LINE
  5
251
330
1F
100
AcDbEntity
  8
5
  6
Continuous
 62
     4
370
    25
100
AcDbLine
 10
783.6985817629356
 20
1257.222550431489
 30
0.0
 11
783.6985817629356
 21
1268.222550431489
 31
0.0
  0
LINE
  5
252
330
1F
100
AcDbEntity
  8
5
  6
Continuous
 62
     4
370
    25
100
AcDbLine
 10
808.6985817629356
 20
1268.222550431489
 30
0.0
 11
808.6985817629356
 21
1257.222550431489
 31
0.0
  0
LINE
  5
253
330
1F
100
AcDbEntity
  8
5
  6
Continuous
 62
     4
370
    25
100
AcDbLine
 10
806.6985817629356
 20
1255.222550431489
 30
0.0
 11
785.6985817629356
 21
1255.222550431489
 31
0.0
  0
ARC
  5
254
330
1F
100
AcDbEntity
  8
5
  6
Continuous
 62
     4
370
    25
100
AcDbCircle
 10
785.6985817629356
 20
1257.222550431489
 30
0.0
 40
2.0
100
AcDbArc
 50
179.9999999999998
 51
269.9999999999998
  0
ARC
  5
255
330
1F
100
AcDbEntity
  8
5
  6
Continuous
 62
     4
370
    25
100
AcDbCircle
 10
806.6985817629356
 20
1257.222550431489
 30
0.0
 40
2.0
100
AcDbArc
 50
269.9999999999998
 51
0.0
  0
LINE
  5
256
330
1F
100
AcDbEntity
  8
5
  6
Continuous
 62
     4
370
    25
100
AcDbLine
 10
785.6985817629356
 20
1270.222550431489
 30
0.0
 11
806.6985817629356
 21
1270.222550431489
 31
0.0
  0
ARC
  5
257
330
1F
100
AcDbEntity
  8
5
  6
Continuous
 62
     4
370
    25
100
AcDbCircle
 10
785.6985817629356
 20
1268.222550431489
 30
0.0
 40
2.0
100
AcDbArc
 50
89.99999999999991
 51
179.9999999999998
  0
ARC
  5
258
330
1F
100
AcDbEntity
  8
5
  6
Continuous
 62
     4
370
    25
100
AcDbCircle
 10
806.6985817629356
 20
1268.222550431489
 30
0.0
 40
2.0
100
AcDbArc
 50
0.0
 51
89.99999999999991
  0
MTEXT
  5
259
330
1F
100
AcDbEntity
  8
5
  6
Continuous
 62
     4
370
     9
100
AcDbMText
 10
757.4995192186216
 20
1236.222550431489
 30
0.0
 40
6.050000000000001
 41
7.946678178670001
 46
6.050000000000001
 71
     5
 72
     1
  1
{\fＭＳ Ｐゴシック;\W0.714286;話}
 73
     1
 44
1.0
1001
ACAD
1000
ACAD_MTEXT_DEFINED_HEIGHT_BEGIN
1070
    46
1040
6.050000000000001
1000
ACAD_MTEXT_DEFINED_HEIGHT_END
  0
MTEXT
  5
25A
330
1F
100
AcDbEntity
  8
5
  6
Continuous
 62
     4
370
     9
100
AcDbMText
 10
750.9995192186216
 20
1236.222550431489
 30
0.0
 40
6.050000000000001
 41
7.842358851228001
 46
6.050000000000001
 71
     5
 72
     1
  1
{\fＭＳ Ｐゴシック;\W0.714286;電}
 73
     1
 44
1.0
1001
ACAD
1000
ACAD_MTEXT_DEFINED_HEIGHT_BEGIN
1070
    46
1040
6.050000000000001
1000
ACAD_MTEXT_DEFINED_HEIGHT_END
  0
CIRCLE
  5
25B
330
1F
100
AcDbEntity
  8
5
  6
Continuous
 62
     4
370
    25
100
AcDbCircle
 10
757.1985814020045
 20
1311.722550431489
 30
0.0
 40
3.0
  0
ARC
  5
25C
330
1F
100
AcDbEntity
  8
5
  6
Continuous
 62
     4
370
    25
100
AcDbCircle
 10
756.6985814020045
 20
1311.722551302289
 30
0.0
 40
4.5
100
AcDbArc
 50
89.99999999999991
 51
269.9999999999998
  0
LINE
  5
25D
330
1F
100
AcDbEntity
  8
5
  6
Continuous
 62
     4
370
    25
100
AcDbLine
 10
756.6985814020045
 20
1316.222551302289
 30
0.0
 11
793.6985814020045
 21
1316.222551302289
 31
0.0
  0
LINE
  5
25E
330
1F
100
AcDbEntity
  8
5
  6
Continuous
 62
     4
370
    25
100
AcDbLine
 10
756.6985814020045
 20
1307.222551302289
 30
0.0
 11
793.6985814020045
 21
1307.222551302289
 31
0.0
  0
ARC
  5
25F
330
1F
100
AcDbEntity
  8
5
  6
Continuous
 62
     4
370
    25
100
AcDbCircle
 10
793.6985814020045
 20
1311.722551302289
 30
0.0
 40
4.5
100
AcDbArc
 50
269.9999999999998
 51
89.99999999999991
  0
ARC
  5
260
330
1F
100
AcDbEntity
  8
5
  6
Continuous
 62
     4
370
    25
100
AcDbCircle
 10
756.6985814018044
 20
1301.722550866889
 30
0.0
 40
4.5
100
AcDbArc
 50
89.99999999999991
 51
269.9999999999998
  0
LINE
  5
261
330
1F
100
AcDbEntity
  8
5
  6
Continuous
 62
     4
370
    25
100
AcDbLine
 10
756.6985814018044
 20
1306.22255086689
 30
0.0
 11
793.6985814018044
 21
1306.22255086689
 31
0.0
  0
LINE
  5
262
330
1F
100
AcDbEntity
  8
5
  6
Continuous
 62
     4
370
    25
100
AcDbLine
 10
756.6985814018044
 20
1297.222550866889
 30
0.0
 11
793.6985814018044
 21
1297.222550866889
 31
0.0
  0
ARC
  5
263
330
1F
100
AcDbEntity
  8
5
  6
Continuous
 62
     4
370
    25
100
AcDbCircle
 10
793.6985814018044
 20
1301.722550866889
 30
0.0
 40
4.5
100
AcDbArc
 50
269.9999999999998
 51
89.99999999999991
  0
ARC
  5
264
330
1F
100
AcDbEntity
  8
5
  6
Continuous
 62
     4
370
    25
100
AcDbCircle
 10
756.6985814020045
 20
1291.722550866888
 30
0.0
 40
4.5
100
AcDbArc
 50
89.99999999999991
 51
269.9999999999998
  0
LINE
  5
265
330
1F
100
AcDbEntity
  8
5
  6
Continuous
 62
     4
370
    25
100
AcDbLine
 10
756.6985814020045
 20
1296.222550866888
 30
0.0
 11
793.6985814020045
 21
1296.222550866888
 31
0.0
  0
LINE
  5
266
330
1F
100
AcDbEntity
  8
5
  6
Continuous
 62
     4
370
    25
100
AcDbLine
 10
756.6985814020045
 20
1287.222550866889
 30
0.0
 11
793.6985814020045
 21
1287.222550866889
 31
0.0
  0
ARC
  5
267
330
1F
100
AcDbEntity
  8
5
  6
Continuous
 62
     4
370
    25
100
AcDbCircle
 10
793.6985814020045
 20
1291.722550866888
 30
0.0
 40
4.5
100
AcDbArc
 50
269.9999999999998
 51
89.99999999999991
  0
ARC
  5
268
330
1F
100
AcDbEntity
  8
5
  6
Continuous
 62
     4
370
    25
100
AcDbCircle
 10
756.6985814020045
 20
1281.722550866888
 30
0.0
 40
4.5
100
AcDbArc
 50
89.99999999999991
 51
269.9999999999998
  0
LINE
  5
269
330
1F
100
AcDbEntity
  8
5
  6
Continuous
 62
     4
370
    25
100
AcDbLine
 10
756.6985814020045
 20
1286.222550866888
 30
0.0
 11
793.6985814020045
 21
1286.222550866888
 31
0.0
  0
LINE
  5
26A
330
1F
100
AcDbEntity
  8
5
  6
Continuous
 62
     4
370
    25
100
AcDbLine
 10
756.6985814020045
 20
1277.222550866889
 30
0.0
 11
793.6985814020045
 21
1277.222550866889
 31
0.0
  0
ARC
  5
26B
330
1F
100
AcDbEntity
  8
5
  6
Continuous
 62
     4
370
    25
100
AcDbCircle
 10
793.6985814020045
 20
1281.722550866888
 30
0.0
 40
4.5
100
AcDbArc
 50
269.9999999999998
 51
89.99999999999991
  0
ARC
  5
26C
330
1F
100
AcDbEntity
  8
5
  6
Continuous
 62
     4
370
    25
100
AcDbCircle
 10
806.6985814020045
 20
1311.722551302288
 30
0.0
 40
4.5
100
AcDbArc
 50
89.99999999999991
 51
269.9999999999998
  0
LINE
  5
26D
330
1F
100
AcDbEntity
  8
5
  6
Continuous
 62
     4
370
    25
100
AcDbLine
 10
806.6985814020045
 20
1316.222551302288
 30
0.0
 11
843.6985814020045
 21
1316.222551302288
 31
0.0
  0
LINE
  5
26E
330
1F
100
AcDbEntity
  8
5
  6
Continuous
 62
     4
370
    25
100
AcDbLine
 10
806.6985814020045
 20
1307.222551302288
 30
0.0
 11
843.6985814020045
 21
1307.222551302288
 31
0.0
  0
ARC
  5
26F
330
1F
100
AcDbEntity
  8
5
  6
Continuous
 62
     4
370
    25
100
AcDbCircle
 10
843.6985814020045
 20
1311.722551302288
 30
0.0
 40
4.5
100
AcDbArc
 50
269.9999999999998
 51
89.99999999999991
  0
ARC
  5
270
330
1F
100
AcDbEntity
  8
5
  6
Continuous
 62
     4
370
    25
100
AcDbCircle
 10
806.6985814020045
 20
1301.722550866888
 30
0.0
 40
4.5
100
AcDbArc
 50
89.99999999999991
 51
269.9999999999998
  0
LINE
  5
271
330
1F
100
AcDbEntity
  8
5
  6
Continuous
 62
     4
370
    25
100
AcDbLine
 10
806.6985814020045
 20
1306.222550866889
 30
0.0
 11
843.6985814020045
 21
1306.222550866889
 31
0.0
  0
LINE
  5
272
330
1F
100
AcDbEntity
  8
5
  6
Continuous
 62
     4
370
    25
100
AcDbLine
 10
806.6985814020045
 20
1297.222550866889
 30
0.0
 11
843.6985814020045
 21
1297.222550866889
 31
0.0
  0
ARC
  5
273
330
1F
100
AcDbEntity
  8
5
  6
Continuous
 62
     4
370
    25
100
AcDbCircle
 10
843.6985814020045
 20
1301.722550866888
 30
0.0
 40
4.5
100
AcDbArc
 50
269.9999999999998
 51
89.99999999999991
  0
ARC
  5
274
330
1F
100
AcDbEntity
  8
5
  6
Continuous
 62
     4
370
    25
100
AcDbCircle
 10
806.6985814018044
 20
1291.72255086689
 30
0.0
 40
4.5
100
AcDbArc
 50
89.99999999999991
 51
269.9999999999998
  0
LINE
  5
275
330
1F
100
AcDbEntity
  8
5
  6
Continuous
 62
     4
370
    25
100
AcDbLine
 10
806.6985814018044
 20
1296.22255086689
 30
0.0
 11
843.6985814018044
 21
1296.22255086689
 31
0.0
  0
LINE
  5
276
330
1F
100
AcDbEntity
  8
5
  6
Continuous
 62
     4
370
    25
100
AcDbLine
 10
806.6985814018044
 20
1287.222550866889
 30
0.0
 11
843.6985814018044
 21
1287.222550866889
 31
0.0
  0
ARC
  5
277
330
1F
100
AcDbEntity
  8
5
  6
Continuous
 62
     4
370
    25
100
AcDbCircle
 10
843.6985814018044
 20
1291.72255086689
 30
0.0
 40
4.5
100
AcDbArc
 50
269.9999999999998
 51
89.99999999999991
  0
ARC
  5
278
330
1F
100
AcDbEntity
  8
5
  6
Continuous
 62
     4
370
    25
100
AcDbCircle
 10
806.6985814020045
 20
1281.722550866889
 30
0.0
 40
4.5
100
AcDbArc
 50
89.99999999999991
 51
269.9999999999998
  0
LINE
  5
279
330
1F
100
AcDbEntity
  8
5
  6
Continuous
 62
     4
370
    25
100
AcDbLine
 10
806.6985814020045
 20
1286.222550866889
 30
0.0
 11
843.6985814020045
 21
1286.222550866889
 31
0.0
  0
LINE
  5
27A
330
1F
100
AcDbEntity
  8
5
  6
Continuous
 62
     4
370
    25
100
AcDbLine
 10
806.6985814020045
 20
1277.222550866889
 30
0.0
 11
843.6985814020045
 21
1277.222550866889
 31
0.0
  0
ARC
  5
27B
330
1F
100
AcDbEntity
  8
5
  6
Continuous
 62
     4
370
    25
100
AcDbCircle
 10
843.6985814020045
 20
1281.722550866889
 30
0.0
 40
4.5
100
AcDbArc
 50
269.9999999999998
 51
89.99999999999991
  0
ARC
  5
27C
330
1F
100
AcDbEntity
  8
5
  6
Continuous
 62
     4
370
    25
100
AcDbCircle
 10
856.6985814020045
 20
1311.722550866888
 30
0.0
 40
4.5
100
AcDbArc
 50
89.99999999999991
 51
269.9999999999998
  0
LINE
  5
27D
330
1F
100
AcDbEntity
  8
5
  6
Continuous
 62
     4
370
    25
100
AcDbLine
 10
856.6985814020045
 20
1316.222550866888
 30
0.0
 11
893.6985814020045
 21
1316.222550866888
 31
0.0
  0
LINE
  5
27E
330
1F
100
AcDbEntity
  8
5
  6
Continuous
 62
     4
370
    25
100
AcDbLine
 10
856.6985814020045
 20
1307.222550866889
 30
0.0
 11
893.6985814020045
 21
1307.222550866889
 31
0.0
  0
ARC
  5
27F
330
1F
100
AcDbEntity
  8
5
  6
Continuous
 62
     4
370
    25
100
AcDbCircle
 10
893.6985814020045
 20
1311.722550866888
 30
0.0
 40
4.5
100
AcDbArc
 50
269.9999999999998
 51
89.99999999999991
  0
ARC
  5
280
330
1F
100
AcDbEntity
  8
5
  6
Continuous
 62
     4
370
    25
100
AcDbCircle
 10
856.6985814018044
 20
1301.722550866889
 30
0.0
 40
4.5
100
AcDbArc
 50
89.99999999999991
 51
269.9999999999998
  0
LINE
  5
281
330
1F
100
AcDbEntity
  8
5
  6
Continuous
 62
     4
370
    25
100
AcDbLine
 10
856.6985814018044
 20
1306.22255086689
 30
0.0
 11
893.6985814018044
 21
1306.22255086689
 31
0.0
  0
LINE
  5
282
330
1F
100
AcDbEntity
  8
5
  6
Continuous
 62
     4
370
    25
100
AcDbLine
 10
856.6985814018044
 20
1298.02255086689
 30
0.0
 11
893.6985814018044
 21
1298.02255086689
 31
0.0
  0
LINE
  5
283
330
1F
100
AcDbEntity
  8
5
  6
Continuous
 62
     4
370
    25
100
AcDbLine
 10
856.6985814018044
 20
1297.222550866889
 30
0.0
 11
893.6985814018044
 21
1297.222550866889
 31
0.0
  0
ARC
  5
284
330
1F
100
AcDbEntity
  8
5
  6
Continuous
 62
     4
370
    25
100
AcDbCircle
 10
893.6985814018044
 20
1301.722550866889
 30
0.0
 40
4.5
100
AcDbArc
 50
269.9999999999998
 51
89.99999999999991
  0
ARC
  5
285
330
1F
100
AcDbEntity
  8
5
  6
Continuous
 62
     4
370
    25
100
AcDbCircle
 10
856.6985814020045
 20
1291.722550866888
 30
0.0
 40
4.5
100
AcDbArc
 50
89.99999999999991
 51
269.9999999999998
  0
LINE
  5
286
330
1F
100
AcDbEntity
  8
5
  6
Continuous
 62
     4
370
    25
100
AcDbLine
 10
856.6985814020045
 20
1296.222550866888
 30
0.0
 11
893.6985814020045
 21
1296.222550866888
 31
0.0
  0
LINE
  5
287
330
1F
100
AcDbEntity
  8
5
  6
Continuous
 62
     4
370
    25
100
AcDbLine
 10
856.6985814020045
 20
1287.222550866889
 30
0.0
 11
893.6985814020045
 21
1287.222550866889
 31
0.0
  0
ARC
  5
288
330
1F
100
AcDbEntity
  8
5
  6
Continuous
 62
     4
370
    25
100
AcDbCircle
 10
893.6985814020045
 20
1291.722550866888
 30
0.0
 40
4.5
100
AcDbArc
 50
269.9999999999998
 51
89.99999999999991
  0
ARC
  5
289
330
1F
100
AcDbEntity
  8
5
  6
Continuous
 62
     4
370
    25
100
AcDbCircle
 10
856.6985814020045
 20
1281.722550866889
 30
0.0
 40
4.5
100
AcDbArc
 50
89.99999999999991
 51
269.9999999999998
  0
LINE
  5
28A
330
1F
100
AcDbEntity
  8
5
  6
Continuous
 62
     4
370
    25
100
AcDbLine
 10
856.6985814020045
 20
1286.222550866889
 30
0.0
 11
893.6985814020045
 21
1286.222550866889
 31
0.0
  0
LINE
  5
28B
330
1F
100
AcDbEntity
  8
5
  6
Continuous
 62
     4
370
    25
100
AcDbLine
 10
856.6985814020045
 20
1277.222550866889
 30
0.0
 11
893.6985814020045
 21
1277.222550866889
 31
0.0
  0
ARC
  5
28C
330
1F
100
AcDbEntity
  8
5
  6
Continuous
 62
     4
370
    25
100
AcDbCircle
 10
893.6985814020045
 20
1281.722550866889
 30
0.0
 40
4.5
100
AcDbArc
 50
269.9999999999998
 51
89.99999999999991
  0
MTEXT
  5
28D
330
1F
100
AcDbEntity
  8
5
  6
Continuous
 62
     4
370
     9
100
AcDbMText
 10
791.2008077310675
 20
1301.722550431489
 30
0.0
 40
6.050000000000001
 41
7.842358851228001
 46
6.050000000000001
 71
     5
 72
     1
  1
{\fＭＳ Ｐゴシック;\W0.714286;圧}
 73
     1
 44
1.0
1001
ACAD
1000
ACAD_MTEXT_DEFINED_HEIGHT_BEGIN
1070
    46
1040
6.050000000000001
1000
ACAD_MTEXT_DEFINED_HEIGHT_END
  0
MTEXT
  5
28E
330
1F
100
AcDbEntity
  8
5
  6
Continuous
 62
     4
370
     9
100
AcDbMText
 10
783.2008077310675
 20
1301.722550431489
 30
0.0
 40
6.050000000000001
 41
7.842358851228001
 46
6.050000000000001
 71
     5
 72
     1
  1
{\fＭＳ Ｐゴシック;\W0.714286;電}
 73
     1
 44
1.0
1001
ACAD
1000
ACAD_MTEXT_DEFINED_HEIGHT_BEGIN
1070
    46
1040
6.050000000000001
1000
ACAD_MTEXT_DEFINED_HEIGHT_END
  0
MTEXT
  5
28F
330
1F
100
AcDbEntity
  8
5
  6
Continuous
 62
     4
370
     9
100
AcDbMText
 10
775.2008077310675
 20
1301.722550431489
 30
0.0
 40
6.050000000000001
 41
8.22281757484
 46
6.050000000000001
 71
     5
 72
     1
  1
{\fＭＳ Ｐゴシック;\W0.714286;路}
 73
     1
 44
1.0
1001
ACAD
1000
ACAD_MTEXT_DEFINED_HEIGHT_BEGIN
1070
    46
1040
6.050000000000001
1000
ACAD_MTEXT_DEFINED_HEIGHT_END
  0
MTEXT
  5
290
330
1F
100
AcDbEntity
  8
5
  6
Continuous
 62
     4
370
     9
100
AcDbMText
 10
767.2008077310675
 20
1301.722550431489
 30
0.0
 40
6.050000000000001
 41
7.007804231692
 46
6.050000000000001
 71
     5
 72
     1
  1
{\fＭＳ Ｐゴシック;\W0.714286;回}
 73
     1
 44
1.0
1001
ACAD
1000
ACAD_MTEXT_DEFINED_HEIGHT_BEGIN
1070
    46
1040
6.050000000000001
1000
ACAD_MTEXT_DEFINED_HEIGHT_END
  0
MTEXT
  5
291
330
1F
100
AcDbEntity
  8
5
  6
Continuous
 62
     4
370
     9
100
AcDbMText
 10
791.2008077308674
 20
1291.72255043149
 30
0.0
 40
6.050000000000001
 41
7.529400868902001
 46
6.050000000000001
 71
     5
 72
     1
  1
{\fＭＳ Ｐゴシック;\W0.714286;常}
 73
     1
 44
1.0
1001
ACAD
1000
ACAD_MTEXT_DEFINED_HEIGHT_BEGIN
1070
    46
1040
6.050000000000001
1000
ACAD_MTEXT_DEFINED_HEIGHT_END
  0
MTEXT
  5
292
330
1F
100
AcDbEntity
  8
5
  6
Continuous
 62
     4
370
     9
100
AcDbMText
 10
767.2008077308674
 20
1291.72255043149
 30
0.0
 40
6.050000000000001
 41
8.124634678424002
 46
6.050000000000001
 71
     5
 72
     1
  1
{\fＭＳ Ｐゴシック;\W0.714286;異}
 73
     1
 44
1.0
1001
ACAD
1000
ACAD_MTEXT_DEFINED_HEIGHT_BEGIN
1070
    46
1040
6.050000000000001
1000
ACAD_MTEXT_DEFINED_HEIGHT_END
  0
MTEXT
  5
293
330
1F
100
AcDbEntity
  8
5
  6
Continuous
 62
     4
370
     9
100
AcDbMText
 10
781.65080773107
 20
1281.722550866888
 30
0.0
 40
4.95
 41
5.844113766216
 46
4.95
 71
     5
 72
     1
  1
{\fＭＳ Ｐゴシック;\W0.714286;チ}
 73
     1
 44
1.0
1001
ACAD
1000
ACAD_MTEXT_DEFINED_HEIGHT_BEGIN
1070
    46
1040
4.95
1000
ACAD_MTEXT_DEFINED_HEIGHT_END
  0
MTEXT
  5
294
330
1F
100
AcDbEntity
  8
5
  6
Continuous
 62
     4
370
     9
100
AcDbMText
 10
771.8508077310707
 20
1281.722550866888
 30
0.0
 40
4.95
 41
5.306897122758
 46
4.95
 71
     5
 72
     1
  1
{\fＭＳ Ｐゴシック;\W0.714286;イ}
 73
     1
 44
1.0
1001
ACAD
1000
ACAD_MTEXT_DEFINED_HEIGHT_BEGIN
1070
    46
1040
4.95
1000
ACAD_MTEXT_DEFINED_HEIGHT_END
  0
MTEXT
  5
295
330
1F
100
AcDbEntity
  8
5
  6
Continuous
 62
     4
370
     9
100
AcDbMText
 10
766.9508077310693
 20
1281.722550866888
 30
0.0
 40
4.95
 41
5.959590240978
 46
4.95
 71
     5
 72
     1
  1
{\fＭＳ Ｐゴシック;\W0.714286;ス}
 73
     1
 44
1.0
1001
ACAD
1000
ACAD_MTEXT_DEFINED_HEIGHT_BEGIN
1070
    46
1040
4.95
1000
ACAD_MTEXT_DEFINED_HEIGHT_END
  0
MTEXT
  5
296
330
1F
100
AcDbEntity
  8
5
  6
Continuous
 62
     4
370
     9
100
AcDbMText
 10
791.4508077310711
 20
1281.722550866888
 30
0.0
 40
4.95
 41
6.587179777728001
 46
4.95
 71
     5
 72
     1
  1
{\fＭＳ Ｐゴシック;\W0.714286;意}
 73
     1
 44
1.0
1001
ACAD
1000
ACAD_MTEXT_DEFINED_HEIGHT_BEGIN
1070
    46
1040
4.95
1000
ACAD_MTEXT_DEFINED_HEIGHT_END
  0
MTEXT
  5
297
330
1F
100
AcDbEntity
  8
5
  6
Continuous
 62
     4
370
     9
100
AcDbMText
 10
786.5508077310697
 20
1281.722550866888
 30
0.0
 40
4.95
 41
6.526931182200001
 46
4.95
 71
     5
 72
     1
  1
{\fＭＳ Ｐゴシック;\W0.714286;注}
 73
     1
 44
1.0
1001
ACAD
1000
ACAD_MTEXT_DEFINED_HEIGHT_BEGIN
1070
    46
1040
4.95
1000
ACAD_MTEXT_DEFINED_HEIGHT_END
  0
MTEXT
  5
298
330
1F
100
AcDbEntity
  8
5
  6
Continuous
 62
     4
370
     9
100
AcDbMText
 10
776.7508077310704
 20
1281.222550866889
 30
0.0
 40
4.95
 41
4.850011940004
 46
4.95
 71
     5
 72
     1
  1
{\fＭＳ Ｐゴシック;\W0.714286;ッ}
 73
     1
 44
1.0
1001
ACAD
1000
ACAD_MTEXT_DEFINED_HEIGHT_BEGIN
1070
    46
1040
4.95
1000
ACAD_MTEXT_DEFINED_HEIGHT_END
  0
LINE
  5
299
330
1F
100
AcDbEntity
  8
5
  6
Continuous
 62
     4
370
    25
100
AcDbLine
 10
750.7007250312527
 20
1227.222497924762
 30
0.0
 11
750.7007250312545
 21
1231.222497924762
 31
0.0
  0
LINE
  5
29A
330
1F
100
AcDbEntity
  8
5
  6
Continuous
 62
     4
370
    25
100
AcDbLine
 10
757.7007250312545
 20
1231.222497924762
 30
0.0
 11
750.7007250312545
 21
1231.222497924762
 31
0.0
  0
LINE
  5
29B
330
1F
100
AcDbEntity
  8
5
  6
Continuous
 62
     4
370
    25
100
AcDbLine
 10
757.7007250312545
 20
1227.222497924762
 30
0.0
 11
757.7007250312527
 21
1231.222497924762
 31
0.0
  0
LINE
  5
29C
330
1F
100
AcDbEntity
  8
5
  6
Continuous
 62
     4
370
    25
100
AcDbLine
 10
757.7007250312545
 20
1227.222497924762
 30
0.0
 11
750.7007250312545
 21
1227.222497924762
 31
0.0
  0
CIRCLE
  5
29D
330
1F
100
AcDbEntity
  8
5
  6
Continuous
 62
     4
370
    25
100
AcDbCircle
 10
764.1985814020081
 20
1257.722480436492
 30
0.0
 40
5.300000000000182
  0
MTEXT
  5
29E
330
1F
100
AcDbEntity
  8
5
  6
Continuous
 62
     4
370
     9
100
AcDbMText
 10
791.2008077310675
 20
1311.722550866888
 30
0.0
 40
6.050000000000001
 41
8.118498247398001
 46
6.050000000000001
 71
     5
 72
     1
  1
{\fＭＳ Ｐゴシック;\W0.714286;源}
 73
     1
 44
1.0
1001
ACAD
1000
ACAD_MTEXT_DEFINED_HEIGHT_BEGIN
1070
    46
1040
6.050000000000001
1000
ACAD_MTEXT_DEFINED_HEIGHT_END
  0
MTEXT
  5
29F
330
1F
100
AcDbEntity
  8
5
  6
Continuous
 62
     4
370
     9
100
AcDbMText
 10
783.2008077310675
 20
1311.722550866888
 30
0.0
 40
6.050000000000001
 41
7.842358851228001
 46
6.050000000000001
 71
     5
 72
     1
  1
{\fＭＳ Ｐゴシック;\W0.714286;電}
 73
     1
 44
1.0
1001
ACAD
1000
ACAD_MTEXT_DEFINED_HEIGHT_BEGIN
1070
    46
1040
6.050000000000001
1000
ACAD_MTEXT_DEFINED_HEIGHT_END
  0
MTEXT
  5
2A0
330
1F
100
AcDbEntity
  8
5
  6
Continuous
 62
     4
370
     9
100
AcDbMText
 10
775.2008077310675
 20
1311.722550866888
 30
0.0
 40
6.050000000000001
 41
8.050997506112001
 46
6.050000000000001
 71
     5
 72
     1
  1
{\fＭＳ Ｐゴシック;\W0.714286;流}
 73
     1
 44
1.0
1001
ACAD
1000
ACAD_MTEXT_DEFINED_HEIGHT_BEGIN
1070
    46
1040
6.050000000000001
1000
ACAD_MTEXT_DEFINED_HEIGHT_END
  0
MTEXT
  5
2A1
330
1F
100
AcDbEntity
  8
5
  6
Continuous
 62
     4
370
     9
100
AcDbMText
 10
767.2008077310675
 20
1311.722550866888
 30
0.0
 40
6.050000000000001
 41
7.523264437876001
 46
6.050000000000001
 71
     5
 72
     1
  1
{\fＭＳ Ｐゴシック;\W0.714286;交}
 73
     1
 44
1.0
1001
ACAD
1000
ACAD_MTEXT_DEFINED_HEIGHT_BEGIN
1070
    46
1040
6.050000000000001
1000
ACAD_MTEXT_DEFINED_HEIGHT_END
  0
LINE
  5
2A2
330
1F
100
AcDbEntity
  8
5
  6
Continuous
 62
     4
370
    25
100
AcDbLine
 10
1072.198547406271
 20
1335.221434411545
 30
0.0
 11
953.6962886401288
 21
1335.221434411545
 31
0.0
  0
LINE
  5
2A3
330
1F
100
AcDbEntity
  8
5
  6
Continuous
 62
     4
370
    25
100
AcDbLine
 10
830.6999686390136
 20
1335.221434411545
 30
0.0
 11
712.1985474062712
 21
1335.221434411545
 31
0.0
  0
LINE
  5
2A4
330
1F
100
AcDbEntity
  8
5
  6
Continuous
 62
     4
370
    25
100
AcDbLine
 10
1072.198547406271
 20
1340.221434411545
 30
0.0
 11
957.1972800954936
 21
1340.221434411545
 31
0.0
  0
LINE
  5
2A5
330
1F
100
AcDbEntity
  8
5
  6
Continuous
 62
     4
370
    25
100
AcDbLine
 10
827.1988847118791
 20
1340.221434411544
 30
0.0
 11
712.1985474062712
 21
1340.221434411545
 31
0.0
  0
LINE
  5
2A6
330
1F
100
AcDbEntity
  8
5
  6
Continuous
 62
     4
370
    25
100
AcDbLine
 10
950.1952971847622
 20
1330.221434411545
 30
0.0
 11
960.6974909542187
 21
1345.220319589286
 31
0.0
  0
LINE
  5
2A7
330
1F
100
AcDbEntity
  8
5
  6
Continuous
 62
     4
370
    25
100
AcDbLine
 10
834.2010525661481
 20
1330.221434411545
 30
0.0
 11
823.6985814020045
 21
1345.220319589286
 31
0.0
  0
LINE
  5
2A8
330
1F
100
AcDbEntity
  8
5
  6
Continuous
 62
     4
370
    25
100
AcDbLine
 10
1072.198547406271
 20
1345.220319589286
 30
0.0
 11
960.6974909542168
 21
1345.220319589286
 31
0.0
  0
LINE
  5
2A9
330
1F
100
AcDbEntity
  8
5
  6
Continuous
 62
     4
370
    25
100
AcDbLine
 10
823.6985814020045
 20
1345.220319589286
 30
0.0
 11
712.1985474062712
 21
1345.220319589286
 31
0.0
  0
LINE
  5
2AA
330
1F
100
AcDbEntity
  8
5
  6
Continuous
 62
     4
370
    25
100
AcDbLine
 10
712.1985474062712
 20
1330.221434411545
 30
0.0
 11
834.2010525661462
 21
1330.221434411545
 31
0.0
  0
LINE
  5
2AB
330
1F
100
AcDbEntity
  8
5
  6
Continuous
 62
     4
370
    25
100
AcDbLine
 10
950.1952971847622
 20
1330.221434411545
 30
0.0
 11
1072.198547406271
 21
1330.221434411545
 31
0.0
  0
LINE
  5
2AC
330
1F
100
AcDbEntity
  8
5
  6
Continuous
 62
     4
370
    25
100
AcDbLine
 10
945.5958311347567
 20
1330.222083625158
 30
0.0
 11
838.8015016403369
 21
1330.222083625158
 31
0.0
  0
ARC
  5
2AD
330
1F
100
AcDbEntity
  8
5
  6
Continuous
 62
     4
370
    25
100
AcDbCircle
 10
838.8015016403369
 20
1335.222083625158
 30
0.0
 40
5.0
100
AcDbArc
 50
215.0003555174139
 51
269.9999999999998
  0
LINE
  5
2AE
330
1F
100
AcDbEntity
  8
5
  6
Continuous
 62
     4
370
    25
100
AcDbLine
 10
949.6916091511848
 20
1332.354226857441
 30
0.0
 11
958.7008798730694
 21
1345.220968802898
 31
0.0
  0
ARC
  5
2AF
330
1F
100
AcDbEntity
  8
5
  6
Continuous
 62
     4
370
    25
100
AcDbCircle
 10
945.5958311347567
 20
1335.222083625158
 30
0.0
 40
5.0
100
AcDbArc
 50
269.9999999999998
 51
325.0003555173399
  0
LINE
  5
2B0
330
1F
100
AcDbEntity
  8
5
  6
Continuous
 62
     4
370
    25
100
AcDbLine
 10
834.7057592140336
 20
1332.354176029475
 30
0.0
 11
825.6962149394749
 21
1345.220968802898
 31
0.0
  0
LINE
  5
2B1
330
1F
100
AcDbEntity
  8
5
  6
Continuous
 62
     4
370
    25
100
AcDbLine
 10
958.7008798730694
 20
1345.220968802898
 30
0.0
 11
825.6962149394749
 21
1345.220968802898
 31
0.0
  0
MTEXT
  5
2B2
330
1F
100
AcDbEntity
  8
5
  6
Continuous
 62
     4
370
     9
100
AcDbMText
 10
856.1986795315952
 20
1337.722083625158
 30
0.0
 40
11.0
 41
14.0022198866
 46
11.0
 71
     5
 72
     1
  1
{\fＭＳ Ｐゴシック;\W0.714286;消}
 73
     1
 44
1.0
1001
ACAD
1000
ACAD_MTEXT_DEFINED_HEIGHT_BEGIN
1070
    46
1040
11.0
1000
ACAD_MTEXT_DEFINED_HEIGHT_END
  0
MTEXT
  5
2B3
330
1F
100
AcDbEntity
  8
5
  6
Continuous
 62
     4
370
     9
100
AcDbMText
 10
868.1986795315952
 20
1337.722083625158
 30
0.0
 40
11.0
 41
13.74560549824
 46
11.0
 71
     5
 72
     1
  1
{\fＭＳ Ｐゴシック;\W0.714286;火}
 73
     1
 44
1.0
1001
ACAD
1000
ACAD_MTEXT_DEFINED_HEIGHT_BEGIN
1070
    46
1040
11.0
1000
ACAD_MTEXT_DEFINED_HEIGHT_END
  0
MTEXT
  5
2B4
330
1F
100
AcDbEntity
  8
5
  6
Continuous
 62
     4
370
     9
100
AcDbMText
 10
880.1986795315934
 20
1337.722083625158
 30
0.0
 40
11.0
 41
14.58239154724
 46
11.0
 71
     5
 72
     1
  1
{\fＭＳ Ｐゴシック;\W0.714286;設}
 73
     1
 44
1.0
1001
ACAD
1000
ACAD_MTEXT_DEFINED_HEIGHT_BEGIN
1070
    46
1040
11.0
1000
ACAD_MTEXT_DEFINED_HEIGHT_END
  0
MTEXT
  5
2B5
330
1F
100
AcDbEntity
  8
5
  6
Continuous
 62
     4
370
     9
100
AcDbMText
 10
892.1986795315934
 20
1337.722083625158
 30
0.0
 40
11.0
 41
14.4485057794
 46
11.0
 71
     5
 72
     1
  1
{\fＭＳ Ｐゴシック;\W0.714286;備}
 73
     1
 44
1.0
1001
ACAD
1000
ACAD_MTEXT_DEFINED_HEIGHT_BEGIN
1070
    46
1040
11.0
1000
ACAD_MTEXT_DEFINED_HEIGHT_END
  0
MTEXT
  5
2B6
330
1F
100
AcDbEntity
  8
5
  6
Continuous
 62
     4
370
     9
100
AcDbMText
 10
904.1986795315934
 20
1337.722083625158
 30
0.0
 40
11.0
 41
14.19189139104
 46
11.0
 71
     5
 72
     1
  1
{\fＭＳ Ｐゴシック;\W0.714286;制}
 73
     1
 44
1.0
1001
ACAD
1000
ACAD_MTEXT_DEFINED_HEIGHT_BEGIN
1070
    46
1040
11.0
1000
ACAD_MTEXT_DEFINED_HEIGHT_END
  0
MTEXT
  5
2B7
330
1F
100
AcDbEntity
  8
5
  6
Continuous
 62
     4
370
     9
100
AcDbMText
 10
916.1986795315934
 20
1337.722083625158
 30
0.0
 40
11.0
 41
14.38156289548
 46
11.0
 71
     5
 72
     1
  1
{\fＭＳ Ｐゴシック;\W0.714286;御}
 73
     1
 44
1.0
1001
ACAD
1000
ACAD_MTEXT_DEFINED_HEIGHT_BEGIN
1070
    46
1040
11.0
1000
ACAD_MTEXT_DEFINED_HEIGHT_END
  0
MTEXT
  5
2B8
330
1F
100
AcDbEntity
  8
5
  6
Continuous
 62
     4
370
     9
100
AcDbMText
 10
928.1986795315934
 20
1337.722083625158
 30
0.0
 40
11.0
 41
14.70512016776
 46
11.0
 71
     5
 72
     1
  1
{\fＭＳ Ｐゴシック;\W0.714286;盤}
 73
     1
 44
1.0
1001
ACAD
1000
ACAD_MTEXT_DEFINED_HEIGHT_BEGIN
1070
    46
1040
11.0
1000
ACAD_MTEXT_DEFINED_HEIGHT_END
  0
LINE
  5
2B9
330
1F
100
AcDbEntity
  8
5
  6
Continuous
 62
     4
370
    25
100
AcDbLine
 10
957.3561923841899
 20
1344.520968802898
 30
0.0
 11
827.0409024283545
 21
1344.520968802898
 31
0.0
  0
LINE
  5
2BA
330
1F
100
AcDbEntity
  8
5
  6
Continuous
 62
     4
370
    25
100
AcDbLine
 10
827.0409024283545
 20
1344.520968802898
 30
0.0
 11
835.2790288679862
 21
1332.755704948848
 31
0.0
  0
LINE
  5
2BB
330
1F
100
AcDbEntity
  8
5
  6
Continuous
 62
     4
370
    25
100
AcDbLine
 10
945.5957121541142
 20
1330.922083625158
 30
0.0
 11
838.8013826584283
 21
1330.922083625157
 31
0.0
  0
ARC
  5
2BC
330
1F
100
AcDbEntity
  8
5
  6
Continuous
 62
     4
370
    25
100
AcDbCircle
 10
838.8013826584283
 20
1335.222083625158
 30
0.0
 40
4.300000000000011
100
AcDbArc
 50
215.0000000000178
 51
269.9999999999998
  0
LINE
  5
2BD
330
1F
100
AcDbEntity
  8
5
  6
Continuous
 62
     4
370
    25
100
AcDbLine
 10
957.3561923841899
 20
1344.520968802898
 30
0.0
 11
949.1180659445581
 21
1332.755704948848
 31
0.0
  0
ARC
  5
2BE
330
1F
100
AcDbEntity
  8
5
  6
Continuous
 62
     4
370
    25
100
AcDbCircle
 10
945.5957121541142
 20
1335.222083625158
 30
0.0
 40
4.299999999999955
100
AcDbArc
 50
269.9999999999998
 51
324.9999999999745
  0
HATCH
  5
2BF
330
1F
100
AcDbEntity
  8
5
  6
Continuous
 62
     4
370
    25
100
AcDbHatch
 10
0.0
 20
0.0
 30
0.0
210
0.0
220
0.0
230
1.0
  2
SOLID
 70
     1
 71
     0
 91
        2
 92
        0
 93
        6
 72
     1
 10
827.0408684326212
 20
1344.520968802898
 11
835.278994872253
 21
1332.755704948848
 72
     2
 10
838.8013486626951
 20
1335.222083625158
 40
4.300000000000011
 50
214.9999999999964
 51
270.0000000000001
 73
     1
 72
     1
 10
838.8013486626951
 20
1330.922083625157
 11
945.5956781583809
 21
1330.922083625157
 72
     2
 10
945.5956781583809
 20
1335.222083625158
 40
4.299999999999955
 50
270.0000000000001
 51
325.0000000000036
 73
     1
 72
     1
 10
949.1180319488249
 20
1332.755704948848
 11
957.3561583884566
 21
1344.520968802898
 72
     1
 10
957.3561583884566
 20
1344.520968802898
 11
827.0408684326212
 21
1344.520968802898
 97
        0
 92
        0
 93
        6
 72
     1
 10
958.7008458773362
 20
1345.220968802898
 11
825.6961809437407
 21
1345.220968802898
 72
     1
 10
825.6961809437416
 20
1345.220968802898
 11
834.7057252183004
 21
1332.354176029475
 72
     2
 10
838.8014676446037
 20
1335.222083625158
 40
5.0
 50
215.0003555173767
 51
270.0000000000001
 73
     1
 72
     1
 10
838.8014676446037
 20
1330.222083625158
 11
945.5957971390235
 21
1330.222083625158
 72
     2
 10
945.5957971390235
 20
1335.222083625158
 40
5.0
 50
270.0000000000001
 51
325.0003555173822
 73
     1
 72
     1
 10
949.6915751554516
 20
1332.354226857441
 11
958.7008458773362
 21
1345.220968802898
 97
        0
 75
     0
 76
     1
 98
        0
  0
LINE
  5
2C0
330
1F
100
AcDbEntity
  8
5
  6
Continuous
 62
     4
370
    25
100
AcDbLine
 10
1031.198581402014
 20
1223.222602482416
 30
0.0
 11
1031.198581402014
 21
1226.222602482416
 31
0.0
  0
LINE
  5
2C1
330
1F
100
AcDbEntity
  8
5
  6
Continuous
 62
     4
370
    25
100
AcDbLine
 10
1037.198581402014
 20
1223.222602482416
 30
0.0
 11
1037.198581402014
 21
1226.222602482416
 31
0.0
  0
LINE
  5
2C2
330
1F
100
AcDbEntity
  8
5
  6
Continuous
 62
     4
370
    25
100
AcDbLine
 10
1037.198581402014
 20
1223.222602482416
 30
0.0
 11
1031.198581402014
 21
1223.222602482416
 31
0.0
  0
LINE
  5
2C3
330
1F
100
AcDbEntity
  8
5
  6
Continuous
 62
     4
370
    25
100
AcDbLine
 10
1037.198581402014
 20
1226.222602482416
 30
0.0
 11
1031.198581402014
 21
1226.222602482416
 31
0.0
  0
LINE
  5
2C4
330
1F
100
AcDbEntity
  8
5
  6
Continuous
 62
     4
370
    25
100
AcDbLine
 10
967.1985814020118
 20
1223.22321323241
 30
0.0
 11
967.1985814020118
 21
1226.22321323241
 31
0.0
  0
LINE
  5
2C5
330
1F
100
AcDbEntity
  8
5
  6
Continuous
 62
     4
370
    25
100
AcDbLine
 10
973.1985814020118
 20
1223.22321323241
 30
0.0
 11
973.1985814020118
 21
1226.22321323241
 31
0.0
  0
LINE
  5
2C6
330
1F
100
AcDbEntity
  8
5
  6
Continuous
 62
     4
370
    25
100
AcDbLine
 10
973.1985814020118
 20
1223.22321323241
 30
0.0
 11
967.1985814020118
 21
1223.22321323241
 31
0.0
  0
LINE
  5
2C7
330
1F
100
AcDbEntity
  8
5
  6
Continuous
 62
     4
370
    25
100
AcDbLine
 10
973.1985814020118
 20
1226.22321323241
 30
0.0
 11
967.1985814020118
 21
1226.22321323241
 31
0.0
  0
LINE
  5
2C8
330
1F
100
AcDbEntity
  8
5
  6
Continuous
 62
     4
370
    25
100
AcDbLine
 10
935.1975125843819
 20
1223.223518617607
 30
0.0
 11
935.1975125843819
 21
1226.223518617607
 31
0.0
  0
LINE
  5
2C9
330
1F
100
AcDbEntity
  8
5
  6
Continuous
 62
     4
370
    25
100
AcDbLine
 10
941.1975125843819
 20
1223.223518617607
 30
0.0
 11
941.1975125843819
 21
1226.223518617607
 31
0.0
  0
LINE
  5
2CA
330
1F
100
AcDbEntity
  8
5
  6
Continuous
 62
     4
370
    25
100
AcDbLine
 10
941.1975125843819
 20
1223.223518617607
 30
0.0
 11
935.1975125843819
 21
1223.223518617607
 31
0.0
  0
LINE
  5
2CB
330
1F
100
AcDbEntity
  8
5
  6
Continuous
 62
     4
370
    25
100
AcDbLine
 10
941.1975125843819
 20
1226.223518617607
 30
0.0
 11
935.1975125843819
 21
1226.223518617607
 31
0.0
  0
LINE
  5
2CC
330
1F
100
AcDbEntity
  8
5
  6
Continuous
 62
     4
370
    25
100
AcDbLine
 10
903.1985814020118
 20
1223.223823982405
 30
0.0
 11
903.1985814020118
 21
1226.223823982405
 31
0.0
  0
LINE
  5
2CD
330
1F
100
AcDbEntity
  8
5
  6
Continuous
 62
     4
370
    25
100
AcDbLine
 10
909.1985814020118
 20
1223.223823982405
 30
0.0
 11
909.1985814020118
 21
1226.223823982405
 31
0.0
  0
LINE
  5
2CE
330
1F
100
AcDbEntity
  8
5
  6
Continuous
 62
     4
370
    25
100
AcDbLine
 10
909.1985814020118
 20
1223.223823982405
 30
0.0
 11
903.1985814020118
 21
1223.223823982405
 31
0.0
  0
LINE
  5
2CF
330
1F
100
AcDbEntity
  8
5
  6
Continuous
 62
     4
370
    25
100
AcDbLine
 10
909.1985814020118
 20
1226.223823982405
 30
0.0
 11
903.1985814020118
 21
1226.223823982405
 31
0.0
  0
LINE
  5
2D0
330
1F
100
AcDbEntity
  8
5
  6
Continuous
 62
     4
370
    25
100
AcDbLine
 10
871.1985814020118
 20
1223.224129357402
 30
0.0
 11
871.1985814020118
 21
1226.224129357402
 31
0.0
  0
LINE
  5
2D1
330
1F
100
AcDbEntity
  8
5
  6
Continuous
 62
     4
370
    25
100
AcDbLine
 10
877.1985814020118
 20
1223.224129357402
 30
0.0
 11
877.1985814020118
 21
1226.224129357402
 31
0.0
  0
LINE
  5
2D2
330
1F
100
AcDbEntity
  8
5
  6
Continuous
 62
     4
370
    25
100
AcDbLine
 10
877.1985814020118
 20
1223.224129357402
 30
0.0
 11
871.1985814020118
 21
1223.224129357402
 31
0.0
  0
LINE
  5
2D3
330
1F
100
AcDbEntity
  8
5
  6
Continuous
 62
     4
370
    25
100
AcDbLine
 10
877.1985814020118
 20
1226.224129357402
 30
0.0
 11
871.1985814020118
 21
1226.224129357402
 31
0.0
  0
LINE
  5
2D4
330
1F
100
AcDbEntity
  8
5
  6
Continuous
 62
     4
370
    25
100
AcDbLine
 10
839.1985814020118
 20
1223.224434732399
 30
0.0
 11
839.1985814020118
 21
1226.224434732399
 31
0.0
  0
LINE
  5
2D5
330
1F
100
AcDbEntity
  8
5
  6
Continuous
 62
     4
370
    25
100
AcDbLine
 10
845.1985814020118
 20
1223.224434732399
 30
0.0
 11
845.1985814020118
 21
1226.224434732399
 31
0.0
  0
LINE
  5
2D6
330
1F
100
AcDbEntity
  8
5
  6
Continuous
 62
     4
370
    25
100
AcDbLine
 10
845.1985814020118
 20
1223.224434732399
 30
0.0
 11
839.1985814020118
 21
1223.224434732399
 31
0.0
  0
LINE
  5
2D7
330
1F
100
AcDbEntity
  8
5
  6
Continuous
 62
     4
370
    25
100
AcDbLine
 10
845.1985814020118
 20
1226.224434732399
 30
0.0
 11
839.1985814020118
 21
1226.224434732399
 31
0.0
  0
LINE
  5
2D8
330
1F
100
AcDbEntity
  8
5
  6
Continuous
 62
     4
370
    25
100
AcDbLine
 10
1025.848581402013
 20
1220.072549996089
 30
0.0
 11
1025.848581402015
 21
1203.372549996089
 31
0.0
  0
LINE
  5
2D9
330
1F
100
AcDbEntity
  8
5
  6
Continuous
 62
     4
370
    25
100
AcDbLine
 10
1025.848581402015
 20
1220.072549996089
 30
0.0
 11
1042.548581402014
 21
1220.072549996089
 31
0.0
  0
LINE
  5
2DA
330
1F
100
AcDbEntity
  8
5
  6
Continuous
 62
     4
370
    25
100
AcDbLine
 10
1025.848581402013
 20
1203.372549996089
 30
0.0
 11
1042.548581402014
 21
1203.372549996089
 31
0.0
  0
LINE
  5
2DB
330
1F
100
AcDbEntity
  8
5
  6
Continuous
 62
     4
370
    25
100
AcDbLine
 10
1042.548581402014
 20
1220.072549996089
 30
0.0
 11
1042.548581402014
 21
1203.372549996089
 31
0.0
  0
LINE
  5
2DC
330
1F
100
AcDbEntity
  8
5
  6
Continuous
 62
     4
370
    25
100
AcDbLine
 10
961.8485814020132
 20
1220.072549996089
 30
0.0
 11
961.8485814020132
 21
1203.372549996089
 31
0.0
  0
LINE
  5
2DD
330
1F
100
AcDbEntity
  8
5
  6
Continuous
 62
     4
370
    25
100
AcDbLine
 10
961.8485814020132
 20
1220.072549996089
 30
0.0
 11
978.548581402014
 21
1220.072549996089
 31
0.0
  0
LINE
  5
2DE
330
1F
100
AcDbEntity
  8
5
  6
Continuous
 62
     4
370
    25
100
AcDbLine
 10
961.8485814020132
 20
1203.372549996089
 30
0.0
 11
978.548581402014
 21
1203.372549996089
 31
0.0
  0
LINE
  5
2DF
330
1F
100
AcDbEntity
  8
5
  6
Continuous
 62
     4
370
    25
100
AcDbLine
 10
978.548581402014
 20
1220.072549996089
 30
0.0
 11
978.548581402014
 21
1203.372549996089
 31
0.0
  0
LINE
  5
2E0
330
1F
100
AcDbEntity
  8
5
  6
Continuous
 62
     4
370
    25
100
AcDbLine
 10
929.8485814020132
 20
1220.072549996089
 30
0.0
 11
929.8485814020132
 21
1203.372549996089
 31
0.0
  0
LINE
  5
2E1
330
1F
100
AcDbEntity
  8
5
  6
Continuous
 62
     4
370
    25
100
AcDbLine
 10
929.8485814020132
 20
1220.072549996089
 30
0.0
 11
946.548581402014
 21
1220.072549996089
 31
0.0
  0
LINE
  5
2E2
330
1F
100
AcDbEntity
  8
5
  6
Continuous
 62
     4
370
    25
100
AcDbLine
 10
929.8485814020132
 20
1203.372549996089
 30
0.0
 11
946.548581402014
 21
1203.372549996089
 31
0.0
  0
LINE
  5
2E3
330
1F
100
AcDbEntity
  8
5
  6
Continuous
 62
     4
370
    25
100
AcDbLine
 10
946.548581402014
 20
1220.072549996089
 30
0.0
 11
946.548581402014
 21
1203.372549996089
 31
0.0
  0
LINE
  5
2E4
330
1F
100
AcDbEntity
  8
5
  6
Continuous
 62
     4
370
    25
100
AcDbLine
 10
897.8485814020132
 20
1220.072549996089
 30
0.0
 11
897.8485814020132
 21
1203.372549996089
 31
0.0
  0
LINE
  5
2E5
330
1F
100
AcDbEntity
  8
5
  6
Continuous
 62
     4
370
    25
100
AcDbLine
 10
897.8485814020132
 20
1220.072549996089
 30
0.0
 11
914.548581402014
 21
1220.072549996089
 31
0.0
  0
LINE
  5
2E6
330
1F
100
AcDbEntity
  8
5
  6
Continuous
 62
     4
370
    25
100
AcDbLine
 10
897.8485814020132
 20
1203.372549996089
 30
0.0
 11
914.548581402014
 21
1203.372549996089
 31
0.0
  0
LINE
  5
2E7
330
1F
100
AcDbEntity
  8
5
  6
Continuous
 62
     4
370
    25
100
AcDbLine
 10
914.548581402014
 20
1220.072549996089
 30
0.0
 11
914.548581402014
 21
1203.372549996089
 31
0.0
  0
LINE
  5
2E8
330
1F
100
AcDbEntity
  8
5
  6
Continuous
 62
     4
370
    25
100
AcDbLine
 10
865.8485814020132
 20
1220.072549996089
 30
0.0
 11
865.8485814020132
 21
1203.372549996089
 31
0.0
  0
LINE
  5
2E9
330
1F
100
AcDbEntity
  8
5
  6
Continuous
 62
     4
370
    25
100
AcDbLine
 10
865.8485814020132
 20
1220.072549996089
 30
0.0
 11
882.548581402014
 21
1220.072549996089
 31
0.0
  0
LINE
  5
2EA
330
1F
100
AcDbEntity
  8
5
  6
Continuous
 62
     4
370
    25
100
AcDbLine
 10
865.8485814020132
 20
1203.372549996089
 30
0.0
 11
882.548581402014
 21
1203.372549996089
 31
0.0
  0
LINE
  5
2EB
330
1F
100
AcDbEntity
  8
5
  6
Continuous
 62
     4
370
    25
100
AcDbLine
 10
882.548581402014
 20
1220.072549996089
 30
0.0
 11
882.548581402014
 21
1203.372549996089
 31
0.0
  0
LINE
  5
2EC
330
1F
100
AcDbEntity
  8
5
  6
Continuous
 62
     4
370
    25
100
AcDbLine
 10
833.8485814020132
 20
1220.072549996089
 30
0.0
 11
833.8485814020132
 21
1203.372549996089
 31
0.0
  0
LINE
  5
2ED
330
1F
100
AcDbEntity
  8
5
  6
Continuous
 62
     4
370
    25
100
AcDbLine
 10
833.8485814020132
 20
1220.072549996089
 30
0.0
 11
850.548581402014
 21
1220.072549996089
 31
0.0
  0
LINE
  5
2EE
330
1F
100
AcDbEntity
  8
5
  6
Continuous
 62
     4
370
    25
100
AcDbLine
 10
833.8485814020132
 20
1203.372549996089
 30
0.0
 11
850.548581402014
 21
1203.372549996089
 31
0.0
  0
LINE
  5
2EF
330
1F
100
AcDbEntity
  8
5
  6
Continuous
 62
     4
370
    25
100
AcDbLine
 10
850.548581402014
 20
1220.072549996089
 30
0.0
 11
850.548581402014
 21
1203.372549996089
 31
0.0
  0
HATCH
  5
2F0
330
1F
100
AcDbEntity
  8
5
  6
Continuous
 62
     4
370
    25
100
AcDbHatch
 10
0.0
 20
0.0
 30
0.0
210
0.0
220
0.0
230
1.0
  2
SOLID
 70
     1
 71
     0
 91
        2
 92
        0
 93
        3
 72
     1
 10
796.1985816160486
 20
1243.472546092772
 11
796.1985815938315
 21
1238.972549996089
 72
     1
 10
796.1985815938315
 20
1238.972549996089
 11
798.7966555738203
 21
1238.972549996089
 72
     1
 10
798.7966555738203
 20
1238.972549996089
 11
796.1985816160486
 21
1243.472546092772
 97
        0
 92
        0
 93
        4
 72
     1
 10
796.1985816160486
 20
1243.472546092772
 11
796.1985793624681
 21
1243.472549996089
 72
     1
 10
796.1985793624681
 20
1243.472549996089
 11
793.600503151114
 21
1238.972549996089
 72
     1
 10
793.600503151114
 20
1238.972549996089
 11
796.1985815938315
 21
1238.972549996089
 72
     1
 10
796.1985815938315
 20
1238.972549996089
 11
796.1985816160486
 21
1243.472546092772
 97
        0
 75
     0
 76
     1
 98
        0
  0
LINE
  5
2F1
330
1F
100
AcDbEntity
  8
5
  6
Continuous
 62
     4
370
    25
100
AcDbLine
 10
769.0985814020132
 20
1227.322549996089
 30
0.0
 11
769.0985814020114
 21
1213.122549996089
 31
0.0
  0
LINE
  5
2F2
330
1F
100
AcDbEntity
  8
5
  6
Continuous
 62
     4
370
    25
100
AcDbLine
 10
769.0985814020132
 20
1213.122549996089
 30
0.0
 11
783.298581402014
 21
1213.122549996089
 31
0.0
  0
LINE
  5
2F3
330
1F
100
AcDbEntity
  8
5
  6
Continuous
 62
     4
370
    25
100
AcDbLine
 10
783.298581402014
 20
1213.122549996089
 30
0.0
 11
783.2985814020121
 21
1227.322549996089
 31
0.0
  0
LINE
  5
2F4
330
1F
100
AcDbEntity
  8
5
  6
Continuous
 62
     4
370
    25
100
AcDbLine
 10
783.298581402014
 20
1227.322549996089
 30
0.0
 11
769.0985814020132
 21
1227.322549996089
 31
0.0
  0
LINE
  5
2F5
330
1F
100
AcDbEntity
  8
5
  6
Continuous
 62
     4
370
    25
100
AcDbLine
 10
789.0985814020132
 20
1237.322549996089
 30
0.0
 11
789.0985814020114
 21
1223.122549996089
 31
0.0
  0
LINE
  5
2F6
330
1F
100
AcDbEntity
  8
5
  6
Continuous
 62
     4
370
    25
100
AcDbLine
 10
789.0985814020132
 20
1223.122549996089
 30
0.0
 11
803.298581402014
 21
1223.122549996089
 31
0.0
  0
LINE
  5
2F7
330
1F
100
AcDbEntity
  8
5
  6
Continuous
 62
     4
370
    25
100
AcDbLine
 10
803.298581402014
 20
1223.122549996089
 30
0.0
 11
803.2985814020121
 21
1237.322549996089
 31
0.0
  0
LINE
  5
2F8
330
1F
100
AcDbEntity
  8
5
  6
Continuous
 62
     4
370
    25
100
AcDbLine
 10
803.298581402014
 20
1237.322549996089
 30
0.0
 11
789.0985814020132
 21
1237.322549996089
 31
0.0
  0
LINE
  5
2F9
330
1F
100
AcDbEntity
  8
5
  6
Continuous
 62
     4
370
    25
100
AcDbLine
 10
789.0985814020132
 20
1217.322549996089
 30
0.0
 11
789.0985814020114
 21
1203.122549996089
 31
0.0
  0
LINE
  5
2FA
330
1F
100
AcDbEntity
  8
5
  6
Continuous
 62
     4
370
    25
100
AcDbLine
 10
789.0985814020132
 20
1203.122549996089
 30
0.0
 11
803.298581402014
 21
1203.122549996089
 31
0.0
  0
LINE
  5
2FB
330
1F
100
AcDbEntity
  8
5
  6
Continuous
 62
     4
370
    25
100
AcDbLine
 10
803.298581402014
 20
1203.122549996089
 30
0.0
 11
803.2985814020121
 21
1217.322549996089
 31
0.0
  0
LINE
  5
2FC
330
1F
100
AcDbEntity
  8
5
  6
Continuous
 62
     4
370
    25
100
AcDbLine
 10
803.298581402014
 20
1217.322549996089
 30
0.0
 11
789.0985814020132
 21
1217.322549996089
 31
0.0
  0
LINE
  5
2FD
330
1F
100
AcDbEntity
  8
5
  6
Continuous
 62
     4
370
    25
100
AcDbLine
 10
809.0985814020132
 20
1227.322549996089
 30
0.0
 11
809.0985814020114
 21
1213.122549996089
 31
0.0
  0
LINE
  5
2FE
330
1F
100
AcDbEntity
  8
5
  6
Continuous
 62
     4
370
    25
100
AcDbLine
 10
809.0985814020132
 20
1213.122549996089
 30
0.0
 11
823.298581402014
 21
1213.122549996089
 31
0.0
  0
LINE
  5
2FF
330
1F
100
AcDbEntity
  8
5
  6
Continuous
 62
     4
370
    25
100
AcDbLine
 10
823.298581402014
 20
1213.122549996089
 30
0.0
 11
823.2985814020121
 21
1227.322549996089
 31
0.0
  0
LINE
  5
300
330
1F
100
AcDbEntity
  8
5
  6
Continuous
 62
     4
370
    25
100
AcDbLine
 10
823.298581402014
 20
1227.322549996089
 30
0.0
 11
809.0985814020132
 21
1227.322549996089
 31
0.0
  0
LINE
  5
301
330
1F
100
AcDbEntity
  8
5
  6
Continuous
 62
     4
370
    25
100
AcDbLine
 10
1019.198581402014
 20
1234.321701525866
 30
0.0
 11
1019.198581402014
 21
1200.722535574927
 31
0.0
  0
LINE
  5
302
330
1F
100
AcDbEntity
  8
5
  6
Continuous
 62
     4
370
    25
100
AcDbLine
 10
1049.19858111708
 20
1234.321701525866
 30
0.0
 11
1049.19858111708
 21
1200.722535574927
 31
0.0
  0
LINE
  5
303
330
1F
100
AcDbEntity
  8
5
  6
Continuous
 62
     4
370
    25
100
AcDbLine
 10
1024.198581402014
 20
1195.722535574927
 30
0.0
 11
1044.19858111708
 21
1195.722535574927
 31
0.0
  0
ARC
  5
304
330
1F
100
AcDbEntity
  8
5
  6
Continuous
 62
     4
370
    25
100
AcDbCircle
 10
1024.198581402014
 20
1200.722535574927
 30
0.0
 40
5.0
100
AcDbArc
 50
179.9999999999998
 51
269.9999999999998
  0
ARC
  5
305
330
1F
100
AcDbEntity
  8
5
  6
Continuous
 62
     4
370
    25
100
AcDbCircle
 10
1044.19858111708
 20
1200.722535574927
 30
0.0
 40
5.0
100
AcDbArc
 50
269.9999999999998
 51
0.0
  0
LINE
  5
306
330
1F
100
AcDbEntity
  8
5
  6
Continuous
 62
     4
370
    25
100
AcDbLine
 10
1024.198581402014
 20
1239.321701525866
 30
0.0
 11
1044.19858111708
 21
1239.321701525866
 31
0.0
  0
ARC
  5
307
330
1F
100
AcDbEntity
  8
5
  6
Continuous
 62
     4
370
    25
100
AcDbCircle
 10
1024.198581402014
 20
1234.321701525866
 30
0.0
 40
5.0
100
AcDbArc
 50
89.99999999999991
 51
179.9999999999998
  0
ARC
  5
308
330
1F
100
AcDbEntity
  8
5
  6
Continuous
 62
     4
370
    25
100
AcDbCircle
 10
1044.19858111708
 20
1234.321701525866
 30
0.0
 40
5.0
100
AcDbArc
 50
0.0
 51
89.99999999999991
  0
MTEXT
  5
309
330
1F
100
AcDbEntity
  8
5
  6
Continuous
 62
     4
370
     9
100
AcDbMText
 10
1037.448581402014
 20
1231.722602482416
 30
0.0
 40
6.050000000000001
 41
6.449389008326
 46
6.050000000000001
 71
     5
 72
     1
  1
{\fＭＳ Ｐゴシック;\W0.714286;旧}
 73
     1
 44
1.0
1001
ACAD
1000
ACAD_MTEXT_DEFINED_HEIGHT_BEGIN
1070
    46
1040
6.050000000000001
1000
ACAD_MTEXT_DEFINED_HEIGHT_END
  0
MTEXT
  5
30A
330
1F
100
AcDbEntity
  8
5
  6
Continuous
 62
     4
370
     9
100
AcDbMText
 10
1030.948581402014
 20
1231.722602482416
 30
0.0
 40
6.050000000000001
 41
8.124634678424002
 46
6.050000000000001
 71
     5
 72
     1
  1
{\fＭＳ Ｐゴシック;\W0.714286;復}
 73
     1
 44
1.0
1001
ACAD
1000
ACAD_MTEXT_DEFINED_HEIGHT_BEGIN
1070
    46
1040
6.050000000000001
1000
ACAD_MTEXT_DEFINED_HEIGHT_END
  0
MTEXT
  5
30B
330
1F
100
AcDbEntity
  8
5
  6
Continuous
 62
     4
370
     9
100
AcDbMText
 10
874.1985814020118
 20
1235.724130975155
 30
0.0
 40
5.5
 41
6.967638501339998
 46
5.5
 71
     5
 72
     1
  1
{\fＭＳ Ｐゴシック;\W0.714286;動}
 73
     1
 44
1.0
1001
ACAD
1000
ACAD_MTEXT_DEFINED_HEIGHT_BEGIN
1070
    46
1040
5.5
1000
ACAD_MTEXT_DEFINED_HEIGHT_END
  0
MTEXT
  5
30C
330
1F
100
AcDbEntity
  8
5
  6
Continuous
 62
     4
370
     9
100
AcDbMText
 10
868.1985814020118
 20
1235.724130975155
 30
0.0
 40
5.5
 41
7.129417137479999
 46
5.5
 71
     5
 72
     1
  1
{\fＭＳ Ｐゴシック;\W0.714286;電}
 73
     1
 44
1.0
1001
ACAD
1000
ACAD_MTEXT_DEFINED_HEIGHT_BEGIN
1070
    46
1040
5.5
1000
ACAD_MTEXT_DEFINED_HEIGHT_END
  0
MTEXT
  5
30D
330
1F
100
AcDbEntity
  8
5
  6
Continuous
 62
     4
370
     9
100
AcDbMText
 10
880.1985814020118
 20
1235.724130975155
 30
0.0
 40
5.5
 41
7.034581385259998
 46
5.5
 71
     5
 72
     1
  1
{\fＭＳ Ｐゴシック;\W0.714286;弁}
 73
     1
 44
1.0
1001
ACAD
1000
ACAD_MTEXT_DEFINED_HEIGHT_BEGIN
1070
    46
1040
5.5
1000
ACAD_MTEXT_DEFINED_HEIGHT_END
  0
MTEXT
  5
30E
330
1F
100
AcDbEntity
  8
5
  6
Continuous
 62
     4
370
     9
100
AcDbMText
 10
874.1985814020118
 20
1229.724130975155
 30
0.0
 40
5.5
 41
7.386031525839998
 46
5.5
 71
     5
 72
     1
  1
{\fＭＳ Ｐゴシック;\W0.714286;連}
 73
     1
 44
1.0
1001
ACAD
1000
ACAD_MTEXT_DEFINED_HEIGHT_BEGIN
1070
    46
1040
5.5
1000
ACAD_MTEXT_DEFINED_HEIGHT_END
  0
MTEXT
  5
30F
330
1F
100
AcDbEntity
  8
5
  6
Continuous
 62
     4
370
     9
100
AcDbMText
 10
868.1985814020118
 20
1229.724130975155
 30
0.0
 40
5.5
 41
7.129417137479998
 46
5.5
 71
     5
 72
     1
  1
{\fＭＳ Ｐゴシック;\W0.714286;非}
 73
     1
 44
1.0
1001
ACAD
1000
ACAD_MTEXT_DEFINED_HEIGHT_BEGIN
1070
    46
1040
5.5
1000
ACAD_MTEXT_DEFINED_HEIGHT_END
  0
MTEXT
  5
310
330
1F
100
AcDbEntity
  8
5
  6
Continuous
 62
     4
370
     9
100
AcDbMText
 10
880.1985814020118
 20
1229.724130975155
 30
0.0
 40
5.5
 41
6.967638501339998
 46
5.5
 71
     5
 72
     1
  1
{\fＭＳ Ｐゴシック;\W0.714286;動}
 73
     1
 44
1.0
1001
ACAD
1000
ACAD_MTEXT_DEFINED_HEIGHT_BEGIN
1070
    46
1040
5.5
1000
ACAD_MTEXT_DEFINED_HEIGHT_END
  0
LINE
  5
311
330
1F
100
AcDbEntity
  8
5
  6
Continuous
 62
     4
370
    25
100
AcDbLine
 10
859.1985814020118
 20
1234.321701525866
 30
0.0
 11
859.1985814020118
 21
1200.722535574927
 31
0.0
  0
LINE
  5
312
330
1F
100
AcDbEntity
  8
5
  6
Continuous
 62
     4
370
    25
100
AcDbLine
 10
864.1985814020118
 20
1195.722535574927
 30
0.0
 11
916.1985811170798
 21
1195.722535574927
 31
0.0
  0
ARC
  5
313
330
1F
100
AcDbEntity
  8
5
  6
Continuous
 62
     4
370
    25
100
AcDbCircle
 10
864.1985814020118
 20
1200.722535574927
 30
0.0
 40
5.0
100
AcDbArc
 50
179.9999999999998
 51
269.9999999999998
  0
LINE
  5
314
330
1F
100
AcDbEntity
  8
5
  6
Continuous
 62
     4
370
    25
100
AcDbLine
 10
864.1985814020118
 20
1239.321701525866
 30
0.0
 11
916.1985811170798
 21
1239.321701525866
 31
0.0
  0
ARC
  5
315
330
1F
100
AcDbEntity
  8
5
  6
Continuous
 62
     4
370
    25
100
AcDbCircle
 10
864.1985814020118
 20
1234.321701525866
 30
0.0
 40
5.0
100
AcDbArc
 50
89.99999999999991
 51
179.9999999999998
  0
LINE
  5
316
330
1F
100
AcDbEntity
  8
5
  6
Continuous
 62
     4
370
    25
100
AcDbLine
 10
832.1985814020118
 20
1241.321701525866
 30
0.0
 11
1044.19858111708
 21
1241.321701525866
 31
0.0
  0
ARC
  5
317
330
1F
100
AcDbEntity
  8
5
  6
Continuous
 62
     4
370
    25
100
AcDbCircle
 10
1044.19858111708
 20
1234.321701525866
 30
0.0
 40
7.0
100
AcDbArc
 50
0.0
 51
89.99999999999991
  0
LINE
  5
318
330
1F
100
AcDbEntity
  8
5
  6
Continuous
 62
     4
370
    25
100
AcDbLine
 10
1051.19858111708
 20
1234.321701525866
 30
0.0
 11
1051.19858111708
 21
1200.722535574927
 31
0.0
  0
ARC
  5
319
330
1F
100
AcDbEntity
  8
5
  6
Continuous
 62
     4
370
    25
100
AcDbCircle
 10
1044.19858111708
 20
1200.722535574927
 30
0.0
 40
7.0
100
AcDbArc
 50
269.9999999999998
 51
0.0
  0
LINE
  5
31A
330
1F
100
AcDbEntity
  8
5
  6
Continuous
 62
     4
370
    25
100
AcDbLine
 10
798.7966555738203
 20
1238.972549996089
 30
0.0
 11
793.600503151114
 21
1238.972549996089
 31
0.0
  0
LINE
  5
31B
330
1F
100
AcDbEntity
  8
5
  6
Continuous
 62
     4
370
    25
100
AcDbLine
 10
796.1985793624681
 20
1243.472549996089
 30
0.0
 11
793.600503151114
 21
1238.972549996089
 31
0.0
  0
LINE
  5
31C
330
1F
100
AcDbEntity
  8
5
  6
Continuous
 62
     4
370
    25
100
AcDbLine
 10
796.1985793624681
 20
1243.472549996089
 30
0.0
 11
798.7966555738203
 21
1238.972549996089
 31
0.0
  0
HATCH
  5
31D
330
1F
100
AcDbEntity
  8
5
  6
Continuous
 62
     4
370
    25
100
AcDbHatch
 10
0.0
 20
0.0
 30
0.0
210
0.0
220
0.0
230
1.0
  2
SOLID
 70
     1
 71
     0
 91
        1
 92
        0
 93
        3
 72
     1
 10
798.7966569431264
 20
1201.472549996086
 11
793.6005045204201
 21
1201.472549996086
 72
     1
 10
793.6005045204201
 20
1201.472549996086
 11
796.1985807317742
 21
1196.972549996086
 72
     1
 10
796.1985807317742
 20
1196.972549996086
 11
798.7966569431264
 21
1201.472549996086
 97
        0
 75
     0
 76
     1
 98
        0
  0
LINE
  5
31E
330
1F
100
AcDbEntity
  8
5
  6
Continuous
 62
     4
370
    25
100
AcDbLine
 10
798.7966569431264
 20
1201.472549996086
 30
0.0
 11
793.6005045204201
 21
1201.472549996086
 31
0.0
  0
LINE
  5
31F
330
1F
100
AcDbEntity
  8
5
  6
Continuous
 62
     4
370
    25
100
AcDbLine
 10
796.1985807317742
 20
1196.972549996086
 30
0.0
 11
793.6005045204201
 21
1201.472549996086
 31
0.0
  0
LINE
  5
320
330
1F
100
AcDbEntity
  8
5
  6
Continuous
 62
     4
370
    25
100
AcDbLine
 10
796.1985807317742
 20
1196.972549996086
 30
0.0
 11
798.7966569431264
 21
1201.472549996086
 31
0.0
  0
LINE
  5
321
330
1F
100
AcDbEntity
  8
5
  6
Continuous
 62
     4
370
    25
100
AcDbLine
 10
985.1985811170798
 20
1234.321701525866
 30
0.0
 11
985.1985811170798
 21
1200.722535574927
 31
0.0
  0
ARC
  5
322
330
1F
100
AcDbEntity
  8
5
  6
Continuous
 62
     4
370
    25
100
AcDbCircle
 10
980.1985811170798
 20
1200.722535574927
 30
0.0
 40
5.0
100
AcDbArc
 50
269.9999999999998
 51
0.0
  0
ARC
  5
323
330
1F
100
AcDbEntity
  8
5
  6
Continuous
 62
     4
370
    25
100
AcDbCircle
 10
980.1985811170798
 20
1234.321701525866
 30
0.0
 40
5.0
100
AcDbArc
 50
0.0
 51
89.99999999999991
  0
LINE
  5
324
330
1F
100
AcDbEntity
  8
5
  6
Continuous
 62
     4
370
    25
100
AcDbLine
 10
923.1985814020118
 20
1234.321701525866
 30
0.0
 11
923.1985814020118
 21
1200.722535574927
 31
0.0
  0
LINE
  5
325
330
1F
100
AcDbEntity
  8
5
  6
Continuous
 62
     4
370
    25
100
AcDbLine
 10
928.1985814020118
 20
1195.722535574927
 30
0.0
 11
980.1985811170798
 21
1195.722535574927
 31
0.0
  0
ARC
  5
326
330
1F
100
AcDbEntity
  8
5
  6
Continuous
 62
     4
370
    25
100
AcDbCircle
 10
928.1985814020118
 20
1200.722535574927
 30
0.0
 40
5.0
100
AcDbArc
 50
179.9999999999998
 51
269.9999999999998
  0
LINE
  5
327
330
1F
100
AcDbEntity
  8
5
  6
Continuous
 62
     4
370
    25
100
AcDbLine
 10
928.1985814020118
 20
1239.321701525866
 30
0.0
 11
980.1985811170798
 21
1239.321701525866
 31
0.0
  0
ARC
  5
328
330
1F
100
AcDbEntity
  8
5
  6
Continuous
 62
     4
370
    25
100
AcDbCircle
 10
928.1985814020118
 20
1234.321701525866
 30
0.0
 40
5.0
100
AcDbArc
 50
89.99999999999991
 51
179.9999999999998
  0
LINE
  5
329
330
1F
100
AcDbEntity
  8
5
  6
Continuous
 62
     4
370
    25
100
AcDbLine
 10
921.1985811170798
 20
1234.321701525866
 30
0.0
 11
921.1985811170798
 21
1200.722535574927
 31
0.0
  0
ARC
  5
32A
330
1F
100
AcDbEntity
  8
5
  6
Continuous
 62
     4
370
    25
100
AcDbCircle
 10
916.1985811170798
 20
1200.722535574927
 30
0.0
 40
5.0
100
AcDbArc
 50
269.9999999999998
 51
0.0
  0
ARC
  5
32B
330
1F
100
AcDbEntity
  8
5
  6
Continuous
 62
     4
370
    25
100
AcDbCircle
 10
916.1985811170798
 20
1234.321701525866
 30
0.0
 40
5.0
100
AcDbArc
 50
0.0
 51
89.99999999999991
  0
LINE
  5
32C
330
1F
100
AcDbEntity
  8
5
  6
Continuous
 62
     4
370
    25
100
AcDbLine
 10
827.1985814020118
 20
1234.321701525866
 30
0.0
 11
827.1985814020118
 21
1200.722535574927
 31
0.0
  0
LINE
  5
32D
330
1F
100
AcDbEntity
  8
5
  6
Continuous
 62
     4
370
    25
100
AcDbLine
 10
857.1985811170798
 20
1234.321701525866
 30
0.0
 11
857.1985811170798
 21
1200.722535574927
 31
0.0
  0
LINE
  5
32E
330
1F
100
AcDbEntity
  8
5
  6
Continuous
 62
     4
370
    25
100
AcDbLine
 10
832.1985814020118
 20
1195.722535574927
 30
0.0
 11
852.1985811170798
 21
1195.722535574927
 31
0.0
  0
ARC
  5
32F
330
1F
100
AcDbEntity
  8
5
  6
Continuous
 62
     4
370
    25
100
AcDbCircle
 10
852.1985811170798
 20
1200.722535574927
 30
0.0
 40
5.0
100
AcDbArc
 50
269.9999999999998
 51
0.0
  0
LINE
  5
330
330
1F
100
AcDbEntity
  8
5
  6
Continuous
 62
     4
370
    25
100
AcDbLine
 10
832.1985814020118
 20
1239.321701525866
 30
0.0
 11
852.1985811170798
 21
1239.321701525866
 31
0.0
  0
ARC
  5
331
330
1F
100
AcDbEntity
  8
5
  6
Continuous
 62
     4
370
    25
100
AcDbCircle
 10
832.1985814020118
 20
1234.321701525866
 30
0.0
 40
5.0
100
AcDbArc
 50
89.99999999999991
 51
179.9999999999998
  0
ARC
  5
332
330
1F
100
AcDbEntity
  8
5
  6
Continuous
 62
     4
370
    25
100
AcDbCircle
 10
852.1985811170798
 20
1234.321701525866
 30
0.0
 40
5.0
100
AcDbArc
 50
0.0
 51
89.99999999999991
  0
LINE
  5
333
330
1F
100
AcDbEntity
  8
5
  6
Continuous
 62
     4
370
    25
100
AcDbLine
 10
820.1985814020136
 20
1244.722549996089
 30
0.0
 11
772.1985814020136
 21
1244.722549996089
 31
0.0
  0
ARC
  5
334
330
1F
100
AcDbEntity
  8
5
  6
Continuous
 62
     4
370
    25
100
AcDbCircle
 10
820.1985814020136
 20
1239.722549996089
 30
0.0
 40
5.0
100
AcDbArc
 50
0.0
 51
89.99999999999991
  0
LINE
  5
335
330
1F
100
AcDbEntity
  8
5
  6
Continuous
 62
     4
370
    25
100
AcDbLine
 10
820.1985814020136
 20
1195.722549996089
 30
0.0
 11
772.1985814020136
 21
1195.722549996089
 31
0.0
  0
ARC
  5
336
330
1F
100
AcDbEntity
  8
5
  6
Continuous
 62
     4
370
    25
100
AcDbCircle
 10
772.1985814020136
 20
1200.722549996089
 30
0.0
 40
5.0
100
AcDbArc
 50
179.9999999999998
 51
269.9999999999998
  0
LINE
  5
337
330
1F
100
AcDbEntity
  8
5
  6
Continuous
 62
     4
370
    25
100
AcDbLine
 10
767.1985814020136
 20
1239.722549996089
 30
0.0
 11
767.1985814020136
 21
1200.722549996089
 31
0.0
  0
ARC
  5
338
330
1F
100
AcDbEntity
  8
5
  6
Continuous
 62
     4
370
    25
100
AcDbCircle
 10
772.1985814020136
 20
1239.722549996089
 30
0.0
 40
5.0
100
AcDbArc
 50
89.99999999999991
 51
179.9999999999998
  0
LINE
  5
339
330
1F
100
AcDbEntity
  8
5
  6
Continuous
 62
     4
370
    25
100
AcDbLine
 10
825.1985814020136
 20
1239.722549996089
 30
0.0
 11
825.1985814020136
 21
1200.722549996089
 31
0.0
  0
ARC
  5
33A
330
1F
100
AcDbEntity
  8
5
  6
Continuous
 62
     4
370
    25
100
AcDbCircle
 10
820.1985814020136
 20
1200.722549996089
 30
0.0
 40
5.0
100
AcDbArc
 50
269.9999999999998
 51
0.0
  0
LINE
  5
33B
330
1F
100
AcDbEntity
  8
5
  6
Continuous
 62
     4
370
    25
100
AcDbLine
 10
820.1985814020136
 20
1246.722549996089
 30
0.0
 11
772.1985814020136
 21
1246.722549996089
 31
0.0
  0
ARC
  5
33C
330
1F
100
AcDbEntity
  8
5
  6
Continuous
 62
     4
370
    25
100
AcDbCircle
 10
820.1985814020136
 20
1239.722549996089
 30
0.0
 40
7.0
100
AcDbArc
 50
0.0
 51
89.99999999999991
  0
ARC
  5
33D
330
1F
100
AcDbEntity
  8
5
  6
Continuous
 62
     4
370
    25
100
AcDbCircle
 10
772.1985814020136
 20
1239.722549996089
 30
0.0
 40
7.0
100
AcDbArc
 50
89.99999999999991
 51
179.9999999999998
  0
LINE
  5
33E
330
1F
100
AcDbEntity
  8
5
  6
Continuous
 62
     4
370
    25
100
AcDbLine
 10
827.1985814020136
 20
1239.722549996089
 30
0.0
 11
827.1985814020118
 21
1239.220681011432
 31
0.0
  0
LINE
  5
33F
330
1F
100
AcDbEntity
  8
5
  6
Continuous
 62
     4
370
    25
100
AcDbLine
 10
827.1985814020118
 20
1234.321701525866
 30
0.0
 11
827.1985814020118
 21
1200.722535574927
 31
0.0
  0
LINE
  5
340
330
1F
100
AcDbEntity
  8
5
  6
Continuous
 62
     4
370
    25
100
AcDbLine
 10
1044.19858111708
 20
1193.722535574927
 30
0.0
 11
772.1985814020136
 21
1193.722549996089
 31
0.0
  0
ARC
  5
341
330
1F
100
AcDbEntity
  8
5
  6
Continuous
 62
     4
370
    25
100
AcDbCircle
 10
772.1985814020136
 20
1200.722549996089
 30
0.0
 40
7.0
100
AcDbArc
 50
179.9999999999998
 51
269.9999999999998
  0
LINE
  5
342
330
1F
100
AcDbEntity
  8
5
  6
Continuous
 62
     4
370
    25
100
AcDbLine
 10
765.1985814020136
 20
1239.722549996089
 30
0.0
 11
765.1985814020136
 21
1200.722549996089
 31
0.0
  0
ARC
  5
343
330
1F
100
AcDbEntity
  8
5
  6
Continuous
 62
     4
370
    25
100
AcDbCircle
 10
832.1985814020118
 20
1234.321701525866
 30
0.0
 40
7.0
100
AcDbArc
 50
89.99999999999991
 51
135.584691402777
  0
MTEXT
  5
344
330
1F
100
AcDbEntity
  8
5
  6
Continuous
 62
     4
370
     9
100
AcDbMText
 10
902.9485814020118
 20
1231.723823982405
 30
0.0
 40
6.050000000000001
 41
7.977360333800002
 46
6.050000000000001
 71
     5
 72
     1
  1
{\fＭＳ Ｐゴシック;\W0.714286;信}
 73
     1
 44
1.0
1001
ACAD
1000
ACAD_MTEXT_DEFINED_HEIGHT_BEGIN
1070
    46
1040
6.050000000000001
1000
ACAD_MTEXT_DEFINED_HEIGHT_END
  0
MTEXT
  5
345
330
1F
100
AcDbEntity
  8
5
  6
Continuous
 62
     4
370
     9
100
AcDbMText
 10
896.4485814020118
 20
1231.723823982405
 30
0.0
 40
6.050000000000001
 41
8.259636160996001
 46
6.050000000000001
 71
     5
 72
     1
  1
{\fＭＳ Ｐゴシック;\W0.714286;移}
 73
     1
 44
1.0
1001
ACAD
1000
ACAD_MTEXT_DEFINED_HEIGHT_BEGIN
1070
    46
1040
6.050000000000001
1000
ACAD_MTEXT_DEFINED_HEIGHT_END
  0
MTEXT
  5
346
330
1F
100
AcDbEntity
  8
5
  6
Continuous
 62
     4
370
     9
100
AcDbMText
 10
909.4485814020118
 20
1231.723823982405
 30
0.0
 40
6.050000000000001
 41
8.050997506112003
 46
6.050000000000001
 71
     5
 72
     1
  1
{\fＭＳ Ｐゴシック;\W0.714286;停}
 73
     1
 44
1.0
1001
ACAD
1000
ACAD_MTEXT_DEFINED_HEIGHT_BEGIN
1070
    46
1040
6.050000000000001
1000
ACAD_MTEXT_DEFINED_HEIGHT_END
  0
MTEXT
  5
347
330
1F
100
AcDbEntity
  8
5
  6
Continuous
 62
     4
370
     9
100
AcDbMText
 10
915.9485814020118
 20
1231.723823982405
 30
0.0
 40
6.050000000000001
 41
7.977360333800002
 46
6.050000000000001
 71
     5
 72
     1
  1
{\fＭＳ Ｐゴシック;\W0.714286;止}
 73
     1
 44
1.0
1001
ACAD
1000
ACAD_MTEXT_DEFINED_HEIGHT_BEGIN
1070
    46
1040
6.050000000000001
1000
ACAD_MTEXT_DEFINED_HEIGHT_END
  0
MTEXT
  5
348
330
1F
100
AcDbEntity
  8
5
  6
Continuous
 62
     4
370
     9
100
AcDbMText
 10
845.4485814020118
 20
1231.724434732399
 30
0.0
 40
6.050000000000001
 41
8.050997506112003
 46
6.050000000000001
 71
     5
 72
     1
  1
{\fＭＳ Ｐゴシック;\W0.714286;停}
 73
     1
 44
1.0
1001
ACAD
1000
ACAD_MTEXT_DEFINED_HEIGHT_BEGIN
1070
    46
1040
6.050000000000001
1000
ACAD_MTEXT_DEFINED_HEIGHT_END
  0
MTEXT
  5
349
330
1F
100
AcDbEntity
  8
5
  6
Continuous
 62
     4
370
     9
100
AcDbMText
 10
838.9485814020118
 20
1231.724434732399
 30
0.0
 40
6.050000000000001
 41
8.087816092268001
 46
6.050000000000001
 71
     5
 72
     1
  1
{\fＭＳ Ｐゴシック;\W0.714286;響}
 73
     1
 44
1.0
1001
ACAD
1000
ACAD_MTEXT_DEFINED_HEIGHT_BEGIN
1070
    46
1040
6.050000000000001
1000
ACAD_MTEXT_DEFINED_HEIGHT_END
  0
MTEXT
  5
34A
330
1F
100
AcDbEntity
  8
5
  6
Continuous
 62
     4
370
     9
100
AcDbMText
 10
832.4485814020118
 20
1231.724434732399
 30
0.0
 40
6.050000000000001
 41
7.909859592514001
 46
6.050000000000001
 71
     5
 72
     1
  1
{\fＭＳ Ｐゴシック;\W0.714286;音}
 73
     1
 44
1.0
1001
ACAD
1000
ACAD_MTEXT_DEFINED_HEIGHT_BEGIN
1070
    46
1040
6.050000000000001
1000
ACAD_MTEXT_DEFINED_HEIGHT_END
  0
MTEXT
  5
34B
330
1F
100
AcDbEntity
  8
5
  6
Continuous
 62
     4
370
     9
100
AcDbMText
 10
851.9485814020118
 20
1231.724434732399
 30
0.0
 40
6.050000000000001
 41
7.977360333800002
 46
6.050000000000001
 71
     5
 72
     1
  1
{\fＭＳ Ｐゴシック;\W0.714286;止}
 73
     1
 44
1.0
1001
ACAD
1000
ACAD_MTEXT_DEFINED_HEIGHT_BEGIN
1070
    46
1040
6.050000000000001
1000
ACAD_MTEXT_DEFINED_HEIGHT_END
  0
MTEXT
  5
34C
330
1F
100
AcDbEntity
  8
5
  6
Continuous
 62
     4
370
     9
100
AcDbMText
 10
966.9475125843819
 20
1231.723518617607
 30
0.0
 40
6.050000000000001
 41
7.946678178670001
 46
6.050000000000001
 71
     5
 72
     1
  1
{\fＭＳ Ｐゴシック;\W0.714286;括}
 73
     1
 44
1.0
1001
ACAD
1000
ACAD_MTEXT_DEFINED_HEIGHT_BEGIN
1070
    46
1040
6.050000000000001
1000
ACAD_MTEXT_DEFINED_HEIGHT_END
  0
MTEXT
  5
34D
330
1F
100
AcDbEntity
  8
5
  6
Continuous
 62
     4
370
     9
100
AcDbMText
 10
960.4475125843819
 20
1231.692979394369
 30
0.0
 40
6.050000000000001
 41
7.351444369148
 46
6.050000000000001
 71
     5
 72
     1
  1
{\fＭＳ Ｐゴシック;\W0.714286;一}
 73
     1
 44
1.0
1001
ACAD
1000
ACAD_MTEXT_DEFINED_HEIGHT_BEGIN
1070
    46
1040
6.050000000000001
1000
ACAD_MTEXT_DEFINED_HEIGHT_END
  0
MTEXT
  5
34E
330
1F
100
AcDbEntity
  8
5
  6
Continuous
 62
     4
370
     9
100
AcDbMText
 10
973.4475125843819
 20
1231.723518617607
 30
0.0
 40
6.050000000000001
 41
8.155316833554
 46
6.050000000000001
 71
     5
 72
     1
  1
{\fＭＳ Ｐゴシック;\W0.714286;試}
 73
     1
 44
1.0
1001
ACAD
1000
ACAD_MTEXT_DEFINED_HEIGHT_BEGIN
1070
    46
1040
6.050000000000001
1000
ACAD_MTEXT_DEFINED_HEIGHT_END
  0
MTEXT
  5
34F
330
1F
100
AcDbEntity
  8
5
  6
Continuous
 62
     4
370
     9
100
AcDbMText
 10
979.9475125843819
 20
1231.723518617607
 30
0.0
 40
6.050000000000001
 41
8.228954005866001
 46
6.050000000000001
 71
     5
 72
     1
  1
{\fＭＳ Ｐゴシック;\W0.714286;験}
 73
     1
 44
1.0
1001
ACAD
1000
ACAD_MTEXT_DEFINED_HEIGHT_BEGIN
1070
    46
1040
6.050000000000001
1000
ACAD_MTEXT_DEFINED_HEIGHT_END
  0
MTEXT
  5
350
330
1F
100
AcDbEntity
  8
5
  6
Continuous
 62
     4
370
     9
100
AcDbMText
 10
941.4475125843819
 20
1231.723518617607
 30
0.0
 40
6.050000000000001
 41
8.155316833554
 46
6.050000000000001
 71
     5
 72
     1
  1
{\fＭＳ Ｐゴシック;\W0.714286;試}
 73
     1
 44
1.0
1001
ACAD
1000
ACAD_MTEXT_DEFINED_HEIGHT_BEGIN
1070
    46
1040
6.050000000000001
1000
ACAD_MTEXT_DEFINED_HEIGHT_END
  0
MTEXT
  5
351
330
1F
100
AcDbEntity
  8
5
  6
Continuous
 62
     4
370
     9
100
AcDbMText
 10
934.9475125843819
 20
1231.723518617607
 30
0.0
 40
6.050000000000001
 41
7.909859592514
 46
6.050000000000001
 71
     5
 72
     1
  1
{\fＭＳ Ｐゴシック;\W0.714286;池}
 73
     1
 44
1.0
1001
ACAD
1000
ACAD_MTEXT_DEFINED_HEIGHT_BEGIN
1070
    46
1040
6.050000000000001
1000
ACAD_MTEXT_DEFINED_HEIGHT_END
  0
MTEXT
  5
352
330
1F
100
AcDbEntity
  8
5
  6
Continuous
 62
     4
370
     9
100
AcDbMText
 10
928.4475125843819
 20
1231.723518617607
 30
0.0
 40
6.050000000000001
 41
7.842358851228001
 46
6.050000000000001
 71
     5
 72
     1
  1
{\fＭＳ Ｐゴシック;\W0.714286;電}
 73
     1
 44
1.0
1001
ACAD
1000
ACAD_MTEXT_DEFINED_HEIGHT_BEGIN
1070
    46
1040
6.050000000000001
1000
ACAD_MTEXT_DEFINED_HEIGHT_END
  0
MTEXT
  5
353
330
1F
100
AcDbEntity
  8
5
  6
Continuous
 62
     4
370
     9
100
AcDbMText
 10
947.9475125843819
 20
1231.723518617607
 30
0.0
 40
6.050000000000001
 41
8.228954005866001
 46
6.050000000000001
 71
     5
 72
     1
  1
{\fＭＳ Ｐゴシック;\W0.714286;験}
 73
     1
 44
1.0
1001
ACAD
1000
ACAD_MTEXT_DEFINED_HEIGHT_BEGIN
1070
    46
1040
6.050000000000001
1000
ACAD_MTEXT_DEFINED_HEIGHT_END
  0
MTEXT
  5
354
330
1F
100
AcDbEntity
  8
5
  6
Continuous
 62
     4
370
     9
100
AcDbMText
 10
779.4485814020136
 20
1232.222549996088
 30
0.0
 40
6.050000000000001
 41
6.516889749612
 46
6.050000000000001
 71
     5
 72
     1
  1
{\fＭＳ Ｐゴシック;\W0.714286;る}
 73
     1
 44
1.0
1001
ACAD
1000
ACAD_MTEXT_DEFINED_HEIGHT_BEGIN
1070
    46
1040
6.050000000000001
1000
ACAD_MTEXT_DEFINED_HEIGHT_END
  0
MTEXT
  5
355
330
1F
100
AcDbEntity
  8
5
  6
Continuous
 62
     4
370
     9
100
AcDbMText
 10
772.9485814020136
 20
1232.222549996088
 30
0.0
 40
6.050000000000001
 41
7.836222420202001
 46
6.050000000000001
 71
     5
 72
     1
  1
{\fＭＳ Ｐゴシック;\W0.714286;戻}
 73
     1
 44
1.0
1001
ACAD
1000
ACAD_MTEXT_DEFINED_HEIGHT_BEGIN
1070
    46
1040
6.050000000000001
1000
ACAD_MTEXT_DEFINED_HEIGHT_END
  0
MTEXT
  5
356
330
1F
100
AcDbEntity
  8
5
  6
Continuous
 62
     4
370
     9
100
AcDbMText
 10
819.4485814020136
 20
1232.222549996089
 30
0.0
 40
6.050000000000001
 41
7.664402351474001
 46
6.050000000000001
 71
     5
 72
     1
  1
{\fＭＳ Ｐゴシック;\W0.714286;む}
 73
     1
 44
1.0
1001
ACAD
1000
ACAD_MTEXT_DEFINED_HEIGHT_BEGIN
1070
    46
1040
6.050000000000001
1000
ACAD_MTEXT_DEFINED_HEIGHT_END
  0
MTEXT
  5
357
330
1F
100
AcDbEntity
  8
5
  6
Continuous
 62
     4
370
     9
100
AcDbMText
 10
812.9485814020136
 20
1232.222549996089
 30
0.0
 40
6.050000000000001
 41
8.124634678424002
 46
6.050000000000001
 71
     5
 72
     1
  1
{\fＭＳ Ｐゴシック;\W0.714286;進}
 73
     1
 44
1.0
1001
ACAD
1000
ACAD_MTEXT_DEFINED_HEIGHT_BEGIN
1070
    46
1040
6.050000000000001
1000
ACAD_MTEXT_DEFINED_HEIGHT_END
  0
ARC
  5
358
330
1F
100
AcDbEntity
  8
5
  6
Continuous
 62
     4
370
    25
100
AcDbCircle
 10
832.1985814020118
 20
1200.722535574927
 30
0.0
 40
5.0
100
AcDbArc
 50
179.9999999999998
 51
269.9999999999998
  0
MTEXT
  5
359
330
1F
100
AcDbEntity
  8
5
  6
Continuous
 62
     4
370
     9
100
AcDbMText
 10
865.1985814020136
 20
1199.724277060253
 30
0.0
 40
4.4
 41
2.583995319312001
 46
4.4
 71
     5
 72
     1
  1
{\fＭＳ Ｐゴシック;\W0.714286;3}
 73
     1
 44
1.0
1001
ACAD
1000
ACAD_MTEXT_DEFINED_HEIGHT_BEGIN
1070
    46
1040
4.4
1000
ACAD_MTEXT_DEFINED_HEIGHT_END
  0
MTEXT
  5
35A
330
1F
100
AcDbEntity
  8
5
  6
Continuous
 62
     4
370
     9
100
AcDbMText
 10
869.6985814020136
 20
1199.724277060253
 30
0.0
 40
4.4
 41
5.855270913536001
 46
4.4
 71
     5
 72
     1
  1
{\fＭＳ Ｐゴシック;\W0.714286;秒}
 73
     1
 44
1.0
1001
ACAD
1000
ACAD_MTEXT_DEFINED_HEIGHT_BEGIN
1070
    46
1040
4.4
1000
ACAD_MTEXT_DEFINED_HEIGHT_END
  0
MTEXT
  5
35B
330
1F
100
AcDbEntity
  8
5
  6
Continuous
 62
     4
370
     9
100
AcDbMText
 10
874.1985814020136
 20
1199.724277060253
 30
0.0
 40
4.4
 41
5.699070851056001
 46
4.4
 71
     5
 72
     1
  1
{\fＭＳ Ｐゴシック;\W0.714286;長}
 73
     1
 44
1.0
1001
ACAD
1000
ACAD_MTEXT_DEFINED_HEIGHT_BEGIN
1070
    46
1040
4.4
1000
ACAD_MTEXT_DEFINED_HEIGHT_END
  0
MTEXT
  5
35C
330
1F
100
AcDbEntity
  8
5
  6
Continuous
 62
     4
370
     9
100
AcDbMText
 10
878.6985814020136
 20
1199.724277060253
 30
0.0
 40
4.4
 41
5.525019352864
 46
4.4
 71
     5
 72
     1
  1
{\fＭＳ Ｐゴシック;\W0.714286;押}
 73
     1
 44
1.0
1001
ACAD
1000
ACAD_MTEXT_DEFINED_HEIGHT_BEGIN
1070
    46
1040
4.4
1000
ACAD_MTEXT_DEFINED_HEIGHT_END
  0
MTEXT
  5
35D
330
1F
100
AcDbEntity
  8
5
  6
Continuous
 62
     4
370
     9
100
AcDbMText
 10
883.1985814020136
 20
1199.724277060253
 30
0.0
 40
4.4
 41
4.029961611984
 46
4.4
 71
     5
 72
     1
  1
{\fＭＳ Ｐゴシック;\W0.714286;し}
 73
     1
 44
1.0
1001
ACAD
1000
ACAD_MTEXT_DEFINED_HEIGHT_BEGIN
1070
    46
1040
4.4
1000
ACAD_MTEXT_DEFINED_HEIGHT_END
  0
MTEXT
  5
35E
330
1F
100
AcDbEntity
  8
5
  6
Continuous
 62
     4
370
     9
100
AcDbMText
 10
897.1985814020136
 20
1199.724277060253
 30
0.0
 40
4.4
 41
2.583995319312001
 46
4.4
 71
     5
 72
     1
  1
{\fＭＳ Ｐゴシック;\W0.714286;3}
 73
     1
 44
1.0
1001
ACAD
1000
ACAD_MTEXT_DEFINED_HEIGHT_BEGIN
1070
    46
1040
4.4
1000
ACAD_MTEXT_DEFINED_HEIGHT_END
  0
MTEXT
  5
35F
330
1F
100
AcDbEntity
  8
5
  6
Continuous
 62
     4
370
     9
100
AcDbMText
 10
901.6985814020136
 20
1199.724277060253
 30
0.0
 40
4.4
 41
5.855270913536001
 46
4.4
 71
     5
 72
     1
  1
{\fＭＳ Ｐゴシック;\W0.714286;秒}
 73
     1
 44
1.0
1001
ACAD
1000
ACAD_MTEXT_DEFINED_HEIGHT_BEGIN
1070
    46
1040
4.4
1000
ACAD_MTEXT_DEFINED_HEIGHT_END
  0
MTEXT
  5
360
330
1F
100
AcDbEntity
  8
5
  6
Continuous
 62
     4
370
     9
100
AcDbMText
 10
906.1985814020136
 20
1199.724277060253
 30
0.0
 40
4.4
 41
5.699070851056001
 46
4.4
 71
     5
 72
     1
  1
{\fＭＳ Ｐゴシック;\W0.714286;長}
 73
     1
 44
1.0
1001
ACAD
1000
ACAD_MTEXT_DEFINED_HEIGHT_BEGIN
1070
    46
1040
4.4
1000
ACAD_MTEXT_DEFINED_HEIGHT_END
  0
MTEXT
  5
361
330
1F
100
AcDbEntity
  8
5
  6
Continuous
 62
     4
370
     9
100
AcDbMText
 10
910.6985814020136
 20
1199.724277060253
 30
0.0
 40
4.4
 41
5.525019352864
 46
4.4
 71
     5
 72
     1
  1
{\fＭＳ Ｐゴシック;\W0.714286;押}
 73
     1
 44
1.0
1001
ACAD
1000
ACAD_MTEXT_DEFINED_HEIGHT_BEGIN
1070
    46
1040
4.4
1000
ACAD_MTEXT_DEFINED_HEIGHT_END
  0
MTEXT
  5
362
330
1F
100
AcDbEntity
  8
5
  6
Continuous
 62
     4
370
     9
100
AcDbMText
 10
915.1985814020136
 20
1199.724277060253
 30
0.0
 40
4.4
 41
4.029961611984
 46
4.4
 71
     5
 72
     1
  1
{\fＭＳ Ｐゴシック;\W0.714286;し}
 73
     1
 44
1.0
1001
ACAD
1000
ACAD_MTEXT_DEFINED_HEIGHT_BEGIN
1070
    46
1040
4.4
1000
ACAD_MTEXT_DEFINED_HEIGHT_END
  0
LINE
  5
363
330
1F
100
AcDbEntity
  8
5
  6
Continuous
 62
     4
370
    25
100
AcDbLine
 10
783.6985817629356
 20
1257.222550431489
 30
0.0
 11
783.6985817629356
 21
1268.222550431489
 31
0.0
  0
LINE
  5
364
330
1F
100
AcDbEntity
  8
5
  6
Continuous
 62
     4
370
    25
100
AcDbLine
 10
808.6985817629356
 20
1268.222550431489
 30
0.0
 11
808.6985817629356
 21
1257.222550431489
 31
0.0
  0
LINE
  5
365
330
1F
100
AcDbEntity
  8
5
  6
Continuous
 62
     4
370
    25
100
AcDbLine
 10
808.6985817629393
 20
1268.222480436487
 30
0.0
 11
808.6985817629393
 21
1257.222480436487
 31
0.0
  0
LINE
  5
366
330
1F
100
AcDbEntity
  8
5
  6
Continuous
 62
     4
370
    25
100
AcDbLine
 10
757.5735814020081
 20
1205.876878955947
 30
0.0
 11
750.8235814020081
 21
1205.876878955947
 31
0.0
  0
LINE
  5
367
330
1F
100
AcDbEntity
  8
5
  6
Continuous
 62
     4
370
    25
100
AcDbLine
 10
750.8235814020081
 20
1205.876878955947
 30
0.0
 11
747.4485814020081
 21
1211.722550431492
 31
0.0
  0
LINE
  5
368
330
1F
100
AcDbEntity
  8
5
  6
Continuous
 62
     4
370
    25
100
AcDbLine
 10
760.9485814020081
 20
1211.722550431492
 30
0.0
 11
757.5735814020081
 21
1205.876878955947
 31
0.0
  0
LINE
  5
369
330
1F
100
AcDbEntity
  8
5
  6
Continuous
 62
     4
370
    25
100
AcDbLine
 10
750.8235814020081
 20
1217.568221907036
 30
0.0
 11
757.5735814020081
 21
1217.568221907036
 31
0.0
  0
CIRCLE
  5
36A
330
1F
100
AcDbEntity
  8
5
  6
Continuous
 62
     4
370
    25
100
AcDbCircle
 10
754.1985814020081
 20
1211.722550431492
 30
0.0
 40
5.845671475544805
  0
LINE
  5
36B
330
1F
100
AcDbEntity
  8
5
  6
Continuous
 62
     4
370
    25
100
AcDbLine
 10
757.5735814020081
 20
1217.568221907036
 30
0.0
 11
760.9485814020081
 21
1211.722550431492
 31
0.0
  0
LINE
  5
36C
330
1F
100
AcDbEntity
  8
5
  6
Continuous
 62
     4
370
    25
100
AcDbLine
 10
747.4485814020081
 20
1211.722550431492
 30
0.0
 11
750.8235814020081
 21
1217.568221907036
 31
0.0
  0
CIRCLE
  5
36D
330
1F
100
AcDbEntity
  8
5
  6
Continuous
 62
     4
370
    25
100
AcDbCircle
 10
754.1985814020081
 20
1211.722550431492
 30
0.0
 40
4.899999999999977
  0
CIRCLE
  5
36E
330
1F
100
AcDbEntity
  8
5
  6
Continuous
 62
     4
370
    25
100
AcDbCircle
 10
754.1985814020081
 20
1211.722550431492
 30
0.0
 40
4.800000000000011
  0
CIRCLE
  5
36F
330
1F
100
AcDbEntity
  8
5
  6
Continuous
 62
     4
370
    25
100
AcDbCircle
 10
754.1985814020081
 20
1211.722550431492
 30
0.0
 40
2.639999999999986
  0
LINE
  5
370
330
1F
100
AcDbEntity
  8
3
  6
DASHDOT
 62
     1
370
    25
100
AcDbLine
 10
2031.805582558064
 20
1722.471617145711
 30
0.0
 11
2031.805582558061
 21
522.4716171457109
 31
0.0
  0
LINE
  5
371
330
1F
100
AcDbEntity
  8
3
  6
DASHDOT
 62
     1
370
    25
100
AcDbLine
 10
2029.305590773298
 20
900.4712674489962
 30
0.0
 11
2029.305590773298
 21
740.4712674489962
 31
0.0
  0
LINE
  5
372
330
1F
100
AcDbEntity
  8
3
  6
DASHDOT
 62
     1
370
    25
100
AcDbLine
 10
1959.305590773298
 20
820.4712674489962
 30
0.0
 11
2099.305590773298
 21
820.4712674489962
 31
0.0
  0
LINE
  5
373
330
1F
100
AcDbEntity
  8
3
  6
DASHDOT
 62
     1
370
    25
100
AcDbLine
 10
2151.805480895817
 20
849.9712286251084
 30
0.0
 11
2151.805480895817
 21
884.9712286251084
 31
0.0
  0
LINE
  5
374
330
1F
100
AcDbEntity
  8
3
  6
DASHDOT
 62
     1
370
    25
100
AcDbLine
 10
2134.305480895817
 20
867.4712286251084
 30
0.0
 11
2169.305480895817
 21
867.4712286251084
 31
0.0
  0
LINE
  5
375
330
1F
100
AcDbEntity
  8
3
  6
DASHDOT
 62
     1
370
    25
100
AcDbLine
 10
2216.805582558065
 20
1589.471617145711
 30
0.0
 11
2246.805582558065
 21
1589.471617145711
 31
0.0
  0
LINE
  5
376
330
1F
100
AcDbEntity
  8
3
  6
DASHDOT
 62
     1
370
    25
100
AcDbLine
 10
2231.805582558064
 20
1574.471617145711
 30
0.0
 11
2231.805582558064
 21
1604.471617145711
 31
0.0
  0
LINE
  5
377
330
1F
100
AcDbEntity
  8
3
  6
DASHDOT
 62
     1
370
    25
100
AcDbLine
 10
1816.805582558065
 20
1589.471617145711
 30
0.0
 11
1846.805582558064
 21
1589.471617145711
 31
0.0
  0
LINE
  5
378
330
1F
100
AcDbEntity
  8
3
  6
DASHDOT
 62
     1
370
    25
100
AcDbLine
 10
1831.805582558064
 20
1574.471617145711
 30
0.0
 11
1831.805582558064
 21
1604.471617145711
 31
0.0
  0
LINE
  5
379
330
1F
100
AcDbEntity
  8
3
  6
DASHDOT
 62
     1
370
    25
100
AcDbLine
 10
1816.805582558061
 20
612.4695514855481
 30
0.0
 11
1846.805582558061
 21
612.4695514855481
 31
0.0
  0
LINE
  5
37A
330
1F
100
AcDbEntity
  8
3
  6
DASHDOT
 62
     1
370
    25
100
AcDbLine
 10
1831.805582558061
 20
597.4695514855481
 30
0.0
 11
1831.805582558061
 21
627.4695514855481
 31
0.0
  0
LINE
  5
37B
330
1F
100
AcDbEntity
  8
3
  6
DASHDOT
 62
     1
370
    25
100
AcDbLine
 10
2216.805582558061
 20
612.4695514855481
 30
0.0
 11
2246.805582558061
 21
612.4695514855481
 31
0.0
  0
LINE
  5
37C
330
1F
100
AcDbEntity
  8
3
  6
DASHDOT
 62
     1
370
    25
100
AcDbLine
 10
2231.805582558061
 20
597.4695514855481
 30
0.0
 11
2231.805582558061
 21
627.4695514855481
 31
0.0
  0
LINE
  5
37D
330
1F
100
AcDbEntity
  8
9
  6
Continuous
 62
     7
370
    35
100
AcDbLine
 10
1781.805582558061
 20
1672.471617145711
 30
0.0
 11
1781.805582558061
 21
572.4716171457109
 31
0.0
  0
LINE
  5
37E
330
1F
100
AcDbEntity
  8
9
  6
Continuous
 62
     7
370
    35
100
AcDbLine
 10
2281.805582558061
 20
572.4716171457109
 30
0.0
 11
2281.805582558061
 21
1672.471617145711
 31
0.0
  0
LINE
  5
37F
330
1F
100
AcDbEntity
  8
9
  6
Continuous
 62
     7
370
    35
100
AcDbLine
 10
2281.805582558064
 20
1672.471617145711
 30
0.0
 11
1781.805582558065
 21
1672.471617145711
 31
0.0
  0
LINE
  5
380
330
1F
100
AcDbEntity
  8
9
  6
Continuous
 62
     7
370
    35
100
AcDbLine
 10
2281.805582558064
 20
572.4716171457109
 30
0.0
 11
1781.805582558061
 21
572.4716171457109
 31
0.0
  0
CIRCLE
  5
381
330
1F
100
AcDbEntity
  8
9
  6
Continuous
 62
     7
370
    35
100
AcDbCircle
 10
1831.805582558064
 20
1589.471617145711
 30
0.0
 40
6.0
  0
CIRCLE
  5
382
330
1F
100
AcDbEntity
  8
9
  6
Continuous
 62
     7
370
    35
100
AcDbCircle
 10
2231.805582558064
 20
1589.471617145711
 30
0.0
 40
6.0
  0
CIRCLE
  5
383
330
1F
100
AcDbEntity
  8
9
  6
Continuous
 62
     7
370
    35
100
AcDbCircle
 10
1831.805582558061
 20
612.4695514855481
 30
0.0
 40
6.0
  0
CIRCLE
  5
384
330
1F
100
AcDbEntity
  8
9
  6
Continuous
 62
     7
370
    35
100
AcDbCircle
 10
2231.805582558061
 20
612.4695514855481
 30
0.0
 40
6.0
  0
CIRCLE
  5
385
330
1F
100
AcDbEntity
  8
9
  6
Continuous
 62
     7
370
    35
100
AcDbCircle
 10
2151.805480895817
 20
867.4712286251084
 30
0.0
 40
12.5
  0
LINE
  5
386
330
1F
100
AcDbEntity
  8
9
  6
Continuous
 62
     7
370
    35
100
AcDbLine
 10
1980.305590773298
 20
830.4712674489962
 30
0.0
 11
1980.305590773298
 21
810.4712674489962
 31
0.0
  0
LINE
  5
387
330
1F
100
AcDbEntity
  8
9
  6
Continuous
 62
     7
370
    35
100
AcDbLine
 10
2078.305590773298
 20
830.4712674489962
 30
0.0
 11
2078.305590773298
 21
810.4712674489962
 31
0.0
  0
ARC
  5
388
330
1F
100
AcDbEntity
  8
9
  6
Continuous
 62
     7
370
    35
100
AcDbCircle
 10
2029.305590773298
 20
830.4712674489962
 30
0.0
 40
49.0
100
AcDbArc
 50
0.0
 51
179.9999999999998
  0
ARC
  5
389
330
1F
100
AcDbEntity
  8
9
  6
Continuous
 62
     7
370
    35
100
AcDbCircle
 10
2029.305590773298
 20
810.4712674489962
 30
0.0
 40
49.0
100
AcDbArc
 50
179.9999999999998
 51
0.0
  0
LINE
  5
38A
330
1F
100
AcDbEntity
  8
9
  6
Continuous
 62
     7
370
    35
100
AcDbLine
 10
1363.28746962168
 20
572.4716171457109
 30
0.0
 11
1363.287469621679
 21
1672.471617145711
 31
0.0
  0
LINE
  5
38B
330
1F
100
AcDbEntity
  8
9
  6
Continuous
 62
     7
370
    35
100
AcDbLine
 10
1360.28746962168
 20
1455.971617145711
 30
0.0
 11
1363.28746962168
 21
1455.971617145711
 31
0.0
  0
LINE
  5
38C
330
1F
100
AcDbEntity
  8
9
  6
Continuous
 62
     7
370
    35
100
AcDbLine
 10
1360.28746962168
 20
1488.971617145711
 30
0.0
 11
1363.28746962168
 21
1488.971617145711
 31
0.0
  0
LINE
  5
38D
330
1F
100
AcDbEntity
  8
9
  6
Continuous
 62
     7
370
    35
100
AcDbLine
 10
1360.28746962168
 20
755.971617145709
 30
0.0
 11
1363.28746962168
 21
755.971617145709
 31
0.0
  0
LINE
  5
38E
330
1F
100
AcDbEntity
  8
9
  6
Continuous
 62
     7
370
    35
100
AcDbLine
 10
1360.28746962168
 20
788.971617145709
 30
0.0
 11
1363.28746962168
 21
788.971617145709
 31
0.0
  0
LINE
  5
38F
330
1F
100
AcDbEntity
  8
9
  6
Continuous
 62
     7
370
    35
100
AcDbLine
 10
1363.287469621679
 20
1672.471617145711
 30
0.0
 11
1498.287469621679
 21
1672.471617145711
 31
0.0
  0
LINE
  5
390
330
1F
100
AcDbEntity
  8
9
  6
Continuous
 62
     7
370
    35
100
AcDbLine
 10
1363.28746962168
 20
572.4716171457109
 30
0.0
 11
1498.28746962168
 21
572.4716171457109
 31
0.0
  0
LINE
  5
391
330
1F
100
AcDbEntity
  8
9
  6
Continuous
 62
     7
370
    35
100
AcDbLine
 10
1498.287469621679
 20
1672.471617145711
 30
0.0
 11
1498.28746962168
 21
572.4716171457109
 31
0.0
  0
LINE
  5
392
330
1F
100
AcDbEntity
  8
9
  6
Continuous
 62
     7
370
    35
100
AcDbLine
 10
1338.28746962168
 20
1669.471617145711
 30
0.0
 11
1338.28746962168
 21
575.4716171457109
 31
0.0
  0
LINE
  5
393
330
1F
100
AcDbEntity
  8
9
  6
Continuous
 62
     7
370
    35
100
AcDbLine
 10
1338.28746962168
 20
1669.471617145711
 30
0.0
 11
1360.28746962168
 21
1669.471617145711
 31
0.0
  0
LINE
  5
394
330
1F
100
AcDbEntity
  8
9
  6
Continuous
 62
     7
370
    35
100
AcDbLine
 10
1338.28746962168
 20
575.4716171457109
 30
0.0
 11
1360.28746962168
 21
575.4716171457109
 31
0.0
  0
LINE
  5
395
330
1F
100
AcDbEntity
  8
9
  6
Continuous
 62
     7
370
    35
100
AcDbLine
 10
1360.28746962168
 20
1669.471617145711
 30
0.0
 11
1360.28746962168
 21
575.4716171457109
 31
0.0
  0
LINE
  5
396
330
1F
100
AcDbEntity
  8
9
  6
Continuous
 62
     7
370
    35
100
AcDbLine
 10
1334.28746962168
 20
1128.471613885611
 30
0.0
 11
1334.28746962168
 21
1116.471620405811
 31
0.0
  0
LINE
  5
397
330
1F
100
AcDbEntity
  8
9
  6
Continuous
 62
     7
370
    35
100
AcDbLine
 10
1334.28746962168
 20
1128.471613885611
 30
0.0
 11
1338.28746962168
 21
1131.471613885611
 31
0.0
  0
LINE
  5
398
330
1F
100
AcDbEntity
  8
9
  6
Continuous
 62
     7
370
    35
100
AcDbLine
 10
1334.28746962168
 20
1116.471620405811
 30
0.0
 11
1338.28746962168
 21
1113.471620405811
 31
0.0
  0
LINE
  5
399
330
1F
100
AcDbEntity
  8
11
  6
HIDDEN
 62
     2
370
    25
100
AcDbLine
 10
1481.287469621679
 20
1672.471617145711
 30
0.0
 11
1481.287469621679
 21
572.4716171457109
 31
0.0
  0
LINE
  5
39A
330
1F
100
AcDbEntity
  8
11
  6
HIDDEN
 62
     2
370
    25
100
AcDbLine
 10
1494.687469621684
 20
1609.276617145707
 30
0.0
 11
1494.687469621684
 21
1569.271617145712
 31
0.0
  0
LINE
  5
39B
330
1F
100
AcDbEntity
  8
11
  6
HIDDEN
 62
     2
370
    25
100
AcDbLine
 10
1497.887469621681
 20
1612.477246312377
 30
0.0
 11
1497.887469621681
 21
1569.271617145712
 31
0.0
  0
LINE
  5
39C
330
1F
100
AcDbEntity
  8
11
  6
HIDDEN
 62
     2
370
    25
100
AcDbLine
 10
1494.687469621684
 20
1609.276617145707
 30
0.0
 11
1481.287469621679
 21
1609.276617145709
 31
0.0
  0
LINE
  5
39D
330
1F
100
AcDbEntity
  8
11
  6
HIDDEN
 62
     2
370
    25
100
AcDbLine
 10
1486.087469621672
 20
1612.477246312377
 30
0.0
 11
1497.887469621681
 21
1612.477246312377
 31
0.0
  0
LINE
  5
39E
330
1F
100
AcDbEntity
  8
11
  6
HIDDEN
 62
     2
370
    25
100
AcDbLine
 10
1486.08746962168
 20
1669.271617145712
 30
0.0
 11
1486.087469621677
 21
1612.477246312377
 31
0.0
  0
LINE
  5
39F
330
1F
100
AcDbEntity
  8
11
  6
HIDDEN
 62
     2
370
    25
100
AcDbLine
 10
1494.687469621684
 20
1569.271617145712
 30
0.0
 11
1497.887469621681
 21
1569.271617145712
 31
0.0
  0
LINE
  5
3A0
330
1F
100
AcDbEntity
  8
11
  6
HIDDEN
 62
     2
370
    25
100
AcDbLine
 10
1481.287469621679
 20
627.4695514855517
 30
0.0
 11
1497.887469621681
 21
627.4695514855517
 31
0.0
  0
LINE
  5
3A1
330
1F
100
AcDbEntity
  8
11
  6
HIDDEN
 62
     2
370
    25
100
AcDbLine
 10
1497.887469621681
 20
627.4695514855517
 30
0.0
 11
1497.887469621681
 21
625.8695514855514
 31
0.0
  0
LINE
  5
3A2
330
1F
100
AcDbEntity
  8
11
  6
HIDDEN
 62
     2
370
    25
100
AcDbLine
 10
1481.287469621679
 20
597.4695514855517
 30
0.0
 11
1497.887469621681
 21
597.4695514855517
 31
0.0
  0
LINE
  5
3A3
330
1F
100
AcDbEntity
  8
11
  6
HIDDEN
 62
     2
370
    25
100
AcDbLine
 10
1497.887469621681
 20
597.4695514855517
 30
0.0
 11
1497.887469621681
 21
599.0695514855521
 31
0.0
  0
LINE
  5
3A4
330
1F
100
AcDbEntity
  8
11
  6
HIDDEN
 62
     2
370
    25
100
AcDbLine
 10
1484.487469621679
 20
625.8695514855514
 30
0.0
 11
1497.887469621681
 21
625.8695514855514
 31
0.0
  0
LINE
  5
3A5
330
1F
100
AcDbEntity
  8
11
  6
HIDDEN
 62
     2
370
    25
100
AcDbLine
 10
1484.487469621679
 20
599.0695514855521
 30
0.0
 11
1497.887469621681
 21
599.0695514855521
 31
0.0
  0
LINE
  5
3A6
330
1F
100
AcDbEntity
  8
11
  6
HIDDEN
 62
     2
370
    25
100
AcDbLine
 10
1484.487469621679
 20
625.8695514855514
 30
0.0
 11
1484.487469621679
 21
599.0695514855521
 31
0.0
  0
LINE
  5
3A7
330
1F
100
AcDbEntity
  8
11
  6
HIDDEN
 62
     2
370
    25
100
AcDbLine
 10
1481.287469621677
 20
1669.27161714571
 30
0.0
 11
1486.087469621675
 21
1669.271617145712
 31
0.0
  0
LINE
  5
3A8
330
1F
100
AcDbEntity
  8
3
  6
DASHDOT
 62
     1
370
    25
100
AcDbLine
 10
1472.26989982859
 20
1632.471617145713
 30
0.0
 11
1496.810862328592
 21
1632.471617145713
 31
0.0
  0
LINE
  5
3A9
330
1F
100
AcDbEntity
  8
3
  6
DASHDOT
 62
     1
370
    25
100
AcDbLine
 10
1485.544423544331
 20
1589.471617145691
 30
0.0
 11
1515.639787547715
 21
1589.471617145691
 31
0.0
  0
LINE
  5
3AA
330
1F
100
AcDbEntity
  8
3
  6
DASHDOT
 62
     1
370
    25
100
AcDbLine
 10
1475.344423544329
 20
612.4695514855517
 30
0.0
 11
1515.639787547718
 21
612.4695514855517
 31
0.0
  0
DIMENSION
  5
3B5
330
1F
100
AcDbEntity
  8
6
  6
Continuous
 62
     3
370
     9
100
AcDbDimension
280
     0
  2
Dim1
 10
1498.28746962168
 20
471.8617245402296
 30
0.0
 11
1416.552293240467
 21
491.4617245402296
 31
0.0
 70
   160
  1
<>
 71
     5
 42
-1.0
 73
     0
 74
     0
 75
     0
  3
Standard
100
AcDbAlignedDimension
 13
1338.28746962168
 23
575.4716171457109
 33
0.0
 14
1498.28746962168
 24
572.4716171457109
 34
0.0
100
AcDbRotatedDimension
1001
ACAD
1000
DSTYLE
1002
{
1070
   279
1070
     2
1070
   340
1005
3AB
1070
   140
1040
26.4
1070
    40
1040
1.0
1070
   147
1040
0.0
1070
    76
1070
     0
1070
    75
1070
     0
1070
   344
1005
7C
1070
   343
1005
7C
1070
   173
1070
     1
1070
   289
1070
     2
1070
   288
1070
     1
1070
    77
1070
     1
1070
   172
1070
     1
1070
   174
1070
     0
1070
    74
1070
     0
1070
    73
1070
     0
1070
   284
1070
     8
1070
    78
1070
     8
1070
    42
1040
8.0
1070
    44
1040
8.0
1070
    43
1040
10.0
1070
   271
1070
     1
1070
    41
1040
18.4
1002
}
  0
DIMENSION
  5
3BF
330
1F
100
AcDbEntity
  8
6
  6
Continuous
 62
     3
370
     9
100
AcDbDimension
280
     0
  2
Dim2
 10
1363.287469621679
 20
529.512070373806
 30
0.0
 11
1307.314434417962
 21
547.4743408036925
 31
0.0
 70
   160
  1
<>
 71
     5
 42
-1.0
 73
     0
 74
     0
 75
     0
  3
Standard
100
AcDbAlignedDimension
 13
1338.28746962168
 23
575.4716171457109
 33
0.0
 14
1363.28746962168
 24
572.4716171457109
 34
0.0
100
AcDbRotatedDimension
1001
ACAD
1000
DSTYLE
1002
{
1070
   279
1070
     2
1070
   340
1005
3AB
1070
   140
1040
26.4
1070
    40
1040
1.0
1070
   147
1040
0.0
1070
    76
1070
     0
1070
    75
1070
     0
1070
   344
1005
7C
1070
   343
1005
7C
1070
   173
1070
     1
1070
   289
1070
     2
1070
   288
1070
     1
1070
    77
1070
     1
1070
   172
1070
     1
1070
   174
1070
     0
1070
    74
1070
     0
1070
    73
1070
     0
1070
   284
1070
     8
1070
    78
1070
     8
1070
    42
1040
8.0
1070
    44
1040
8.0
1070
    43
1040
10.0
1070
   271
1070
     1
1070
    41
1040
18.4
1002
}
  0
DIMENSION
  5
3C9
330
1F
100
AcDbEntity
  8
6
  6
Continuous
 62
     3
370
     9
100
AcDbDimension
280
     0
  2
Dim3
 10
1142.198547406273
 20
471.8617245402296
 30
0.0
 11
895.9909284577407
 21
491.4617245402296
 31
0.0
 70
   160
  1
<>
 71
     5
 42
-1.0
 73
     0
 74
     0
 75
     0
  3
Standard
100
AcDbAlignedDimension
 13
642.1985474062731
 23
572.4716171457109
 33
0.0
 14
1142.198547406273
 24
572.4716171457109
 34
0.0
100
AcDbRotatedDimension
1001
ACAD
1000
DSTYLE
1002
{
1070
   279
1070
     2
1070
   340
1005
3AB
1070
   140
1040
26.4
1070
    40
1040
1.0
1070
   147
1040
0.0
1070
    76
1070
     0
1070
    75
1070
     0
1070
   344
1005
7C
1070
   343
1005
7C
1070
   173
1070
     1
1070
   289
1070
     2
1070
   288
1070
     1
1070
    77
1070
     1
1070
   172
1070
     1
1070
   174
1070
     0
1070
    74
1070
     0
1070
    73
1070
     0
1070
   284
1070
     8
1070
    78
1070
     8
1070
    42
1040
8.0
1070
    44
1040
8.0
1070
    43
1040
10.0
1070
   271
1070
     1
1070
    41
1040
18.4
1002
}
  0
DIMENSION
  5
3D3
330
1F
100
AcDbEntity
  8
6
  6
Continuous
 62
     3
370
     9
100
AcDbDimension
280
     0
  2
Dim4
 10
2151.805480895815
 20
471.8617245402296
 30
0.0
 11
2090.93766613663
 21
491.4617245402296
 31
0.0
 70
   160
  1
<>
 71
     5
 42
-1.0
 73
     0
 74
     0
 75
     0
  3
Standard
100
AcDbAlignedDimension
 13
2031.805582558061
 23
522.4716171457109
 33
0.0
 14
2151.805480895817
 24
849.9712286251084
 34
0.0
100
AcDbRotatedDimension
1001
ACAD
1000
DSTYLE
1002
{
1070
   279
1070
     2
1070
   340
1005
3AB
1070
   140
1040
26.4
1070
    40
1040
1.0
1070
   147
1040
0.0
1070
    76
1070
     0
1070
    75
1070
     0
1070
   344
1005
7C
1070
   343
1005
7C
1070
   173
1070
     1
1070
   289
1070
     2
1070
   288
1070
     1
1070
    77
1070
     1
1070
   172
1070
     1
1070
   174
1070
     0
1070
    74
1070
     0
1070
    73
1070
     0
1070
   284
1070
     8
1070
    78
1070
     8
1070
    42
1040
8.0
1070
    44
1040
8.0
1070
    43
1040
10.0
1070
   271
1070
     1
1070
    41
1040
18.4
1002
}
  0
INSERT
  5
3D4
330
1F
100
AcDbEntity
  8
6
  6
Continuous
 62
     3
370
     9
100
AcDbBlockReference
  2
_OPEN
 10
1829.266770515153
 20
607.0331525477676
 30
0.0
 41
18.4
 42
18.4
 43
18.4
 50
64.97565012792158
  0
POLYLINE
  5
3D5
330
1F
100
AcDbEntity
  8
6
  6
Continuous
 62
     3
370
     9
100
AcDb2dPolyline
 66
     1
 10
0.0
 20
0.0
 30
0.0
  0
VERTEX
  5
3D6
330
3D5
100
AcDbEntity
  8
6
  6
Continuous
 62
     3
370
     9
100
AcDbVertex
100
AcDb2dVertex
 10
1829.266770515153
 20
607.0331525477676
 30
0.0
  0
VERTEX
  5
3D7
330
3D5
100
AcDbEntity
  8
6
  6
Continuous
 62
     3
370
     9
100
AcDbVertex
100
AcDb2dVertex
 10
1778.894948624064
 20
499.1301802677364
 30
0.0
  0
VERTEX
  5
3D8
330
3D5
100
AcDbEntity
  8
6
  6
Continuous
 62
     3
370
     9
100
AcDbVertex
100
AcDb2dVertex
 10
1633.628586722311
 20
499.1301802677364
 30
0.0
  0
SEQEND
  5
3D9
330
3D5
100
AcDbEntity
  8
6
  6
Continuous
 62
     3
370
     9
  0
MTEXT
  5
3DA
330
1F
100
AcDbEntity
  8
6
  6
Continuous
 62
     3
370
     9
100
AcDbMText
 10
1745.861767673188
 20
503.1301802677364
 30
0.0
 40
26.4
 41
112.838925135552
 46
26.4
 71
     9
 72
     1
  1
{\fＭＳ Ｐゴシック;\W0.714286;2-φ12}
 73
     1
 44
1.0
1001
ACAD
1000
ACAD_MTEXT_DEFINED_HEIGHT_BEGIN
1070
    46
1040
26.4
1000
ACAD_MTEXT_DEFINED_HEIGHT_END
  0
MTEXT
  5
3DB
330
1F
100
AcDbEntity
  8
6
  6
Continuous
 62
     3
370
     9
100
AcDbMText
 10
1772.261767673188
 20
495.1301802677364
 30
0.0
 40
26.4
 41
190.706887711296
 46
26.4
 71
     3
 72
     1
  1
{\fＭＳ Ｐゴシック;\W0.714286;本体固定孔}
 73
     1
 44
1.0
1001
ACAD
1000
ACAD_MTEXT_DEFINED_HEIGHT_BEGIN
1070
    46
1040
26.4
1000
ACAD_MTEXT_DEFINED_HEIGHT_END
  0
DIMENSION
  5
3E5
330
1F
100
AcDbEntity
  8
6
  6
Continuous
 62
     3
370
     9
100
AcDbDimension
280
     0
  2
Dim5
 10
2338.903628283178
 20
867.4712286251084
 30
0.0
 11
2319.303628283179
 21
1266.823928716388
 31
0.0
 70
   160
  1
<>
 71
     5
 42
-1.0
 73
     0
 74
     0
 75
     0
 53
89.99999999999991
  3
Standard
100
AcDbAlignedDimension
 13
2281.805582558061
 23
1672.471617145711
 33
0.0
 14
2169.305480895817
 24
867.4712286251084
 34
0.0
 50
-89.99999999999991
100
AcDbRotatedDimension
1001
ACAD
1000
DSTYLE
1002
{
1070
   279
1070
     2
1070
   340
1005
3AB
1070
   140
1040
26.4
1070
    40
1040
1.0
1070
   147
1040
0.0
1070
    76
1070
     0
1070
    75
1070
     0
1070
   344
1005
7C
1070
   343
1005
7C
1070
   173
1070
     1
1070
   289
1070
     2
1070
   288
1070
     1
1070
    77
1070
     1
1070
   172
1070
     1
1070
   174
1070
     0
1070
    74
1070
     0
1070
    73
1070
     0
1070
   284
1070
     8
1070
    78
1070
     8
1070
    42
1040
8.0
1070
    44
1040
8.0
1070
    43
1040
10.0
1070
   271
1070
     1
1070
    41
1040
18.4
1002
}
  0
DIMENSION
  5
3EF
330
1F
100
AcDbEntity
  8
6
  6
Continuous
 62
     3
370
     9
100
AcDbDimension
280
     0
  2
Dim6
 10
2231.805582558064
 20
1743.07787643023
 30
0.0
 11
2030.112986766501
 21
1762.677876430231
 31
0.0
 70
   160
  1
<>
 71
     5
 42
-1.0
 73
     0
 74
     0
 75
     0
  3
Standard
100
AcDbAlignedDimension
 13
1831.805582558064
 23
1604.471617145711
 33
0.0
 14
2231.805582558064
 24
1604.471617145711
 34
0.0
100
AcDbRotatedDimension
1001
ACAD
1000
DSTYLE
1002
{
1070
   279
1070
     2
1070
   340
1005
3AB
1070
   140
1040
26.4
1070
    40
1040
1.0
1070
   147
1040
0.0
1070
    76
1070
     0
1070
    75
1070
     0
1070
   344
1005
7C
1070
   343
1005
7C
1070
   173
1070
     1
1070
   289
1070
     2
1070
   288
1070
     1
1070
    77
1070
     1
1070
   172
1070
     1
1070
   174
1070
     0
1070
    74
1070
     0
1070
    73
1070
     0
1070
   284
1070
     8
1070
    78
1070
     8
1070
    42
1040
8.0
1070
    44
1040
8.0
1070
    43
1040
10.0
1070
   271
1070
     1
1070
    41
1040
18.4
1002
}
  0
DIMENSION
  5
3F9
330
1F
100
AcDbEntity
  8
6
  6
Continuous
 62
     3
370
     9
100
AcDbDimension
280
     0
  2
Dim7
 10
1557.024372701443
 20
1589.471617145691
 30
0.0
 11
1537.424372701443
 21
1627.936725188891
 31
0.0
 70
   160
  1
<>
 71
     5
 42
-1.0
 73
     0
 74
     0
 75
     0
 53
89.99999999999991
  3
Standard
100
AcDbAlignedDimension
 13
1498.287469621679
 23
1672.471617145711
 33
0.0
 14
1515.639787547715
 24
1589.471617145691
 34
0.0
 50
-89.99999999999991
100
AcDbRotatedDimension
1001
ACAD
1000
DSTYLE
1002
{
1070
   279
1070
     2
1070
   340
1005
3AB
1070
   140
1040
26.4
1070
    40
1040
1.0
1070
   147
1040
0.0
1070
    76
1070
     0
1070
    75
1070
     0
1070
   344
1005
7C
1070
   343
1005
7C
1070
   173
1070
     1
1070
   289
1070
     2
1070
   288
1070
     1
1070
    77
1070
     1
1070
   172
1070
     1
1070
   174
1070
     0
1070
    74
1070
     0
1070
    73
1070
     0
1070
   284
1070
     8
1070
    78
1070
     8
1070
    42
1040
8.0
1070
    44
1040
8.0
1070
    43
1040
10.0
1070
   271
1070
     1
1070
    41
1040
18.4
1002
}
  0
DIMENSION
  5
403
330
1F
100
AcDbEntity
  8
6
  6
Continuous
 62
     3
370
     9
100
AcDbDimension
280
     0
  2
Dim8
 10
1557.024372701444
 20
612.4695514855517
 30
0.0
 11
1537.424372701443
 21
1113.327880731239
 31
0.0
 70
   160
  1
<>
 71
     5
 42
-1.0
 73
     0
 74
     0
 75
     0
 53
89.99999999999987
  3
Standard
100
AcDbAlignedDimension
 13
1515.639787547715
 23
1589.471617145691
 33
0.0
 14
1515.639787547715
 24
612.4695514855517
 34
0.0
 50
-89.99999999999994
100
AcDbRotatedDimension
1001
ACAD
1000
DSTYLE
1002
{
1070
   279
1070
     2
1070
   340
1005
3AB
1070
   140
1040
26.4
1070
    40
1040
1.0
1070
   147
1040
0.0
1070
    76
1070
     0
1070
    75
1070
     0
1070
   344
1005
7C
1070
   343
1005
7C
1070
   173
1070
     1
1070
   289
1070
     2
1070
   288
1070
     1
1070
    77
1070
     1
1070
   172
1070
     1
1070
   174
1070
     0
1070
    74
1070
     0
1070
    73
1070
     0
1070
   284
1070
     8
1070
    78
1070
     8
1070
    42
1040
8.0
1070
    44
1040
8.0
1070
    43
1040
10.0
1070
   271
1070
     1
1070
    41
1040
18.4
1002
}
  0
INSERT
  5
404
330
1F
100
AcDbEntity
  8
6
  6
Continuous
 62
     3
370
     9
100
AcDbBlockReference
  2
_OPEN
 10
2015.200828633913
 20
763.5452012917806
 30
0.0
 41
18.4
 42
18.4
 43
18.4
 50
76.08389236762318
  0
POLYLINE
  5
405
330
1F
100
AcDbEntity
  8
6
  6
Continuous
 62
     3
370
     9
100
AcDb2dPolyline
 66
     1
 10
0.0
 20
0.0
 30
0.0
  0
VERTEX
  5
406
330
405
100
AcDbEntity
  8
6
  6
Continuous
 62
     3
370
     9
100
AcDbVertex
100
AcDb2dVertex
 10
2015.200828633913
 20
763.5452012917806
 30
0.0
  0
VERTEX
  5
407
330
405
100
AcDbEntity
  8
6
  6
Continuous
 62
     3
370
     9
100
AcDbVertex
100
AcDb2dVertex
 10
1949.685833036801
 20
499.1301802677364
 30
0.0
  0
VERTEX
  5
408
330
405
100
AcDbEntity
  8
6
  6
Continuous
 62
     3
370
     9
100
AcDbVertex
100
AcDb2dVertex
 10
1835.198613422821
 20
499.1301802677364
 30
0.0
  0
SEQEND
  5
409
330
405
100
AcDbEntity
  8
6
  6
Continuous
 62
     3
370
     9
  0
MTEXT
  5
40A
330
1F
100
AcDbEntity
  8
6
  6
Continuous
 62
     3
370
     9
100
AcDbMText
 10
1938.642223229811
 20
503.1301802677364
 30
0.0
 40
26.4
 41
132.305915779488
 46
26.4
 71
     9
 72
     1
  1
{\fＭＳ Ｐゴシック;\W0.714286;98×118}
 73
     1
 44
1.0
1001
ACAD
1000
ACAD_MTEXT_DEFINED_HEIGHT_BEGIN
1070
    46
1040
26.4
1000
ACAD_MTEXT_DEFINED_HEIGHT_END
  0
MTEXT
  5
40B
330
1F
100
AcDbEntity
  8
6
  6
Continuous
 62
     3
370
     9
100
AcDbMText
 10
1932.042223229811
 20
495.1301802677364
 30
0.0
 40
26.4
 41
112.678262214144
 46
26.4
 71
     3
 72
     1
  1
{\fＭＳ Ｐゴシック;\W0.714286;配線孔}
 73
     1
 44
1.0
1001
ACAD
1000
ACAD_MTEXT_DEFINED_HEIGHT_BEGIN
1070
    46
1040
26.4
1000
ACAD_MTEXT_DEFINED_HEIGHT_END
  0
INSERT
  5
40C
330
1F
100
AcDbEntity
  8
6
  6
Continuous
 62
     3
370
     9
100
AcDbBlockReference
  2
_OPEN
 10
1829.826902398799
 20
1595.214514492897
 30
0.0
 41
18.4
 42
18.4
 43
18.4
 50
289.0110772561827
  0
POLYLINE
  5
40D
330
1F
100
AcDbEntity
  8
6
  6
Continuous
 62
     3
370
     9
100
AcDb2dPolyline
 66
     1
 10
0.0
 20
0.0
 30
0.0
  0
VERTEX
  5
40E
330
40D
100
AcDbEntity
  8
6
  6
Continuous
 62
     3
370
     9
100
AcDbVertex
100
AcDb2dVertex
 10
1829.826902398799
 20
1595.214514492897
 30
0.0
  0
VERTEX
  5
40F
330
40D
100
AcDbEntity
  8
6
  6
Continuous
 62
     3
370
     9
100
AcDbVertex
100
AcDb2dVertex
 10
1780.879811160053
 20
1737.277959719938
 30
0.0
  0
VERTEX
  5
410
330
40D
100
AcDbEntity
  8
6
  6
Continuous
 62
     3
370
     9
100
AcDbVertex
100
AcDb2dVertex
 10
1579.53256720248
 20
1737.277959719938
 30
0.0
  0
SEQEND
  5
411
330
40D
100
AcDbEntity
  8
6
  6
Continuous
 62
     3
370
     9
  0
MTEXT
  5
412
330
1F
100
AcDbEntity
  8
6
  6
Continuous
 62
     3
370
     9
100
AcDbMText
 10
1719.806189181266
 20
1741.277959719938
 30
0.0
 40
26.4
 41
112.838925135552
 46
26.4
 71
     9
 72
     1
  1
{\fＭＳ Ｐゴシック;\W0.714286;2-φ12}
 73
     1
 44
1.0
1001
ACAD
1000
ACAD_MTEXT_DEFINED_HEIGHT_BEGIN
1070
    46
1040
26.4
1000
ACAD_MTEXT_DEFINED_HEIGHT_END
  0
MTEXT
  5
413
330
1F
100
AcDbEntity
  8
6
  6
Continuous
 62
     3
370
     9
100
AcDbMText
 10
1769.253389181266
 20
1733.277959719938
 30
0.0
 40
26.4
 41
258.506640545472
 46
26.4
 71
     3
 72
     1
  1
{\fＭＳ Ｐゴシック;\W0.714286;ハンガー取付孔}
 73
     1
 44
1.0
1001
ACAD
1000
ACAD_MTEXT_DEFINED_HEIGHT_BEGIN
1070
    46
1040
26.4
1000
ACAD_MTEXT_DEFINED_HEIGHT_END
  0
DIMENSION
  5
41D
330
1F
100
AcDbEntity
  8
6
  6
Continuous
 62
     3
370
     9
100
AcDbDimension
280
     0
  2
Dim9
 10
1498.28746962168
 20
529.512070373806
 30
0.0
 11
1532.324707058826
 21
549.112070373806
 31
0.0
 70
   160
  1
<>
 71
     5
 42
-1.0
 73
     0
 74
     0
 75
     0
  3
Standard
100
AcDbAlignedDimension
 13
1481.287469621679
 23
572.4716171457109
 33
0.0
 14
1498.28746962168
 24
572.4716171457109
 34
0.0
100
AcDbRotatedDimension
1001
ACAD
1000
DSTYLE
1002
{
1070
   279
1070
     2
1070
   340
1005
3AB
1070
   140
1040
26.4
1070
    40
1040
1.0
1070
   147
1040
0.0
1070
    76
1070
     0
1070
    75
1070
     0
1070
   344
1005
7C
1070
   343
1005
7C
1070
   173
1070
     1
1070
   289
1070
     2
1070
   288
1070
     1
1070
    77
1070
     1
1070
   172
1070
     1
1070
   174
1070
     0
1070
    74
1070
     0
1070
    73
1070
     0
1070
   284
1070
     8
1070
    78
1070
     8
1070
    42
1040
8.0
1070
    44
1040
8.0
1070
    43
1040
10.0
1070
   271
1070
     1
1070
    41
1040
18.4
1002
}
  0
INSERT
  5
41E
330
1F
100
AcDbEntity
  8
6
  6
Continuous
 62
     3
370
     9
100
AcDbBlockReference
  2
_OPEN
 10
2158.248165163502
 20
856.7594678255517
 30
0.0
 41
18.4
 42
18.4
 43
18.4
 50
120.2806054545172
  0
POLYLINE
  5
41F
330
1F
100
AcDbEntity
  8
6
  6
Continuous
 62
     3
370
     9
100
AcDb2dPolyline
 66
     1
 10
0.0
 20
0.0
 30
0.0
  0
VERTEX
  5
420
330
41F
100
AcDbEntity
  8
6
  6
Continuous
 62
     3
370
     9
100
AcDbVertex
100
AcDb2dVertex
 10
2158.248165163502
 20
856.7594678255517
 30
0.0
  0
VERTEX
  5
421
330
41F
100
AcDbEntity
  8
6
  6
Continuous
 62
     3
370
     9
100
AcDbVertex
100
AcDb2dVertex
 10
2307.024790524837
 20
601.9608291168158
 30
0.0
  0
VERTEX
  5
422
330
41F
100
AcDbEntity
  8
6
  6
Continuous
 62
     3
370
     9
100
AcDbVertex
100
AcDb2dVertex
 10
2452.640577116735
 20
601.9608291168158
 30
0.0
  0
SEQEND
  5
423
330
41F
100
AcDbEntity
  8
6
  6
Continuous
 62
     3
370
     9
  0
MTEXT
  5
424
330
1F
100
AcDbEntity
  8
6
  6
Continuous
 62
     3
370
     9
100
AcDbMText
 10
2353.432683820786
 20
605.9608291168158
 30
0.0
 40
26.4
 41
68.603067441216
 46
26.4
 71
     7
 72
     1
  1
{\fＭＳ Ｐゴシック;\W0.714286;φ20}
 73
     1
 44
1.0
1001
ACAD
1000
ACAD_MTEXT_DEFINED_HEIGHT_BEGIN
1070
    46
1040
26.4
1000
ACAD_MTEXT_DEFINED_HEIGHT_END
  0
MTEXT
  5
425
330
1F
100
AcDbEntity
  8
6
  6
Continuous
 62
     3
370
     9
100
AcDbMText
 10
2313.832683820786
 20
597.9608291168158
 30
0.0
 40
26.4
 41
189.475138647168
 46
26.4
 71
     1
 72
     1
  1
{\fＭＳ Ｐゴシック;\W0.714286;電線配線孔}
 73
     1
 44
1.0
1001
ACAD
1000
ACAD_MTEXT_DEFINED_HEIGHT_BEGIN
1070
    46
1040
26.4
1000
ACAD_MTEXT_DEFINED_HEIGHT_END
  0
DIMENSION
  5
42F
330
1F
100
AcDbEntity
  8
6
  6
Continuous
 62
     3
370
     9
100
AcDbDimension
280
     0
  2
Dim10
 10
1718.47955443812
 20
820.4712674489967
 30
0.0
 11
1698.879554438121
 21
1264.821794745531
 31
0.0
 70
   160
  1
<>
 71
     5
 42
-1.0
 73
     0
 74
     0
 75
     0
 53
89.99999999999991
  3
Standard
100
AcDbAlignedDimension
 13
1781.805582558065
 23
1672.471617145711
 33
0.0
 14
1959.305590773298
 24
820.4712674489962
 34
0.0
 50
-89.99999999999991
100
AcDbRotatedDimension
1001
ACAD
1000
DSTYLE
1002
{
1070
   279
1070
     2
1070
   340
1005
3AB
1070
   140
1040
26.4
1070
    40
1040
1.0
1070
   147
1040
0.0
1070
    76
1070
     0
1070
    75
1070
     0
1070
   344
1005
7C
1070
   343
1005
7C
1070
   173
1070
     1
1070
   289
1070
     2
1070
   288
1070
     1
1070
    77
1070
     1
1070
   172
1070
     1
1070
   174
1070
     0
1070
    74
1070
     0
1070
    73
1070
     0
1070
   284
1070
     8
1070
    78
1070
     8
1070
    42
1040
8.0
1070
    44
1040
8.0
1070
    43
1040
10.0
1070
   271
1070
     1
1070
    41
1040
18.4
1002
}
  0
DIMENSION
  5
439
330
1F
100
AcDbEntity
  8
6
  6
Continuous
 62
     3
370
     9
100
AcDbDimension
280
     0
  2
Dim11
 10
1210.931756889497
 20
1672.471617145711
 30
0.0
 11
1191.331756889497
 21
1111.936785556617
 31
0.0
 70
   160
  1
<>
 71
     5
 42
-1.0
 73
     0
 74
     0
 75
     0
  3
Standard
100
AcDbAlignedDimension
 13
1142.198547406273
 23
572.4716171457109
 33
0.0
 14
1142.198547406273
 24
1672.471617145711
 34
0.0
 50
89.99999999999991
100
AcDbRotatedDimension
1001
ACAD
1000
DSTYLE
1002
{
1070
   279
1070
     2
1070
   340
1005
3AB
1070
   140
1040
26.4
1070
    40
1040
1.0
1070
   147
1040
0.0
1070
    76
1070
     0
1070
    75
1070
     0
1070
   344
1005
7C
1070
   343
1005
7C
1070
   173
1070
     1
1070
   289
1070
     2
1070
   288
1070
     1
1070
    77
1070
     1
1070
   172
1070
     1
1070
   174
1070
     0
1070
    74
1070
     0
1070
    73
1070
     0
1070
   284
1070
     8
1070
    78
1070
     8
1070
    42
1040
8.0
1070
    44
1040
8.0
1070
    43
1040
10.0
1070
   271
1070
     1
1070
    41
1040
18.4
1002
}
  0
VIEWPORT
  5
6A
330
1B
100
AcDbEntity
 67
     1
  8
0
100
AcDbViewport
 10
1680.0
 20
1188.0
 30
0.0
 40
3360.0
 41
2376.0
 68
     1
 69
     1
 12
1680.0
 22
1188.0
 13
0.0
 23
0.0
 14
0.5
 24
0.5
 15
0.5
 25
0.5
 16
0.0
 26
0.0
 36
1.0
 17
0.0
 27
0.0
 37
0.0
 42
50.0
 43
0.0
 44
0.0
 45
9.0
 50
0.0
 51
0.0
 72
   100
 90
   557152
  1

281
     0
 71
     1
 74
     0
110
0.0
120
0.0
130
0.0
111
1.0
121
0.0
131
0.0
112
0.0
122
1.0
132
0.0
 79
     0
146
0.0
170
     0
 61
     5
292
     1
282
     1
141
0.0
142
0.0
 63
   256
  0
ENDSEC
  0
SECTION
  2
OBJECTS
  0
DICTIONARY
  5
C
330
0
100
AcDbDictionary
281
     1
  3
ACAD_DETAILVIEWSTYLE
350
43E
  3
ACAD_GROUP
350
D
  3
ACAD_LAYOUT
350
1A
  3
ACAD_MATERIAL
350
43
  3
ACAD_MLEADERSTYLE
350
43D
  3
ACAD_MLINESTYLE
350
17
  3
ACAD_PLOTSETTINGS
350
19
  3
ACAD_PLOTSTYLENAME
350
E
  3
ACAD_SCALELIST
350
47
  3
ACAD_SECTIONVIEWSTYLE
350
43F
  3
ACAD_TABLESTYLE
350
43C
  3
ACAD_VISUALSTYLE
350
2A
  3
AcDbVariableDictionary
350
43A
  0
SUN
  5
69
330
29
100
AcDbSun
 90
        1
290
     0
 63
     7
421
 16777215
 40
1.0
291
     1
 91
  2455826
 92
 54000000
292
     0
 70
     2
 71
   256
280
     1
  0
DICTIONARY
  5
43E
102
{ACAD_REACTORS
330
C
102
}
330
C
100
AcDbDictionary
281
     1
  0
DICTIONARY
  5
D
102
{ACAD_REACTORS
330
C
102
}
330
C
100
AcDbDictionary
281
     1
  0
DICTIONARY
  5
1A
102
{ACAD_REACTORS
330
C
102
}
330
C
100
AcDbDictionary
281
     1
  3
Layout1
350
1E
  3
Layout2
350
26
  3
Model
350
22
  0
DICTIONARY
  5
43
102
{ACAD_REACTORS
330
C
102
}
330
C
100
AcDbDictionary
281
     1
  3
ByBlock
350
45
  3
ByLayer
350
44
  3
Global
350
46
  0
DICTIONARY
  5
43D
102
{ACAD_REACTORS
330
C
102
}
330
C
100
AcDbDictionary
281
     1
  0
DICTIONARY
  5
17
102
{ACAD_REACTORS
330
C
102
}
330
C
100
AcDbDictionary
281
     1
  3
Standard
350
18
  0
DICTIONARY
  5
19
102
{ACAD_REACTORS
330
C
102
}
330
C
100
AcDbDictionary
281
     1
  0
ACDBDICTIONARYWDFLT
  5
E
102
{ACAD_REACTORS
330
C
102
}
330
C
100
AcDbDictionary
281
     1
  3
Normal
350
F
100
AcDbDictionaryWithDefault
340
F
  0
DICTIONARY
  5
47
102
{ACAD_REACTORS
330
C
102
}
330
C
100
AcDbDictionary
281
     1
  3
A0
350
48
  3
A1
350
49
  3
A2
350
4A
  3
A3
350
4B
  3
A4
350
4C
  3
A5
350
4D
  3
A6
350
4E
  3
A7
350
4F
  3
A8
350
50
  3
A9
350
51
  3
B0
350
52
  3
B1
350
53
  3
B2
350
54
  3
B3
350
55
  3
B4
350
56
  3
B5
350
57
  3
B6
350
58
  3
B7
350
59
  3
B8
350
5A
  3
B9
350
5B
  3
C0
350
5C
  3
C1
350
5D
  3
C2
350
5E
  3
C3
350
5F
  3
C4
350
60
  3
C5
350
61
  3
C6
350
62
  3
C7
350
63
  3
C8
350
64
  3
C9
350
65
  3
D0
350
66
  3
D1
350
67
  3
D2
350
68
  0
DICTIONARY
  5
43F
102
{ACAD_REACTORS
330
C
102
}
330
C
100
AcDbDictionary
281
     1
  0
DICTIONARY
  5
43C
102
{ACAD_REACTORS
330
C
102
}
330
C
100
AcDbDictionary
281
     1
  0
DICTIONARY
  5
2A
102
{ACAD_REACTORS
330
C
102
}
330
C
100
AcDbDictionary
281
     1
  3
2dWireframe
350
2F
  3
Basic
350
32
  3
Brighten
350
36
  3
ColorChange
350
3A
  3
Conceptual
350
34
  3
Dim
350
35
  3
EdgeColorOff
350
3D
  3
Facepattern
350
39
  3
Flat
350
2B
  3
FlatWithEdges
350
2C
  3
Gouraud
350
2D
  3
GouraudWithEdges
350
2E
  3
Hidden
350
31
  3
JitterOff
350
3B
  3
Linepattern
350
38
  3
OverhangOff
350
3C
  3
Realistic
350
33
  3
Shaded
350
42
  3
Shaded with edges
350
41
  3
Shades of Gray
350
3E
  3
Sketchy
350
3F
  3
Thicken
350
37
  3
Wireframe
350
30
  3
X-Ray
350
40
  0
DICTIONARY
  5
43A
102
{ACAD_REACTORS
330
C
102
}
330
C
100
AcDbDictionary
281
     1
  3
CANNOSCALE
350
43B
  0
LAYOUT
  5
1E
102
{ACAD_REACTORS
330
1A
102
}
330
1A
100
AcDbPlotSettings
  1

  2
none_device
  4

  6

 40
0.0
 41
0.0
 42
0.0
 43
0.0
 44
0.0
 45
0.0
 46
0.0
 47
0.0
 48
0.0
 49
0.0
140
0.0
141
0.0
142
1.0
143
1.0
 70
   688
 72
     0
 73
     0
 74
     5
  7

 75
    16
 76
     0
 77
     2
 78
   300
147
1.0
148
0.0
149
0.0
100
AcDbLayout
  1
Layout1
 70
     1
 71
     1
 10
0.0
 20
0.0
 11
420.0
 21
297.0
 12
0.0
 22
0.0
 32
0.0
 14
0.0
 24
0.0
 34
0.0
 15
420.0
 25
297.0
 35
0.0
146
0.0
 13
0.0
 23
0.0
 33
0.0
 16
1.0
 26
0.0
 36
0.0
 17
0.0
 27
1.0
 37
0.0
 76
     0
330
1B
331
6A
  0
LAYOUT
  5
26
102
{ACAD_REACTORS
330
1A
102
}
330
1A
100
AcDbPlotSettings
  1

  2
none_device
  4

  6

 40
0.0
 41
0.0
 42
0.0
 43
0.0
 44
0.0
 45
0.0
 46
0.0
 47
0.0
 48
0.0
 49
0.0
140
0.0
141
0.0
142
1.0
143
1.0
 70
   688
 72
     0
 73
     0
 74
     5
  7

 75
    16
 76
     0
 77
     2
 78
   300
147
1.0
148
0.0
149
0.0
100
AcDbLayout
  1
Layout2
 70
     1
 71
     2
 10
0.0
 20
0.0
 11
0.0
 21
0.0
 12
0.0
 22
0.0
 32
0.0
 14
0.0
 24
0.0
 34
0.0
 15
0.0
 25
0.0
 35
0.0
146
0.0
 13
0.0
 23
0.0
 33
0.0
 16
1.0
 26
0.0
 36
0.0
 17
0.0
 27
1.0
 37
0.0
 76
     0
330
23
  0
LAYOUT
  5
22
102
{ACAD_REACTORS
330
1A
102
}
330
1A
100
AcDbPlotSettings
  1

  2
none_device
  4
Letter_(8.50_x_11.00_Inches)
  6

 40
6.35
 41
6.35
 42
6.35000508
 43
6.35000508
 44
215.9
 45
279.4
 46
0.0
 47
0.0
 48
0.0
 49
0.0
140
0.0
141
0.0
142
1.0
143
1.0
 70
  1712
 72
     0
 73
     0
 74
     0
  7

 75
     0
 76
     0
 77
     2
 78
   300
147
1.0
148
0.0
149
0.0
100
AcDbLayout
  1
Model
 70
     1
 71
     0
 10
0.0
 20
0.0
 11
420.0
 21
297.0
 12
0.0
 22
0.0
 32
0.0
 14
0.0
 24
0.0
 34
0.0
 15
2895.999988416
 25
2184.000000000002
 35
0.0
146
0.0
 13
0.0
 23
0.0
 33
0.0
 16
1.0
 26
0.0
 36
0.0
 17
0.0
 27
1.0
 37
0.0
 76
     0
330
1F
331
29
  0
MATERIAL
  5
45
102
{ACAD_REACTORS
330
43
102
}
330
43
100
AcDbMaterial
  1
ByBlock
 72
     1
 94
      127
  0
MATERIAL
  5
44
102
{ACAD_REACTORS
330
43
102
}
330
43
100
AcDbMaterial
  1
ByLayer
 72
     1
 94
      127
  0
MATERIAL
  5
46
102
{ACAD_REACTORS
330
43
102
}
330
43
100
AcDbMaterial
  1
Global
 72
     1
 94
      127
  0
MLINESTYLE
  5
18
102
{ACAD_REACTORS
330
17
102
}
330
17
100
AcDbMlineStyle
  2
Standard
 70
     0
  3

 62
   256
 51
90.0
 52
90.0
 71
     2
 49
0.5
 62
   256
  6
BYLAYER
 49
-0.5
 62
   256
  6
BYLAYER
  0
ACDBPLACEHOLDER
  5
F
102
{ACAD_REACTORS
330
E
102
}
330
E
  0
SCALE
  5
48
102
{ACAD_REACTORS
330
47
102
}
330
47
100
AcDbScale
 70
     0
300
1:1
140
1.0
141
1.0
290
     1
  0
SCALE
  5
49
102
{ACAD_REACTORS
330
47
102
}
330
47
100
AcDbScale
 70
     0
300
1:2
140
1.0
141
2.0
290
     0
  0
SCALE
  5
4A
102
{ACAD_REACTORS
330
47
102
}
330
47
100
AcDbScale
 70
     0
300
1:4
140
1.0
141
4.0
290
     0
  0
SCALE
  5
4B
102
{ACAD_REACTORS
330
47
102
}
330
47
100
AcDbScale
 70
     0
300
1:5
140
1.0
141
5.0
290
     0
  0
SCALE
  5
4C
102
{ACAD_REACTORS
330
47
102
}
330
47
100
AcDbScale
 70
     0
300
1:8
140
1.0
141
8.0
290
     0
  0
SCALE
  5
4D
102
{ACAD_REACTORS
330
47
102
}
330
47
100
AcDbScale
 70
     0
300
1:10
140
1.0
141
10.0
290
     0
  0
SCALE
  5
4E
102
{ACAD_REACTORS
330
47
102
}
330
47
100
AcDbScale
 70
     0
300
1:16
140
1.0
141
16.0
290
     0
  0
SCALE
  5
4F
102
{ACAD_REACTORS
330
47
102
}
330
47
100
AcDbScale
 70
     0
300
1:20
140
1.0
141
20.0
290
     0
  0
SCALE
  5
50
102
{ACAD_REACTORS
330
47
102
}
330
47
100
AcDbScale
 70
     0
300
1:30
140
1.0
141
30.0
290
     0
  0
SCALE
  5
51
102
{ACAD_REACTORS
330
47
102
}
330
47
100
AcDbScale
 70
     0
300
1:40
140
1.0
141
40.0
290
     0
  0
SCALE
  5
52
102
{ACAD_REACTORS
330
47
102
}
330
47
100
AcDbScale
 70
     0
300
1:50
140
1.0
141
50.0
290
     0
  0
SCALE
  5
53
102
{ACAD_REACTORS
330
47
102
}
330
47
100
AcDbScale
 70
     0
300
1:100
140
1.0
141
100.0
290
     0
  0
SCALE
  5
54
102
{ACAD_REACTORS
330
47
102
}
330
47
100
AcDbScale
 70
     0
300
2:1
140
2.0
141
1.0
290
     0
  0
SCALE
  5
55
102
{ACAD_REACTORS
330
47
102
}
330
47
100
AcDbScale
 70
     0
300
4:1
140
4.0
141
1.0
290
     0
  0
SCALE
  5
56
102
{ACAD_REACTORS
330
47
102
}
330
47
100
AcDbScale
 70
     0
300
8:1
140
8.0
141
1.0
290
     0
  0
SCALE
  5
57
102
{ACAD_REACTORS
330
47
102
}
330
47
100
AcDbScale
 70
     0
300
10:1
140
10.0
141
1.0
290
     0
  0
SCALE
  5
58
102
{ACAD_REACTORS
330
47
102
}
330
47
100
AcDbScale
 70
     0
300
100:1
140
100.0
141
1.0
290
     0
  0
SCALE
  5
59
102
{ACAD_REACTORS
330
47
102
}
330
47
100
AcDbScale
 70
     0
300
1/128" = 1'-0"
140
0.0078125
141
12.0
290
     0
  0
SCALE
  5
5A
102
{ACAD_REACTORS
330
47
102
}
330
47
100
AcDbScale
 70
     0
300
1/64" = 1'-0"
140
0.015625
141
12.0
290
     0
  0
SCALE
  5
5B
102
{ACAD_REACTORS
330
47
102
}
330
47
100
AcDbScale
 70
     0
300
1/32" = 1'-0"
140
0.03125
141
12.0
290
     0
  0
SCALE
  5
5C
102
{ACAD_REACTORS
330
47
102
}
330
47
100
AcDbScale
 70
     0
300
1/16" = 1'-0"
140
0.0625
141
12.0
290
     0
  0
SCALE
  5
5D
102
{ACAD_REACTORS
330
47
102
}
330
47
100
AcDbScale
 70
     0
300
3/32" = 1'-0"
140
0.09375
141
12.0
290
     0
  0
SCALE
  5
5E
102
{ACAD_REACTORS
330
47
102
}
330
47
100
AcDbScale
 70
     0
300
1/8" = 1'-0"
140
0.125
141
12.0
290
     0
  0
SCALE
  5
5F
102
{ACAD_REACTORS
330
47
102
}
330
47
100
AcDbScale
 70
     0
300
3/16" = 1'-0"
140
0.1875
141
12.0
290
     0
  0
SCALE
  5
60
102
{ACAD_REACTORS
330
47
102
}
330
47
100
AcDbScale
 70
     0
300
1/4" = 1'-0"
140
0.25
141
12.0
290
     0
  0
SCALE
  5
61
102
{ACAD_REACTORS
330
47
102
}
330
47
100
AcDbScale
 70
     0
300
3/8" = 1'-0"
140
0.375
141
12.0
290
     0
  0
SCALE
  5
62
102
{ACAD_REACTORS
330
47
102
}
330
47
100
AcDbScale
 70
     0
300
1/2" = 1'-0"
140
0.5
141
12.0
290
     0
  0
SCALE
  5
63
102
{ACAD_REACTORS
330
47
102
}
330
47
100
AcDbScale
 70
     0
300
3/4" = 1'-0"
140
0.75
141
12.0
290
     0
  0
SCALE
  5
64
102
{ACAD_REACTORS
330
47
102
}
330
47
100
AcDbScale
 70
     0
300
1" = 1'-0"
140
1.0
141
12.0
290
     0
  0
SCALE
  5
65
102
{ACAD_REACTORS
330
47
102
}
330
47
100
AcDbScale
 70
     0
300
1-1/2" = 1'-0"
140
1.5
141
12.0
290
     0
  0
SCALE
  5
66
102
{ACAD_REACTORS
330
47
102
}
330
47
100
AcDbScale
 70
     0
300
3" = 1'-0"
140
3.0
141
12.0
290
     0
  0
SCALE
  5
67
102
{ACAD_REACTORS
330
47
102
}
330
47
100
AcDbScale
 70
     0
300
6" = 1'-0"
140
6.0
141
12.0
290
     0
  0
SCALE
  5
68
102
{ACAD_REACTORS
330
47
102
}
330
47
100
AcDbScale
 70
     0
300
1'-0" = 1'-0"
140
12.0
141
12.0
290
     0
  0
VISUALSTYLE
  5
2F
102
{ACAD_REACTORS
330
2A
102
}
330
2A
100
AcDbVisualStyle
  2
2dWireframe
 70
     4
177
     3
291
     0
 70
    58
 90
        0
176
     1
 90
        2
176
     1
 90
        0
176
     1
 90
        0
176
     1
 40
0.6
176
     1
 40
30.0
176
     1
 62
     7
420
 16777215
176
     1
 90
        1
176
     1
 90
        4
176
     1
 62
     7
176
     1
 62
   257
176
     1
 90
        1
176
     1
 90
        1
176
     1
 40
1.0
176
     1
 90
        0
176
     1
 62
   257
176
     1
 40
1.0
176
     1
 90
        1
176
     1
 90
        6
176
     1
 90
        2
176
     1
 62
     7
176
     1
 90
        5
176
     1
 90
        0
176
     1
 90
        0
176
     1
290
     0
176
     1
 90
        1
176
     1
 40
0.0
176
     1
 90
        0
176
     1
290
     1
176
     1
290
     1
176
     1
290
     0
176
     1
290
     0
176
     1
290
     0
176
     1
290
     0
176
     1
290
     0
176
     1
290
     0
176
     1
290
     0
176
     1
 90
       50
176
     1
 40
0.0
176
     1
 40
1.0
176
     1
 90
        0
176
     1
 62
    18
420
        0
176
     1
 90
       50
176
     1
 90
        3
176
     1
 62
     5
420
      255
176
     1
290
     0
176
     1
 90
       50
176
     1
 90
       50
176
     1
 90
       50
176
     1
290
     0
176
     1
 90
       50
176
     1
 62
   256
176
     0
 40
1.0
176
     0
 90
        2
176
     1
  1
strokes_ogs.tif
176
     1
290
     0
176
     1
 40
1.0
176
     1
 40
1.0
176
     1
  0
VISUALSTYLE
  5
32
102
{ACAD_REACTORS
330
2A
102
}
330
2A
100
AcDbVisualStyle
  2
Basic
 70
     7
177
     3
291
     1
 70
    58
 90
        1
176
     1
 90
        0
176
     1
 90
        1
176
     1
 90
        0
176
     1
 40
0.6
176
     1
 40
30.0
176
     1
 62
     7
420
 16777215
176
     1
 90
        0
176
     1
 90
        4
176
     1
 62
     7
176
     1
 62
   257
176
     1
 90
        1
176
     1
 90
        1
176
     1
 40
1.0
176
     1
 90
        8
176
     1
 62
     7
176
     1
 40
1.0
176
     1
 90
        1
176
     1
 90
        6
176
     1
 90
        2
176
     1
 62
     7
176
     1
 90
        5
176
     1
 90
        0
176
     1
 90
        0
176
     1
290
     0
176
     1
 90
        1
176
     1
 40
0.0
176
     1
 90
        0
176
     1
290
     0
176
     1
290
     1
176
     1
290
     1
176
     1
290
     0
176
     1
290
     0
176
     1
290
     0
176
     1
290
     0
176
     1
290
     0
176
     1
290
     0
176
     1
 90
       50
176
     1
 40
0.0
176
     1
 40
1.0
176
     1
 90
        0
176
     1
 62
    18
420
        0
176
     1
 90
       50
176
     1
 90
        3
176
     1
 62
     5
420
      255
176
     1
290
     0
176
     1
 90
       50
176
     1
 90
       50
176
     1
 90
       50
176
     1
290
     0
176
     1
 90
       50
176
     1
 62
   256
176
     0
 40
1.0
176
     0
 90
        2
176
     1
  1
strokes_ogs.tif
176
     1
290
     0
176
     1
 40
1.0
176
     1
 40
1.0
176
     1
  0
VISUALSTYLE
  5
36
102
{ACAD_REACTORS
330
2A
102
}
330
2A
100
AcDbVisualStyle
  2
Brighten
 70
    12
177
     3
291
     1
 70
    58
 90
        2
176
     1
 90
        2
176
     1
 90
        0
176
     1
 90
        0
176
     1
 40
0.6
176
     1
 40
30.0
176
     1
 62
     7
420
 16777215
176
     1
 90
        1
176
     1
 90
        4
176
     1
 62
     7
176
     1
 62
   257
176
     1
 90
        1
176
     1
 90
        1
176
     1
 40
1.0
176
     1
 90
        8
176
     1
 62
     7
176
     1
 40
1.0
176
     1
 90
        1
176
     1
 90
        6
176
     1
 90
        2
176
     1
 62
     7
176
     1
 90
        5
176
     1
 90
        0
176
     1
 90
        0
176
     1
290
     0
176
     1
 90
        1
176
     1
 40
50.0
176
     1
 90
        0
176
     1
290
     0
176
     1
290
     1
176
     1
290
     1
176
     1
290
     0
176
     1
290
     0
176
     1
290
     0
176
     1
290
     0
176
     1
290
     0
176
     1
290
     0
176
     1
 90
       50
176
     1
 40
0.0
176
     1
 40
1.0
176
     1
 90
        0
176
     1
 62
    18
420
        0
176
     1
 90
       50
176
     1
 90
        3
176
     1
 62
     5
420
      255
176
     1
290
     0
176
     1
 90
       50
176
     1
 90
       50
176
     1
 90
       50
176
     1
290
     0
176
     1
 90
       50
176
     1
 62
   256
176
     0
 40
1.0
176
     0
 90
        2
176
     1
  1
strokes_ogs.tif
176
     1
290
     0
176
     1
 40
1.0
176
     1
 40
1.0
176
     1
  0
VISUALSTYLE
  5
3A
102
{ACAD_REACTORS
330
2A
102
}
330
2A
100
AcDbVisualStyle
  2
ColorChange
 70
    16
177
     3
291
     1
 70
    58
 90
        2
176
     1
 90
        2
176
     1
 90
        3
176
     1
 90
        0
176
     1
 40
0.6
176
     1
 40
30.0
176
     1
 62
     8
420
  8421504
176
     1
 90
        1
176
     1
 90
        4
176
     1
 62
     7
176
     1
 62
   257
176
     1
 90
        1
176
     1
 90
        1
176
     1
 40
1.0
176
     1
 90
        8
176
     1
 62
     8
420
  8421504
176
     1
 40
1.0
176
     1
 90
        1
176
     1
 90
        6
176
     1
 90
        2
176
     1
 62
     7
176
     1
 90
        5
176
     1
 90
        0
176
     1
 90
        0
176
     1
290
     0
176
     1
 90
        1
176
     1
 40
0.0
176
     1
 90
        0
176
     1
290
     0
176
     1
290
     1
176
     1
290
     1
176
     1
290
     0
176
     1
290
     0
176
     1
290
     0
176
     1
290
     0
176
     1
290
     0
176
     1
290
     0
176
     1
 90
       50
176
     1
 40
0.0
176
     1
 40
1.0
176
     1
 90
        0
176
     1
 62
    18
420
        0
176
     1
 90
       50
176
     1
 90
        3
176
     1
 62
     5
420
      255
176
     1
290
     0
176
     1
 90
       50
176
     1
 90
       50
176
     1
 90
       50
176
     1
290
     0
176
     1
 90
       50
176
     1
 62
   256
176
     0
 40
1.0
176
     0
 90
        2
176
     1
  1
strokes_ogs.tif
176
     1
290
     0
176
     1
 40
1.0
176
     1
 40
1.0
176
     1
  0
VISUALSTYLE
  5
34
102
{ACAD_REACTORS
330
2A
102
}
330
2A
100
AcDbVisualStyle
  2
Conceptual
 70
     9
177
     3
291
     0
 70
    58
 90
        3
176
     1
 90
        2
176
     1
 90
        0
176
     1
 90
        0
176
     1
 40
0.6
176
     1
 40
30.0
176
     1
 62
     7
420
 16777215
176
     1
 90
        2
176
     1
 90
        2
176
     1
 62
     7
176
     1
 62
   257
176
     1
 90
        1
176
     1
 90
        1
176
     1
 40
179.0
176
     1
 90
        8
176
     1
 62
     7
176
     1
 40
1.0
176
     1
 90
        1
176
     1
 90
        6
176
     1
 90
        2
176
     1
 62
     7
176
     1
 90
        3
176
     1
 90
        0
176
     1
 90
        0
176
     1
290
     0
176
     1
 90
        1
176
     1
 40
0.0
176
     1
 90
        0
176
     1
290
     0
176
     1
290
     1
176
     1
290
     1
176
     1
290
     0
176
     1
290
     0
176
     1
290
     0
176
     1
290
     0
176
     1
290
     0
176
     1
290
     0
176
     1
 90
       50
176
     1
 40
0.0
176
     1
 40
1.0
176
     1
 90
        0
176
     1
 62
    18
420
        0
176
     1
 90
       50
176
     1
 90
        3
176
     1
 62
     5
420
      255
176
     1
290
     0
176
     1
 90
       50
176
     1
 90
       50
176
     1
 90
       50
176
     1
290
     0
176
     1
 90
       50
176
     1
 62
   256
176
     0
 40
1.0
176
     0
 90
        2
176
     1
  1
strokes_ogs.tif
176
     1
290
     0
176
     1
 40
1.0
176
     1
 40
1.0
176
     1
  0
VISUALSTYLE
  5
35
102
{ACAD_REACTORS
330
2A
102
}
330
2A
100
AcDbVisualStyle
  2
Dim
 70
    11
177
     3
291
     1
 70
    58
 90
        2
176
     1
 90
        2
176
     1
 90
        0
176
     1
 90
        0
176
     1
 40
0.6
176
     1
 40
30.0
176
     1
 62
     7
420
 16777215
176
     1
 90
        1
176
     1
 90
        4
176
     1
 62
     7
176
     1
 62
   257
176
     1
 90
        1
176
     1
 90
        1
176
     1
 40
1.0
176
     1
 90
        8
176
     1
 62
     7
176
     1
 40
1.0
176
     1
 90
        1
176
     1
 90
        6
176
     1
 90
        2
176
     1
 62
     7
176
     1
 90
        5
176
     1
 90
        0
176
     1
 90
        0
176
     1
290
     0
176
     1
 90
        1
176
     1
 40
-50.0
176
     1
 90
        0
176
     1
290
     0
176
     1
290
     1
176
     1
290
     1
176
     1
290
     0
176
     1
290
     0
176
     1
290
     0
176
     1
290
     0
176
     1
290
     0
176
     1
290
     0
176
     1
 90
       50
176
     1
 40
0.0
176
     1
 40
1.0
176
     1
 90
        0
176
     1
 62
    18
420
        0
176
     1
 90
       50
176
     1
 90
        3
176
     1
 62
     5
420
      255
176
     1
290
     0
176
     1
 90
       50
176
     1
 90
       50
176
     1
 90
       50
176
     1
290
     0
176
     1
 90
       50
176
     1
 62
   256
176
     0
 40
1.0
176
     0
 90
        2
176
     1
  1
strokes_ogs.tif
176
     1
290
     0
176
     1
 40
1.0
176
     1
 40
1.0
176
     1
  0
VISUALSTYLE
  5
3D
102
{ACAD_REACTORS
330
2A
102
}
330
2A
100
AcDbVisualStyle
  2
EdgeColorOff
 70
    22
177
     3
291
     1
 70
    58
 90
        2
176
     0
 90
        2
176
     0
 90
        0
176
     0
 90
        0
176
     0
 40
0.6
176
     0
 40
30.0
176
     0
 62
     7
420
 16777215
176
     0
 90
        1
176
     0
 90
        4
176
     0
 62
     7
176
     0
 62
   257
176
     0
 90
        1
176
     0
 90
        1
176
     0
 40
1.0
176
     0
 90
        8
176
     2
 62
     7
176
     0
 40
1.0
176
     0
 90
        1
176
     0
 90
        6
176
     0
 90
        2
176
     0
 62
     7
176
     0
 90
        5
176
     0
 90
        0
176
     0
 90
        0
176
     0
290
     0
176
     0
 90
        1
176
     0
 40
0.0
176
     0
 90
        0
176
     0
290
     0
176
     0
290
     1
176
     0
290
     1
176
     0
290
     0
176
     0
290
     0
176
     0
290
     0
176
     0
290
     0
176
     0
290
     0
176
     0
290
     0
176
     0
 90
       50
176
     0
 40
0.0
176
     0
 40
1.0
176
     0
 90
        0
176
     0
 62
    18
420
        0
176
     0
 90
       50
176
     0
 90
        3
176
     0
 62
     5
420
      255
176
     0
290
     0
176
     0
 90
       50
176
     0
 90
       50
176
     0
 90
       50
176
     0
290
     0
176
     0
 90
       50
176
     0
 62
   256
176
     0
 40
1.0
176
     0
 90
        2
176
     0
  1
strokes_ogs.tif
176
     0
290
     0
176
     0
 40
1.0
176
     0
 40
1.0
176
     0
  0
VISUALSTYLE
  5
39
102
{ACAD_REACTORS
330
2A
102
}
330
2A
100
AcDbVisualStyle
  2
Facepattern
 70
    15
177
     3
291
     1
 70
    58
 90
        2
176
     1
 90
        2
176
     1
 90
        0
176
     1
 90
        0
176
     1
 40
0.6
176
     1
 40
30.0
176
     1
 62
     7
420
 16777215
176
     1
 90
        1
176
     1
 90
        4
176
     1
 62
     7
176
     1
 62
   257
176
     1
 90
        1
176
     1
 90
        1
176
     1
 40
1.0
176
     1
 90
        8
176
     1
 62
     7
176
     1
 40
1.0
176
     1
 90
        1
176
     1
 90
        6
176
     1
 90
        2
176
     1
 62
     7
176
     1
 90
        5
176
     1
 90
        0
176
     1
 90
        0
176
     1
290
     0
176
     1
 90
        1
176
     1
 40
0.0
176
     1
 90
        0
176
     1
290
     0
176
     1
290
     1
176
     1
290
     1
176
     1
290
     0
176
     1
290
     0
176
     1
290
     0
176
     1
290
     0
176
     1
290
     0
176
     1
290
     0
176
     1
 90
       50
176
     1
 40
0.0
176
     1
 40
1.0
176
     1
 90
        0
176
     1
 62
    18
420
        0
176
     1
 90
       50
176
     1
 90
        3
176
     1
 62
     5
420
      255
176
     1
290
     0
176
     1
 90
       50
176
     1
 90
       50
176
     1
 90
       50
176
     1
290
     0
176
     1
 90
       50
176
     1
 62
   256
176
     0
 40
1.0
176
     0
 90
        2
176
     1
  1
strokes_ogs.tif
176
     1
290
     0
176
     1
 40
1.0
176
     1
 40
1.0
176
     1
  0
VISUALSTYLE
  5
2B
102
{ACAD_REACTORS
330
2A
102
}
330
2A
100
AcDbVisualStyle
  2
Flat
 70
     0
177
     3
291
     1
 70
    58
 90
        2
176
     1
 90
        1
176
     1
 90
        1
176
     1
 90
        2
176
     1
 40
0.6
176
     1
 40
30.0
176
     1
 62
     7
420
 16777215
176
     1
 90
        0
176
     1
 90
        0
176
     1
 62
     7
176
     1
 62
   257
176
     1
 90
        1
176
     1
 90
        1
176
     1
 40
1.0
176
     1
 90
        8
176
     1
 62
     7
176
     1
 40
1.0
176
     1
 90
        1
176
     1
 90
        6
176
     1
 90
        2
176
     1
 62
     7
176
     1
 90
        5
176
     1
 90
        0
176
     1
 90
        0
176
     1
290
     0
176
     1
 90
       13
176
     1
 40
0.0
176
     1
 90
        0
176
     1
290
     0
176
     1
290
     1
176
     1
290
     1
176
     1
290
     0
176
     1
290
     0
176
     1
290
     0
176
     1
290
     0
176
     1
290
     0
176
     1
290
     0
176
     1
 90
       50
176
     1
 40
0.0
176
     1
 40
1.0
176
     1
 90
        0
176
     1
 62
    18
420
        0
176
     1
 90
       50
176
     1
 90
        3
176
     1
 62
     5
420
      255
176
     1
290
     0
176
     1
 90
       50
176
     1
 90
       50
176
     1
 90
       50
176
     1
290
     0
176
     1
 90
       50
176
     1
 62
   256
176
     0
 40
1.0
176
     0
 90
        2
176
     1
  1
strokes_ogs.tif
176
     1
290
     0
176
     1
 40
1.0
176
     1
 40
1.0
176
     1
  0
VISUALSTYLE
  5
2C
102
{ACAD_REACTORS
330
2A
102
}
330
2A
100
AcDbVisualStyle
  2
FlatWithEdges
 70
     1
177
     3
291
     1
 70
    58
 90
        2
176
     1
 90
        1
176
     1
 90
        1
176
     1
 90
        2
176
     1
 40
0.6
176
     1
 40
30.0
176
     1
 62
     7
420
 16777215
176
     1
 90
        1
176
     1
 90
        0
176
     1
 62
     7
176
     1
 62
   257
176
     1
 90
        1
176
     1
 90
        1
176
     1
 40
1.0
176
     1
 90
        0
176
     1
 62
   257
176
     1
 40
1.0
176
     1
 90
        1
176
     1
 90
        6
176
     1
 90
        2
176
     1
 62
     7
176
     1
 90
        5
176
     1
 90
        0
176
     1
 90
        0
176
     1
290
     0
176
     1
 90
       13
176
     1
 40
0.0
176
     1
 90
        0
176
     1
290
     0
176
     1
290
     1
176
     1
290
     1
176
     1
290
     0
176
     1
290
     0
176
     1
290
     0
176
     1
290
     0
176
     1
290
     0
176
     1
290
     0
176
     1
 90
       50
176
     1
 40
0.0
176
     1
 40
1.0
176
     1
 90
        0
176
     1
 62
    18
420
        0
176
     1
 90
       50
176
     1
 90
        3
176
     1
 62
     5
420
      255
176
     1
290
     0
176
     1
 90
       50
176
     1
 90
       50
176
     1
 90
       50
176
     1
290
     0
176
     1
 90
       50
176
     1
 62
   256
176
     0
 40
1.0
176
     0
 90
        2
176
     1
  1
strokes_ogs.tif
176
     1
290
     0
176
     1
 40
1.0
176
     1
 40
1.0
176
     1
  0
VISUALSTYLE
  5
2D
102
{ACAD_REACTORS
330
2A
102
}
330
2A
100
AcDbVisualStyle
  2
Gouraud
 70
     2
177
     3
291
     1
 70
    58
 90
        2
176
     1
 90
        2
176
     1
 90
        1
176
     1
 90
        2
176
     1
 40
0.6
176
     1
 40
30.0
176
     1
 62
     7
420
 16777215
176
     1
 90
        0
176
     1
 90
        0
176
     1
 62
     7
176
     1
 62
   257
176
     1
 90
        1
176
     1
 90
        1
176
     1
 40
1.0
176
     1
 90
        0
176
     1
 62
     7
176
     1
 40
1.0
176
     1
 90
        1
176
     1
 90
        6
176
     1
 90
        2
176
     1
 62
     7
176
     1
 90
        5
176
     1
 90
        0
176
     1
 90
        0
176
     1
290
     0
176
     1
 90
       13
176
     1
 40
0.0
176
     1
 90
        0
176
     1
290
     0
176
     1
290
     1
176
     1
290
     1
176
     1
290
     0
176
     1
290
     0
176
     1
290
     0
176
     1
290
     0
176
     1
290
     0
176
     1
290
     0
176
     1
 90
       50
176
     1
 40
0.0
176
     1
 40
1.0
176
     1
 90
        0
176
     1
 62
    18
420
        0
176
     1
 90
       50
176
     1
 90
        3
176
     1
 62
     5
420
      255
176
     1
290
     0
176
     1
 90
       50
176
     1
 90
       50
176
     1
 90
       50
176
     1
290
     0
176
     1
 90
       50
176
     1
 62
   256
176
     0
 40
1.0
176
     0
 90
        2
176
     1
  1
strokes_ogs.tif
176
     1
290
     0
176
     1
 40
1.0
176
     1
 40
1.0
176
     1
  0
VISUALSTYLE
  5
2E
102
{ACAD_REACTORS
330
2A
102
}
330
2A
100
AcDbVisualStyle
  2
GouraudWithEdges
 70
     3
177
     3
291
     1
 70
    58
 90
        2
176
     1
 90
        2
176
     1
 90
        1
176
     1
 90
        2
176
     1
 40
0.6
176
     1
 40
30.0
176
     1
 62
     7
420
 16777215
176
     1
 90
        1
176
     1
 90
        0
176
     1
 62
     7
176
     1
 62
   257
176
     1
 90
        1
176
     1
 90
        1
176
     1
 40
1.0
176
     1
 90
        0
176
     1
 62
   257
176
     1
 40
1.0
176
     1
 90
        1
176
     1
 90
        6
176
     1
 90
        2
176
     1
 62
     7
176
     1
 90
        5
176
     1
 90
        0
176
     1
 90
        0
176
     1
290
     0
176
     1
 90
       13
176
     1
 40
0.0
176
     1
 90
        0
176
     1
290
     0
176
     1
290
     1
176
     1
290
     1
176
     1
290
     0
176
     1
290
     0
176
     1
290
     0
176
     1
290
     0
176
     1
290
     0
176
     1
290
     0
176
     1
 90
       50
176
     1
 40
0.0
176
     1
 40
1.0
176
     1
 90
        0
176
     1
 62
    18
420
        0
176
     1
 90
       50
176
     1
 90
        3
176
     1
 62
     5
420
      255
176
     1
290
     0
176
     1
 90
       50
176
     1
 90
       50
176
     1
 90
       50
176
     1
290
     0
176
     1
 90
       50
176
     1
 62
   256
176
     0
 40
1.0
176
     0
 90
        2
176
     1
  1
strokes_ogs.tif
176
     1
290
     0
176
     1
 40
1.0
176
     1
 40
1.0
176
     1
  0
VISUALSTYLE
  5
31
102
{ACAD_REACTORS
330
2A
102
}
330
2A
100
AcDbVisualStyle
  2
Hidden
 70
     6
177
     3
291
     0
 70
    58
 90
        1
176
     1
 90
        2
176
     1
 90
        2
176
     1
 90
        0
176
     1
 40
0.6
176
     1
 40
30.0
176
     1
 62
     7
420
 16777215
176
     1
 90
        2
176
     1
 90
        2
176
     1
 62
     7
176
     1
 62
   257
176
     1
 90
        2
176
     1
 90
        1
176
     1
 40
40.0
176
     1
 90
        0
176
     1
 62
   257
176
     1
 40
1.0
176
     1
 90
        1
176
     1
 90
        6
176
     1
 90
        2
176
     1
 62
     7
176
     1
 90
        3
176
     1
 90
        0
176
     1
 90
        0
176
     1
290
     0
176
     1
 90
        1
176
     1
 40
0.0
176
     1
 90
        0
176
     1
290
     0
176
     1
290
     1
176
     1
290
     1
176
     1
290
     0
176
     1
290
     0
176
     1
290
     0
176
     1
290
     0
176
     1
290
     0
176
     1
290
     0
176
     1
 90
       50
176
     1
 40
0.0
176
     1
 40
1.0
176
     1
 90
        0
176
     1
 62
    18
420
        0
176
     1
 90
       50
176
     1
 90
        3
176
     1
 62
     5
420
      255
176
     1
290
     0
176
     1
 90
       50
176
     1
 90
       50
176
     1
 90
       50
176
     1
290
     0
176
     1
 90
       50
176
     1
 62
   256
176
     0
 40
1.0
176
     0
 90
        2
176
     1
  1
strokes_ogs.tif
176
     1
290
     0
176
     1
 40
1.0
176
     1
 40
1.0
176
     1
  0
VISUALSTYLE
  5
3B
102
{ACAD_REACTORS
330
2A
102
}
330
2A
100
AcDbVisualStyle
  2
JitterOff
 70
    20
177
     3
291
     1
 70
    58
 90
        2
176
     0
 90
        2
176
     0
 90
        0
176
     0
 90
        0
176
     0
 40
0.6
176
     0
 40
30.0
176
     0
 62
     7
420
 16777215
176
     0
 90
        1
176
     0
 90
        4
176
     0
 62
     7
176
     0
 62
   257
176
     0
 90
        1
176
     0
 90
        1
176
     0
 40
1.0
176
     0
 90
       10
176
     2
 62
     7
176
     0
 40
1.0
176
     0
 90
        1
176
     0
 90
        6
176
     0
 90
        2
176
     0
 62
     7
176
     0
 90
        5
176
     0
 90
        0
176
     0
 90
        0
176
     0
290
     0
176
     0
 90
        1
176
     0
 40
0.0
176
     0
 90
        0
176
     0
290
     0
176
     0
290
     1
176
     0
290
     1
176
     0
290
     0
176
     0
290
     0
176
     0
290
     0
176
     0
290
     0
176
     0
290
     0
176
     0
290
     0
176
     0
 90
       50
176
     0
 40
0.0
176
     0
 40
1.0
176
     0
 90
        0
176
     0
 62
    18
420
        0
176
     0
 90
       50
176
     0
 90
        3
176
     0
 62
     5
420
      255
176
     0
290
     0
176
     0
 90
       50
176
     0
 90
       50
176
     0
 90
       50
176
     0
290
     0
176
     0
 90
       50
176
     0
 62
   256
176
     0
 40
1.0
176
     0
 90
        2
176
     0
  1
strokes_ogs.tif
176
     0
290
     0
176
     0
 40
1.0
176
     0
 40
1.0
176
     0
  0
VISUALSTYLE
  5
38
102
{ACAD_REACTORS
330
2A
102
}
330
2A
100
AcDbVisualStyle
  2
Linepattern
 70
    14
177
     3
291
     1
 70
    58
 90
        2
176
     1
 90
        2
176
     1
 90
        0
176
     1
 90
        0
176
     1
 40
0.6
176
     1
 40
30.0
176
     1
 62
     7
420
 16777215
176
     1
 90
        1
176
     1
 90
        4
176
     1
 62
     7
176
     1
 62
   257
176
     1
 90
        7
176
     1
 90
        7
176
     1
 40
1.0
176
     1
 90
        8
176
     1
 62
     7
176
     1
 40
1.0
176
     1
 90
        1
176
     1
 90
        6
176
     1
 90
        2
176
     1
 62
     7
176
     1
 90
        5
176
     1
 90
        0
176
     1
 90
        0
176
     1
290
     0
176
     1
 90
        1
176
     1
 40
0.0
176
     1
 90
        0
176
     1
290
     0
176
     1
290
     1
176
     1
290
     1
176
     1
290
     0
176
     1
290
     0
176
     1
290
     0
176
     1
290
     0
176
     1
290
     0
176
     1
290
     0
176
     1
 90
       50
176
     1
 40
0.0
176
     1
 40
1.0
176
     1
 90
        0
176
     1
 62
    18
420
        0
176
     1
 90
       50
176
     1
 90
        3
176
     1
 62
     5
420
      255
176
     1
290
     0
176
     1
 90
       50
176
     1
 90
       50
176
     1
 90
       50
176
     1
290
     0
176
     1
 90
       50
176
     1
 62
   256
176
     0
 40
1.0
176
     0
 90
        2
176
     1
  1
strokes_ogs.tif
176
     1
290
     0
176
     1
 40
1.0
176
     1
 40
1.0
176
     1
  0
VISUALSTYLE
  5
3C
102
{ACAD_REACTORS
330
2A
102
}
330
2A
100
AcDbVisualStyle
  2
OverhangOff
 70
    21
177
     3
291
     1
 70
    58
 90
        2
176
     0
 90
        2
176
     0
 90
        0
176
     0
 90
        0
176
     0
 40
0.6
176
     0
 40
30.0
176
     0
 62
     7
420
 16777215
176
     0
 90
        1
176
     0
 90
        4
176
     0
 62
     7
176
     0
 62
   257
176
     0
 90
        1
176
     0
 90
        1
176
     0
 40
1.0
176
     0
 90
        9
176
     2
 62
     7
176
     0
 40
1.0
176
     0
 90
        1
176
     0
 90
        6
176
     0
 90
        2
176
     0
 62
     7
176
     0
 90
        5
176
     0
 90
        0
176
     0
 90
        0
176
     0
290
     0
176
     0
 90
        1
176
     0
 40
0.0
176
     0
 90
        0
176
     0
290
     0
176
     0
290
     1
176
     0
290
     1
176
     0
290
     0
176
     0
290
     0
176
     0
290
     0
176
     0
290
     0
176
     0
290
     0
176
     0
290
     0
176
     0
 90
       50
176
     0
 40
0.0
176
     0
 40
1.0
176
     0
 90
        0
176
     0
 62
    18
420
        0
176
     0
 90
       50
176
     0
 90
        3
176
     0
 62
     5
420
      255
176
     0
290
     0
176
     0
 90
       50
176
     0
 90
       50
176
     0
 90
       50
176
     0
290
     0
176
     0
 90
       50
176
     0
 62
   256
176
     0
 40
1.0
176
     0
 90
        2
176
     0
  1
strokes_ogs.tif
176
     0
290
     0
176
     0
 40
1.0
176
     0
 40
1.0
176
     0
  0
VISUALSTYLE
  5
33
102
{ACAD_REACTORS
330
2A
102
}
330
2A
100
AcDbVisualStyle
  2
Realistic
 70
     8
177
     3
291
     0
 70
    58
 90
        2
176
     1
 90
        3
176
     1
 90
        0
176
     1
 90
        2
176
     1
 40
0.6
176
     1
 40
30.0
176
     1
 62
     7
420
 16777215
176
     1
 90
        0
176
     1
 90
        0
176
     1
 62
     7
176
     1
 62
   257
176
     1
 90
        1
176
     1
 90
        1
176
     1
 40
1.0
176
     1
 90
        8
176
     1
 62
   257
176
     1
 40
1.0
176
     1
 90
        1
176
     1
 90
        6
176
     1
 90
        2
176
     1
 62
     7
176
     1
 90
        3
176
     1
 90
        0
176
     1
 90
        0
176
     1
290
     0
176
     1
 90
       13
176
     1
 40
0.0
176
     1
 90
        0
176
     1
290
     0
176
     1
290
     1
176
     1
290
     1
176
     1
290
     0
176
     1
290
     0
176
     1
290
     0
176
     1
290
     0
176
     1
290
     0
176
     1
290
     0
176
     1
 90
       50
176
     1
 40
0.0
176
     1
 40
1.0
176
     1
 90
        0
176
     1
 62
    18
420
        0
176
     1
 90
       50
176
     1
 90
        3
176
     1
 62
     5
420
      255
176
     1
290
     0
176
     1
 90
       50
176
     1
 90
       50
176
     1
 90
       50
176
     1
290
     0
176
     1
 90
       50
176
     1
 62
   256
176
     0
 40
1.0
176
     0
 90
        2
176
     1
  1
strokes_ogs.tif
176
     1
290
     0
176
     1
 40
1.0
176
     1
 40
1.0
176
     1
  0
VISUALSTYLE
  5
42
102
{ACAD_REACTORS
330
2A
102
}
330
2A
100
AcDbVisualStyle
  2
Shaded
 70
    27
177
     3
291
     0
 70
    58
 90
        2
176
     1
 90
        2
176
     1
 90
        1
176
     1
 90
        2
176
     1
 40
0.6
176
     1
 40
30.0
176
     1
 62
     7
420
 16777215
176
     1
 90
        0
176
     1
 90
        4
176
     1
 62
     7
176
     1
 62
   257
176
     1
 90
        1
176
     1
 90
        1
176
     1
 40
1.0
176
     1
 90
        8
176
     1
 62
   257
176
     1
 40
1.0
176
     1
 90
        1
176
     1
 90
        6
176
     1
 90
        2
176
     1
 62
     8
420
  7895160
176
     1
 90
        3
176
     1
 90
        0
176
     1
 90
        0
176
     1
290
     0
176
     1
 90
        5
176
     1
 40
0.0
176
     1
 90
        0
176
     1
290
     0
176
     1
290
     1
176
     1
290
     1
176
     1
290
     0
176
     1
290
     0
176
     1
290
     0
176
     1
290
     0
176
     1
290
     0
176
     1
290
     0
176
     1
 90
       50
176
     1
 40
0.0
176
     1
 40
1.0
176
     1
 90
        0
176
     1
 62
    18
420
        0
176
     1
 90
       50
176
     1
 90
        3
176
     1
 62
     5
420
      255
176
     1
290
     0
176
     1
 90
       50
176
     1
 90
       50
176
     1
 90
       50
176
     1
290
     0
176
     1
 90
       50
176
     1
 62
   256
176
     0
 40
1.0
176
     0
 90
        2
176
     1
  1
strokes_ogs.tif
176
     1
290
     0
176
     1
 40
1.0
176
     1
 40
1.0
176
     1
  0
VISUALSTYLE
  5
41
102
{ACAD_REACTORS
330
2A
102
}
330
2A
100
AcDbVisualStyle
  2
Shaded with edges
 70
    26
177
     3
291
     0
 70
    58
 90
        2
176
     1
 90
        2
176
     1
 90
        1
176
     1
 90
        2
176
     1
 40
0.6
176
     1
 40
30.0
176
     1
 62
     7
420
 16777215
176
     1
 90
        1
176
     1
 90
       10
176
     1
 62
     7
176
     1
 62
   257
176
     1
 90
        2
176
     1
 90
        1
176
     1
 40
1.0
176
     1
 90
        8
176
     1
 62
   257
176
     1
 40
1.0
176
     1
 90
        1
176
     1
 90
        6
176
     1
 90
        2
176
     1
 62
     7
176
     1
 90
        3
176
     1
 90
        0
176
     1
 90
        0
176
     1
290
     0
176
     1
 90
        5
176
     1
 40
0.0
176
     1
 90
        0
176
     1
290
     0
176
     1
290
     1
176
     1
290
     1
176
     1
290
     0
176
     1
290
     0
176
     1
290
     0
176
     1
290
     0
176
     1
290
     0
176
     1
290
     0
176
     1
 90
       50
176
     1
 40
0.0
176
     1
 40
1.0
176
     1
 90
        0
176
     1
 62
    18
420
        0
176
     1
 90
       50
176
     1
 90
        3
176
     1
 62
     5
420
      255
176
     1
290
     0
176
     1
 90
       50
176
     1
 90
       50
176
     1
 90
       50
176
     1
290
     0
176
     1
 90
       50
176
     1
 62
   256
176
     0
 40
1.0
176
     0
 90
        2
176
     1
  1
strokes_ogs.tif
176
     1
290
     0
176
     1
 40
1.0
176
     1
 40
1.0
176
     1
  0
VISUALSTYLE
  5
3E
102
{ACAD_REACTORS
330
2A
102
}
330
2A
100
AcDbVisualStyle
  2
Shades of Gray
 70
    23
177
     3
291
     0
 70
    58
 90
        2
176
     1
 90
        2
176
     1
 90
        3
176
     1
 90
        0
176
     1
 40
0.6
176
     1
 40
30.0
176
     1
 62
     7
420
 16777215
176
     1
 90
        2
176
     1
 90
        2
176
     1
 62
     7
176
     1
 62
     7
176
     1
 90
        1
176
     1
 90
        1
176
     1
 40
40.0
176
     1
 90
        8
176
     1
 62
     7
176
     1
 40
1.0
176
     1
 90
        1
176
     1
 90
        6
176
     1
 90
        2
176
     1
 62
     7
176
     1
 90
        3
176
     1
 90
        0
176
     1
 90
        0
176
     1
290
     0
176
     1
 90
        1
176
     1
 40
0.0
176
     1
 90
        0
176
     1
290
     0
176
     1
290
     1
176
     1
290
     1
176
     1
290
     0
176
     1
290
     0
176
     1
290
     0
176
     1
290
     0
176
     1
290
     0
176
     1
290
     0
176
     1
 90
       50
176
     1
 40
0.0
176
     1
 40
1.0
176
     1
 90
        0
176
     1
 62
    18
420
        0
176
     1
 90
       50
176
     1
 90
        3
176
     1
 62
     5
420
      255
176
     1
290
     0
176
     1
 90
       50
176
     1
 90
       50
176
     1
 90
       50
176
     1
290
     0
176
     1
 90
       50
176
     1
 62
   256
176
     0
 40
1.0
176
     0
 90
        2
176
     1
  1
strokes_ogs.tif
176
     1
290
     0
176
     1
 40
1.0
176
     1
 40
1.0
176
     1
  0
VISUALSTYLE
  5
3F
102
{ACAD_REACTORS
330
2A
102
}
330
2A
100
AcDbVisualStyle
  2
Sketchy
 70
    24
177
     3
291
     0
 70
    58
 90
        1
176
     1
 90
        2
176
     1
 90
        2
176
     1
 90
        0
176
     1
 40
0.6
176
     1
 40
30.0
176
     1
 62
     7
420
 16777215
176
     1
 90
        2
176
     1
 90
        2
176
     1
 62
     7
176
     1
 62
     7
176
     1
 90
        1
176
     1
 90
        1
176
     1
 40
40.0
176
     1
 90
       11
176
     1
 62
     7
176
     1
 40
1.0
176
     1
 90
        1
176
     1
 90
        6
176
     1
 90
        2
176
     1
 62
     7
176
     1
 90
        6
176
     1
 90
        0
176
     1
 90
        0
176
     1
290
     0
176
     1
 90
        1
176
     1
 40
0.0
176
     1
 90
        0
176
     1
290
     0
176
     1
290
     1
176
     1
290
     1
176
     1
290
     0
176
     1
290
     0
176
     1
290
     0
176
     1
290
     0
176
     1
290
     0
176
     1
290
     0
176
     1
 90
       50
176
     1
 40
0.0
176
     1
 40
1.0
176
     1
 90
        0
176
     1
 62
    18
420
        0
176
     1
 90
       50
176
     1
 90
        3
176
     1
 62
     5
420
      255
176
     1
290
     0
176
     1
 90
       50
176
     1
 90
       50
176
     1
 90
       50
176
     1
290
     0
176
     1
 90
       50
176
     1
 62
   256
176
     0
 40
1.0
176
     0
 90
        2
176
     1
  1
strokes_ogs.tif
176
     1
290
     0
176
     1
 40
1.0
176
     1
 40
1.0
176
     1
  0
VISUALSTYLE
  5
37
102
{ACAD_REACTORS
330
2A
102
}
330
2A
100
AcDbVisualStyle
  2
Thicken
 70
    13
177
     3
291
     1
 70
    58
 90
        2
176
     1
 90
        2
176
     1
 90
        0
176
     1
 90
        0
176
     1
 40
0.6
176
     1
 40
30.0
176
     1
 62
     7
420
 16777215
176
     1
 90
        1
176
     1
 90
        4
176
     1
 62
     7
176
     1
 62
   257
176
     1
 90
        1
176
     1
 90
        1
176
     1
 40
1.0
176
     1
 90
       12
176
     1
 62
     7
176
     1
 40
1.0
176
     1
 90
        1
176
     1
 90
        6
176
     1
 90
        2
176
     1
 62
     7
176
     1
 90
        5
176
     1
 90
        0
176
     1
 90
        0
176
     1
290
     0
176
     1
 90
        1
176
     1
 40
0.0
176
     1
 90
        0
176
     1
290
     0
176
     1
290
     1
176
     1
290
     1
176
     1
290
     0
176
     1
290
     0
176
     1
290
     0
176
     1
290
     0
176
     1
290
     0
176
     1
290
     0
176
     1
 90
       50
176
     1
 40
0.0
176
     1
 40
1.0
176
     1
 90
        0
176
     1
 62
    18
420
        0
176
     1
 90
       50
176
     1
 90
        3
176
     1
 62
     5
420
      255
176
     1
290
     0
176
     1
 90
       50
176
     1
 90
       50
176
     1
 90
       50
176
     1
290
     0
176
     1
 90
       50
176
     1
 62
   256
176
     0
 40
1.0
176
     0
 90
        2
176
     1
  1
strokes_ogs.tif
176
     1
290
     0
176
     1
 40
1.0
176
     1
 40
1.0
176
     1
  0
VISUALSTYLE
  5
30
102
{ACAD_REACTORS
330
2A
102
}
330
2A
100
AcDbVisualStyle
  2
Wireframe
 70
     5
177
     3
291
     0
 70
    58
 90
        0
176
     1
 90
        2
176
     1
 90
        0
176
     1
 90
        0
176
     1
 40
0.6
176
     1
 40
30.0
176
     1
 62
     7
420
 16777215
176
     1
 90
        1
176
     1
 90
        4
176
     1
 62
     7
176
     1
 62
   257
176
     1
 90
        1
176
     1
 90
        1
176
     1
 40
1.0
176
     1
 90
        0
176
     1
 62
   257
176
     1
 40
1.0
176
     1
 90
        1
176
     1
 90
        6
176
     1
 90
        2
176
     1
 62
     7
176
     1
 90
        3
176
     1
 90
        0
176
     1
 90
        0
176
     1
290
     0
176
     1
 90
        1
176
     1
 40
0.0
176
     1
 90
        0
176
     1
290
     0
176
     1
290
     1
176
     1
290
     1
176
     1
290
     0
176
     1
290
     0
176
     1
290
     0
176
     1
290
     0
176
     1
290
     0
176
     1
290
     0
176
     1
 90
       50
176
     1
 40
0.0
176
     1
 40
1.0
176
     1
 90
        0
176
     1
 62
    18
420
        0
176
     1
 90
       50
176
     1
 90
        3
176
     1
 62
     5
420
      255
176
     1
290
     0
176
     1
 90
       50
176
     1
 90
       50
176
     1
 90
       50
176
     1
290
     0
176
     1
 90
       50
176
     1
 62
   256
176
     0
 40
1.0
176
     0
 90
        2
176
     1
  1
strokes_ogs.tif
176
     1
290
     0
176
     1
 40
1.0
176
     1
 40
1.0
176
     1
  0
VISUALSTYLE
  5
40
102
{ACAD_REACTORS
330
2A
102
}
330
2A
100
AcDbVisualStyle
  2
X-Ray
 70
    25
177
     3
291
     0
 70
    58
 90
        2
176
     1
 90
        2
176
     1
 90
        1
176
     1
 90
        1
176
     1
 40
0.5
176
     1
 40
30.0
176
     1
 62
     7
420
 16777215
176
     1
 90
        1
176
     1
 90
        0
176
     1
 62
     7
176
     1
 62
   257
176
     1
 90
        1
176
     1
 90
        1
176
     1
 40
1.0
176
     1
 90
        8
176
     1
 62
     7
176
     1
 40
1.0
176
     1
 90
        1
176
     1
 90
        6
176
     1
 90
        2
176
     1
 62
     7
176
     1
 90
        3
176
     1
 90
        0
176
     1
 90
        0
176
     1
290
     0
176
     1
 90
       13
176
     1
 40
0.0
176
     1
 90
        0
176
     1
290
     0
176
     1
290
     1
176
     1
290
     1
176
     1
290
     0
176
     1
290
     0
176
     1
290
     0
176
     1
290
     0
176
     1
290
     0
176
     1
290
     0
176
     1
 90
       50
176
     1
 40
0.0
176
     1
 40
1.0
176
     1
 90
        0
176
     1
 62
    18
420
        0
176
     1
 90
       50
176
     1
 90
        3
176
     1
 62
     5
420
      255
176
     1
290
     0
176
     1
 90
       50
176
     1
 90
       50
176
     1
 90
       50
176
     1
290
     0
176
     1
 90
       50
176
     1
 62
   256
176
     0
 40
1.0
176
     0
 90
        2
176
     1
  1
strokes_ogs.tif
176
     1
290
     0
176
     1
 40
1.0
176
     1
 40
1.0
176
     1
  0
DICTIONARYVAR
  5
43B
102
{ACAD_REACTORS
330
43A
102
}
330
43A
100
DictionaryVariables
280
     0
  1
1:1
  0
ENDSEC
  0
EOF
