  0
SECTION
  2
HEADER
  9
$ACADVER
  1
AC1027
  9
$ACADMAINTVER
 70
     8
  9
$DWGCODEPAGE
  3
ANSI_932
  9
$REQUIREDVERSIONS
160
                 0
  9
$INSBASE
 10
0.0
 20
0.0
 30
0.0
  9
$EXTMIN
 10
0.0
 20
0.0
 30
0.0
  9
$EXTMAX
 10
2895.999988415999
 20
2184.000000000002
 30
0.0
  9
$LIMMIN
 10
0.0
 20
0.0
  9
$LIMMAX
 10
420.0
 20
297.0
  9
$ORTHOMODE
 70
     0
  9
$REGENMODE
 70
     1
  9
$FILLMODE
 70
     1
  9
$QTEXTMODE
 70
     0
  9
$MIRRTEXT
 70
     1
  9
$LTSCALE
 40
2.0
  9
$ATTMODE
 70
     1
  9
$TEXTSIZE
 40
26.4
  9
$TRACEWID
 40
0.05
  9
$TEXTSTYLE
  7
Standard
  9
$CLAYER
  8
0
  9
$CELTYPE
  6
ByLayer
  9
$CECOLOR
 62
   256
  9
$CELTSCALE
 40
1.0
  9
$DISPSILH
 70
     0
  9
$DIMSCALE
 40
1.0
  9
$DIMASZ
 40
2.3
  9
$DIMEXO
 40
1.0
  9
$DIMDLI
 40
10.0
  9
$DIMRND
 40
0.0
  9
$DIMDLE
 40
0.0
  9
$DIMEXE
 40
1.0
  9
$DIMTP
 40
0.0
  9
$DIMTM
 40
0.0
  9
$DIMTXT
 40
3.3
  9
$DIMCEN
 40
0.09
  9
$DIMTSZ
 40
0.0
  9
$DIMTOL
 70
     0
  9
$DIMLIM
 70
     0
  9
$DIMTIH
 70
     0
  9
$DIMTOH
 70
     0
  9
$DIMSE1
 70
     0
  9
$DIMSE2
 70
     0
  9
$DIMTAD
 70
     3
  9
$DIMZIN
 70
     8
  9
$DIMBLK
  1

  9
$DIMASO
 70
     1
  9
$DIMSHO
 70
     1
  9
$DIMPOST
  1

  9
$DIMAPOST
  1

  9
$DIMALT
 70
     0
  9
$DIMALTD
 70
     2
  9
$DIMALTF
 40
25.4
  9
$DIMLFAC
 40
1.0
  9
$DIMTOFL
 70
     1
  9
$DIMTVP
 40
0.7
  9
$DIMTIX
 70
     0
  9
$DIMSOXD
 70
     0
  9
$DIMSAH
 70
     0
  9
$DIMBLK1
  1

  9
$DIMBLK2
  1

  9
$DIMSTYLE
  2
Standard
  9
$DIMCLRD
 70
     0
  9
$DIMCLRE
 70
     0
  9
$DIMCLRT
 70
     0
  9
$DIMTFAC
 40
0.5
  9
$DIMGAP
 40
0.09
  9
$DIMJUST
 70
     0
  9
$DIMSD1
 70
     0
  9
$DIMSD2
 70
     0
  9
$DIMTOLJ
 70
     1
  9
$DIMTZIN
 70
     8
  9
$DIMALTZ
 70
     0
  9
$DIMALTTZ
 70
     0
  9
$DIMUPT
 70
     1
  9
$DIMDEC
 70
     1
  9
$DIMTDEC
 70
     4
  9
$DIMALTU
 70
     2
  9
$DIMALTTD
 70
     2
  9
$DIMTXSTY
  7
Standard
  9
$DIMAUNIT
 70
     0
  9
$DIMADEC
 70
     0
  9
$DIMALTRND
 40
0.0
  9
$DIMAZIN
 70
     0
  9
$DIMDSEP
 70
    46
  9
$DIMATFIT
 70
     2
  9
$DIMFRAC
 70
     0
  9
$DIMLDRBLK
  1

  9
$DIMLUNIT
 70
     2
  9
$DIMLWD
 70
    -2
  9
$DIMLWE
 70
    -2
  9
$DIMTMOVE
 70
     2
  9
$DIMFXL
 40
1.0
  9
$DIMFXLON
 70
     0
  9
$DIMJOGANG
 40
0.7853981633974483
  9
$DIMTFILL
 70
     0
  9
$DIMTFILLCLR
 70
     0
  9
$DIMARCSYM
 70
     0
  9
$DIMLTYPE
  6

  9
$DIMLTEX1
  6

  9
$DIMLTEX2
  6

  9
$DIMTXTDIRECTION
 70
     0
  9
$LUNITS
 70
     2
  9
$LUPREC
 70
     4
  9
$SKETCHINC
 40
0.1
  9
$FILLETRAD
 40
0.5
  9
$AUNITS
 70
     0
  9
$AUPREC
 70
     0
  9
$MENU
  1
.
  9
$ELEVATION
 40
0.0
  9
$PELEVATION
 40
0.0
  9
$THICKNESS
 40
0.0
  9
$LIMCHECK
 70
     0
  9
$CHAMFERA
 40
0.0
  9
$CHAMFERB
 40
0.0
  9
$CHAMFERC
 40
0.0
  9
$CHAMFERD
 40
0.0
  9
$SKPOLY
 70
     0
  9
$TDCREATE
 40
2458955.82681713
  9
$TDUCREATE
 40
2458955.45181713
  9
$TDUPDATE
 40
2458955.451826088
  9
$TDUUPDATE
 40
2458955.076826088
  9
$TDINDWG
 40
0.0000000116
  9
$TDUSRTIMER
 40
0.0000000116
  9
$USRTIMER
 70
     1
  9
$ANGBASE
 50
0.0
  9
$ANGDIR
 70
     0
  9
$PDMODE
 70
     0
  9
$PDSIZE
 40
0.0
  9
$PLINEWID
 40
0.0
  9
$SPLFRAME
 70
     0
  9
$SPLINETYPE
 70
     6
  9
$SPLINESEGS
 70
     8
  9
$HANDSEED
  5
34D
  9
$SURFTAB1
 70
     6
  9
$SURFTAB2
 70
     6
  9
$SURFTYPE
 70
     6
  9
$SURFU
 70
     6
  9
$SURFV
 70
     6
  9
$UCSBASE
  2

  9
$UCSNAME
  2

  9
$UCSORG
 10
0.0
 20
0.0
 30
0.0
  9
$UCSXDIR
 10
1.0
 20
0.0
 30
0.0
  9
$UCSYDIR
 10
0.0
 20
1.0
 30
0.0
  9
$UCSORTHOREF
  2

  9
$UCSORTHOVIEW
 70
     0
  9
$UCSORGTOP
 10
0.0
 20
0.0
 30
0.0
  9
$UCSORGBOTTOM
 10
0.0
 20
0.0
 30
0.0
  9
$UCSORGLEFT
 10
0.0
 20
0.0
 30
0.0
  9
$UCSORGRIGHT
 10
0.0
 20
0.0
 30
0.0
  9
$UCSORGFRONT
 10
0.0
 20
0.0
 30
0.0
  9
$UCSORGBACK
 10
0.0
 20
0.0
 30
0.0
  9
$PUCSBASE
  2

  9
$PUCSNAME
  2

  9
$PUCSORG
 10
0.0
 20
0.0
 30
0.0
  9
$PUCSXDIR
 10
1.0
 20
0.0
 30
0.0
  9
$PUCSYDIR
 10
0.0
 20
1.0
 30
0.0
  9
$PUCSORTHOREF
  2

  9
$PUCSORTHOVIEW
 70
     0
  9
$PUCSORGTOP
 10
0.0
 20
0.0
 30
0.0
  9
$PUCSORGBOTTOM
 10
0.0
 20
0.0
 30
0.0
  9
$PUCSORGLEFT
 10
0.0
 20
0.0
 30
0.0
  9
$PUCSORGRIGHT
 10
0.0
 20
0.0
 30
0.0
  9
$PUCSORGFRONT
 10
0.0
 20
0.0
 30
0.0
  9
$PUCSORGBACK
 10
0.0
 20
0.0
 30
0.0
  9
$USERI1
 70
     0
  9
$USERI2
 70
     0
  9
$USERI3
 70
     0
  9
$USERI4
 70
     0
  9
$USERI5
 70
     0
  9
$USERR1
 40
0.0
  9
$USERR2
 40
0.0
  9
$USERR3
 40
0.0
  9
$USERR4
 40
0.0
  9
$USERR5
 40
0.0
  9
$WORLDVIEW
 70
     1
  9
$SHADEDGE
 70
     3
  9
$SHADEDIF
 70
    70
  9
$TILEMODE
 70
     1
  9
$MAXACTVP
 70
    64
  9
$PINSBASE
 10
0.0
 20
0.0
 30
0.0
  9
$PLIMCHECK
 70
     0
  9
$PEXTMIN
 10
0.0
 20
0.0
 30
0.0
  9
$PEXTMAX
 10
420.0
 20
297.0
 30
0.0
  9
$PLIMMIN
 10
0.0
 20
0.0
  9
$PLIMMAX
 10
420.0
 20
297.0
  9
$UNITMODE
 70
     0
  9
$VISRETAIN
 70
     1
  9
$PLINEGEN
 70
     0
  9
$PSLTSCALE
 70
     1
  9
$TREEDEPTH
 70
  3020
  9
$CMLSTYLE
  2
Standard
  9
$CMLJUST
 70
     0
  9
$CMLSCALE
 40
1.0
  9
$PROXYGRAPHICS
 70
     1
  9
$MEASUREMENT
 70
     1
  9
$CELWEIGHT
370
    -1
  9
$ENDCAPS
280
     0
  9
$JOINSTYLE
280
     0
  9
$LWDISPLAY
290
     0
  9
$INSUNITS
 70
     4
  9
$HYPERLINKBASE
  1

  9
$STYLESHEET
  1

  9
$XEDIT
290
     1
  9
$CEPSNTYPE
380
     0
  9
$PSTYLEMODE
290
     1
  9
$FINGERPRINTGUID
  2
{E730ABE2-4B3B-486F-BBAC-804C2364A1FA}
  9
$VERSIONGUID
  2
{FAEB1C32-E019-11D5-929B-00C0DF256EC4}
  9
$EXTNAMES
290
     1
  9
$PSVPSCALE
 40
0.0
  9
$OLESTARTUP
290
     0
  9
$SORTENTS
280
   127
  9
$INDEXCTL
280
     0
  9
$HIDETEXT
280
     1
  9
$XCLIPFRAME
280
     2
  9
$HALOGAP
280
     0
  9
$OBSCOLOR
 70
   257
  9
$OBSLTYPE
280
     0
  9
$INTERSECTIONDISPLAY
280
     0
  9
$INTERSECTIONCOLOR
 70
   257
  9
$DIMASSOC
280
     1
  9
$PROJECTNAME
  1

  9
$CAMERADISPLAY
290
     0
  9
$LENSLENGTH
 40
50.0
  9
$CAMERAHEIGHT
 40
0.0
  9
$STEPSPERSEC
 40
2.0
  9
$STEPSIZE
 40
6.0
  9
$3DDWFPREC
 40
2.0
  9
$PSOLWIDTH
 40
0.25
  9
$PSOLHEIGHT
 40
4.0
  9
$LOFTANG1
 40
1.570796326794897
  9
$LOFTANG2
 40
1.570796326794897
  9
$LOFTMAG1
 40
0.0
  9
$LOFTMAG2
 40
0.0
  9
$LOFTPARAM
 70
     7
  9
$LOFTNORMALS
280
     1
  9
$LATITUDE
 40
37.795
  9
$LONGITUDE
 40
-122.394
  9
$NORTHDIRECTION
 40
0.0
  9
$TIMEZONE
 70
 -8000
  9
$LIGHTGLYPHDISPLAY
280
     1
  9
$TILEMODELIGHTSYNCH
280
     1
  9
$CMATERIAL
347
44
  9
$SOLIDHIST
280
     1
  9
$SHOWHIST
280
     1
  9
$DWFFRAME
280
     2
  9
$DGNFRAME
280
     2
  9
$REALWORLDSCALE
290
     1
  9
$INTERFERECOLOR
 62
   256
  9
$CSHADOW
280
     0
  9
$SHADOWPLANELOCATION
 40
0.0
  0
ENDSEC
  0
SECTION
  2
CLASSES
  0
CLASS
  1
ACDBDICTIONARYWDFLT
  2
AcDbDictionaryWithDefault
  3
ObjectDBX Classes
 90
        0
 91
        4
280
     0
281
     0
  0
CLASS
  1
VISUALSTYLE
  2
AcDbVisualStyle
  3
ObjectDBX Classes
 90
     4095
 91
        4
280
     0
281
     0
  0
CLASS
  1
MATERIAL
  2
AcDbMaterial
  3
ObjectDBX Classes
 90
     1153
 91
        4
280
     0
281
     0
  0
CLASS
  1
SCALE
  2
AcDbScale
  3
ObjectDBX Classes
 90
     1153
 91
        4
280
     0
281
     0
  0
CLASS
  1
SUN
  2
AcDbSun
  3
SCENEOE
 90
     1153
 91
        4
280
     0
281
     0
  0
CLASS
  1
DICTIONARYVAR
  2
AcDbDictionaryVar
  3
ObjectDBX Classes
 90
        0
 91
        4
280
     0
281
     0
  0
ENDSEC
  0
SECTION
  2
TABLES
  0
TABLE
  2
VPORT
  5
8
330
0
100
AcDbSymbolTable
 70
     1
  0
VPORT
  5
29
330
8
100
AcDbSymbolTableRecord
100
AcDbViewportTableRecord
  2
*Active
 70
     0
 10
0.0
 20
0.0
 11
1.0
 21
1.0
 12
10.42990654205607
 22
4.5
 13
0.0
 23
0.0
 14
0.5
 24
0.5
 15
0.5
 25
0.5
 16
0.0
 26
0.0
 36
1.0
 17
0.0
 27
0.0
 37
0.0
 40
9.0
 41
1.972972972850329
 42
50.0
 43
0.0
 44
0.0
 50
0.0
 51
0.0
 71
     0
 72
   100
 73
     1
 74
     3
 75
     0
 76
     0
 77
     0
 78
     0
281
     0
 65
     1
110
0.0
120
0.0
130
0.0
111
1.0
121
0.0
131
0.0
112
0.0
122
1.0
132
0.0
 79
     0
146
0.0
 60
     3
 61
     5
292
     1
282
     1
141
0.0
142
0.0
 63
   250
361
69
  0
ENDTAB
  0
TABLE
  2
LTYPE
  5
5
330
0
100
AcDbSymbolTable
 70
     9
  0
LTYPE
  5
14
330
5
100
AcDbSymbolTableRecord
100
AcDbLinetypeTableRecord
  2
ByBlock
 70
     0
  3

 72
    65
 73
     0
 40
0.0
  0
LTYPE
  5
15
330
5
100
AcDbSymbolTableRecord
100
AcDbLinetypeTableRecord
  2
ByLayer
 70
     0
  3

 72
    65
 73
     0
 40
0.0
  0
LTYPE
  5
16
330
5
100
AcDbSymbolTableRecord
100
AcDbLinetypeTableRecord
  2
Continuous
 70
     0
  3
Solid line
 72
    65
 73
     0
 40
0.0
  0
LTYPE
  5
B9
330
5
100
AcDbSymbolTableRecord
100
AcDbLinetypeTableRecord
  2
DOT
 70
     0
  3
DOT
 72
    65
 73
     2
 40
4.0
 49
6.0
 74
     0
 49
-2.0
 74
     0
  0
LTYPE
  5
BA
330
5
100
AcDbSymbolTableRecord
100
AcDbLinetypeTableRecord
  2
HIDDEN
 70
     0
  3
HIDDEN
 72
    65
 73
     2
 40
4.2
 49
8.4
 74
     0
 49
-4.2
 74
     0
  0
LTYPE
  5
BB
330
5
100
AcDbSymbolTableRecord
100
AcDbLinetypeTableRecord
  2
DASHDOT
 70
     0
  3
DASHDOT
 72
    65
 73
     4
 40
14.5
 49
30.0
 74
     0
 49
-9.0
 74
     0
 49
2.5
 74
     0
 49
-9.0
 74
     0
  0
LTYPE
  5
BC
330
5
100
AcDbSymbolTableRecord
100
AcDbLinetypeTableRecord
  2
PHANTOM
 70
     0
  3
PHANTOM
 72
    65
 73
     6
 40
12.0
 49
30.0
 74
     0
 49
-9.0
 74
     0
 49
2.5
 74
     0
 49
-5.0
 74
     0
 49
2.5
 74
     0
 49
-9.0
 74
     0
  0
LTYPE
  5
BD
330
5
100
AcDbSymbolTableRecord
100
AcDbLinetypeTableRecord
  2
ACAD_ISO14W100
 70
     0
  3
ACAD_ISO14W100
 72
    65
 73
     8
 40
1.5
 49
12.0
 74
     0
 49
-3.0
 74
     0
 49
0.5
 74
     0
 49
-3.0
 74
     0
 49
0.5
 74
     0
 49
-3.0
 74
     0
 49
0.5
 74
     0
 49
-3.0
 74
     0
  0
LTYPE
  5
BE
330
5
100
AcDbSymbolTableRecord
100
AcDbLinetypeTableRecord
  2
ACAD_ISO06W100
 70
     0
  3
ACAD_ISO06W100
 72
    65
 73
     8
 40
13.5
 49
24.0
 74
     0
 49
-3.0
 74
     0
 49
0.5
 74
     0
 49
-3.0
 74
     0
 49
0.5
 74
     0
 49
-3.0
 74
     0
 49
0.5
 74
     0
 49
-3.0
 74
     0
  0
LTYPE
  5
BF
330
5
100
AcDbSymbolTableRecord
100
AcDbLinetypeTableRecord
  2
ACAD_ISO11W100
 70
     0
  3
ACAD_ISO11W100
 72
    65
 73
     6
 40
15.5
 49
12.0
 74
     0
 49
-3.0
 74
     0
 49
12.0
 74
     0
 49
-3.0
 74
     0
 49
0.5
 74
     0
 49
-3.0
 74
     0
  0
LTYPE
  5
C0
330
5
100
AcDbSymbolTableRecord
100
AcDbLinetypeTableRecord
  2
ACAD_ISO13W100
 70
     0
  3
ACAD_ISO13W100
 72
    65
 73
     8
 40
13.0
 49
12.0
 74
     0
 49
-3.0
 74
     0
 49
12.0
 74
     0
 49
-3.0
 74
     0
 49
0.5
 74
     0
 49
-3.0
 74
     0
 49
0.5
 74
     0
 49
-3.0
 74
     0
  0
ENDTAB
  0
TABLE
  2
LAYER
  5
2
330
0
100
AcDbSymbolTable
 70
    35
  0
LAYER
  5
10
330
2
100
AcDbSymbolTableRecord
100
AcDbLayerTableRecord
  2
0
 70
     0
 62
     7
  6
Continuous
370
    -3
390
F
347
46
348
0
  0
LAYER
  5
C1
330
2
100
AcDbSymbolTableRecord
100
AcDbLayerTableRecord
  2
1
 70
     0
 62
     6
  6
Continuous
370
    53
390
F
347
46
348
0
  0
LAYER
  5
C2
330
2
100
AcDbSymbolTableRecord
100
AcDbLayerTableRecord
  2
2
 70
     0
 62
     2
  6
HIDDEN
370
    25
390
F
347
46
348
0
  0
LAYER
  5
C3
330
2
100
AcDbSymbolTableRecord
100
AcDbLayerTableRecord
  2
3
 70
     0
 62
     1
  6
DASHDOT
370
    25
390
F
347
46
348
0
  0
LAYER
  5
C4
330
2
100
AcDbSymbolTableRecord
100
AcDbLayerTableRecord
  2
4
 70
     0
 62
     2
  6
PHANTOM
370
    25
390
F
347
46
348
0
  0
LAYER
  5
C5
330
2
100
AcDbSymbolTableRecord
100
AcDbLayerTableRecord
  2
5
 70
     0
 62
     4
  6
Continuous
370
    25
390
F
347
46
348
0
  0
LAYER
  5
C6
330
2
100
AcDbSymbolTableRecord
100
AcDbLayerTableRecord
  2
6
 70
     0
 62
     3
  6
Continuous
370
    25
390
F
347
46
348
0
  0
LAYER
  5
C7
330
2
100
AcDbSymbolTableRecord
100
AcDbLayerTableRecord
  2
7
 70
     0
 62
     3
  6
Continuous
370
    25
390
F
347
46
348
0
  0
LAYER
  5
C8
330
2
100
AcDbSymbolTableRecord
100
AcDbLayerTableRecord
  2
8
 70
     0
 62
     4
  6
Continuous
370
    25
390
F
347
46
348
0
  0
LAYER
  5
C9
330
2
100
AcDbSymbolTableRecord
100
AcDbLayerTableRecord
  2
9
 70
     0
 62
     7
  6
Continuous
370
    35
390
F
347
46
348
0
  0
LAYER
  5
CA
330
2
100
AcDbSymbolTableRecord
100
AcDbLayerTableRecord
  2
10
 70
     0
 62
     6
  6
Continuous
370
    53
390
F
347
46
348
0
  0
LAYER
  5
CB
330
2
100
AcDbSymbolTableRecord
100
AcDbLayerTableRecord
  2
11
 70
     0
 62
     2
  6
HIDDEN
370
    25
390
F
347
46
348
0
  0
LAYER
  5
CC
330
2
100
AcDbSymbolTableRecord
100
AcDbLayerTableRecord
  2
12
 70
     0
 62
     5
  6
Continuous
370
    53
390
F
347
46
348
0
  0
LAYER
  5
CD
330
2
100
AcDbSymbolTableRecord
100
AcDbLayerTableRecord
  2
13
 70
     0
 62
     7
  6
Continuous
370
     9
390
F
347
46
348
0
  0
LAYER
  5
CE
330
2
100
AcDbSymbolTableRecord
100
AcDbLayerTableRecord
  2
14
 70
     0
 62
     7
  6
Continuous
370
     9
390
F
347
46
348
0
  0
LAYER
  5
CF
330
2
100
AcDbSymbolTableRecord
100
AcDbLayerTableRecord
  2
15
 70
     0
 62
     7
  6
Continuous
370
    35
390
F
347
46
348
0
  0
LAYER
  5
D0
330
2
100
AcDbSymbolTableRecord
100
AcDbLayerTableRecord
  2
16
 70
     0
 62
     7
  6
HIDDEN
370
     9
390
F
347
46
348
0
  0
LAYER
  5
D1
330
2
100
AcDbSymbolTableRecord
100
AcDbLayerTableRecord
  2
17
 70
     0
 62
     7
  6
Continuous
370
     9
390
F
347
46
348
0
  0
LAYER
  5
D2
330
2
100
AcDbSymbolTableRecord
100
AcDbLayerTableRecord
  2
18
 70
     0
 62
     4
  6
Continuous
370
     9
390
F
347
46
348
0
  0
LAYER
  5
D3
330
2
100
AcDbSymbolTableRecord
100
AcDbLayerTableRecord
  2
19
 70
     0
 62
     7
  6
Continuous
370
     9
390
F
347
46
348
0
  0
LAYER
  5
D4
330
2
100
AcDbSymbolTableRecord
100
AcDbLayerTableRecord
  2
20
 70
     0
 62
     6
  6
PHANTOM
370
     9
390
F
347
46
348
0
  0
LAYER
  5
D5
330
2
100
AcDbSymbolTableRecord
100
AcDbLayerTableRecord
  2
21
 70
     0
 62
     1
  6
Continuous
370
     9
390
F
347
46
348
0
  0
LAYER
  5
D6
330
2
100
AcDbSymbolTableRecord
100
AcDbLayerTableRecord
  2
22
 70
     0
 62
     7
  6
Continuous
370
     9
390
F
347
46
348
0
  0
LAYER
  5
D7
330
2
100
AcDbSymbolTableRecord
100
AcDbLayerTableRecord
  2
23
 70
     0
 62
     4
  6
Continuous
370
     9
390
F
347
46
348
0
  0
LAYER
  5
D8
330
2
100
AcDbSymbolTableRecord
100
AcDbLayerTableRecord
  2
24
 70
     0
 62
     1
  6
DASHDOT
370
     9
390
F
347
46
348
0
  0
LAYER
  5
D9
330
2
100
AcDbSymbolTableRecord
100
AcDbLayerTableRecord
  2
25
 70
     0
 62
     1
  6
HIDDEN
370
     9
390
F
347
46
348
0
  0
LAYER
  5
DA
330
2
100
AcDbSymbolTableRecord
100
AcDbLayerTableRecord
  2
26
 70
     0
 62
     2
  6
Continuous
370
     9
390
F
347
46
348
0
  0
LAYER
  5
DB
330
2
100
AcDbSymbolTableRecord
100
AcDbLayerTableRecord
  2
27
 70
     0
 62
     5
  6
HIDDEN
370
     9
390
F
347
46
348
0
  0
LAYER
  5
DC
330
2
100
AcDbSymbolTableRecord
100
AcDbLayerTableRecord
  2
28
 70
     0
 62
     3
  6
Continuous
370
     9
390
F
347
46
348
0
  0
LAYER
  5
DD
330
2
100
AcDbSymbolTableRecord
100
AcDbLayerTableRecord
  2
29
 70
     0
 62
     7
  6
HIDDEN
370
    50
390
F
347
46
348
0
  0
LAYER
  5
DE
330
2
100
AcDbSymbolTableRecord
100
AcDbLayerTableRecord
  2
30
 70
     0
 62
     7
  6
DASHDOT
370
    50
390
F
347
46
348
0
  0
LAYER
  5
DF
330
2
100
AcDbSymbolTableRecord
100
AcDbLayerTableRecord
  2
31
 70
     0
 62
     7
  6
Continuous
370
     9
390
F
347
46
348
0
  0
LAYER
  5
E0
330
2
100
AcDbSymbolTableRecord
100
AcDbLayerTableRecord
  2
32
 70
     0
 62
     7
  6
Continuous
370
     9
390
F
347
46
348
0
  0
LAYER
  5
E1
330
2
100
AcDbSymbolTableRecord
100
AcDbLayerTableRecord
  2
33
 70
     0
 62
     1
  6
DASHDOT
370
     9
390
F
347
46
348
0
  0
LAYER
  5
E2
330
2
100
AcDbSymbolTableRecord
100
AcDbLayerTableRecord
  2
34
 70
     0
 62
     7
  6
Continuous
370
     9
390
F
347
46
348
0
  0
ENDTAB
  0
TABLE
  2
STYLE
  5
3
330
0
100
AcDbSymbolTable
 70
     3
  0
STYLE
  5
11
330
3
100
AcDbSymbolTableRecord
100
AcDbTextStyleTableRecord
  2
Standard
 70
     0
 40
0.0
 41
1.0
 50
0.0
 71
     0
 42
26.4
  3
txt
  4
bigfont
  0
STYLE
  5
6C
330
3
100
AcDbSymbolTableRecord
100
AcDbTextStyleTableRecord
  2
T_STANDARD
 70
     4
 40
10.0
 41
1.0
 50
0.0
 71
     0
 42
26.4
  3
txt
  4
bigfont
1001
ACAD
1000

1071
      256
  0
STYLE
  5
2B8
330
3
100
AcDbSymbolTableRecord
100
AcDbTextStyleTableRecord
  2
ＭＳ Ｐゴシック
 70
     0
 40
0.0
 41
1.0
 50
0.0
 71
     0
 42
26.4
  3

  4

1001
ACAD
1000
ＭＳ Ｐゴシック
1071
      256
  0
ENDTAB
  0
TABLE
  2
VIEW
  5
6
330
0
100
AcDbSymbolTable
 70
     0
  0
ENDTAB
  0
TABLE
  2
UCS
  5
7
330
0
100
AcDbSymbolTable
 70
     0
  0
ENDTAB
  0
TABLE
  2
APPID
  5
9
330
0
100
AcDbSymbolTable
 70
     2
  0
APPID
  5
12
330
9
100
AcDbSymbolTableRecord
100
AcDbRegAppTableRecord
  2
ACAD
 70
     0
  0
APPID
  5
6B
330
9
100
AcDbSymbolTableRecord
100
AcDbRegAppTableRecord
  2
ODA
 70
     0
  0
ENDTAB
  0
TABLE
  2
DIMSTYLE
  5
A
330
0
100
AcDbSymbolTable
 70
     1
100
AcDbDimStyleTable
  0
DIMSTYLE
105
27
102
{ACAD_REACTORS
330
2C2
330
2CC
330
2D6
330
2E0
330
2EA
330
2F4
330
2FE
330
308
330
312
330
31C
330
326
102
}
330
A
100
AcDbSymbolTableRecord
100
AcDbDimStyleTableRecord
  2
Standard
 70
     0
178
     0
340
11
  0
ENDTAB
  0
TABLE
  2
BLOCK_RECORD
  5
1
330
0
100
AcDbSymbolTable
 70
    27
  0
BLOCK_RECORD
  5
1F
330
1
100
AcDbSymbolTableRecord
100
AcDbBlockTableRecord
  2
*Model_Space
340
22
 70
     0
280
     1
281
     0
  0
BLOCK_RECORD
  5
1B
330
1
100
AcDbSymbolTableRecord
100
AcDbBlockTableRecord
  2
*Paper_Space
340
1E
 70
     0
280
     1
281
     0
  0
BLOCK_RECORD
  5
23
330
1
100
AcDbSymbolTableRecord
100
AcDbBlockTableRecord
  2
*Paper_Space0
340
26
 70
     0
280
     1
281
     0
  0
BLOCK_RECORD
  5
6D
330
1
100
AcDbSymbolTableRecord
100
AcDbBlockTableRecord
  2
_ORIGIN
340
0
 70
     0
280
     1
281
     0
  0
BLOCK_RECORD
  5
72
330
1
100
AcDbSymbolTableRecord
100
AcDbBlockTableRecord
  2
_DOTBLANK
340
0
 70
     0
280
     1
281
     0
  0
BLOCK_RECORD
  5
77
330
1
100
AcDbSymbolTableRecord
100
AcDbBlockTableRecord
  2
_DOT
340
0
 70
     0
280
     1
281
     0
  0
BLOCK_RECORD
  5
7C
330
1
100
AcDbSymbolTableRecord
100
AcDbBlockTableRecord
  2
_OPEN
340
0
102
{BLKREFS
331
2C0
331
2C1
331
2CA
331
2CB
331
2D4
331
2D5
331
2DE
331
2DF
331
2E8
331
2E9
331
2F2
331
2F3
331
2FC
331
2FD
331
306
331
307
331
310
331
311
331
31A
331
31B
331
324
331
325
331
327
331
32F
331
337
331
33F
102
}
 70
     0
280
     1
281
     0
  0
BLOCK_RECORD
  5
82
330
1
100
AcDbSymbolTableRecord
100
AcDbBlockTableRecord
  2
_CLOSED
340
0
 70
     0
280
     1
281
     0
  0
BLOCK_RECORD
  5
89
330
1
100
AcDbSymbolTableRecord
100
AcDbBlockTableRecord
  2
_CLOSEDBLANK
340
0
 70
     0
280
     1
281
     0
  0
BLOCK_RECORD
  5
8F
330
1
100
AcDbSymbolTableRecord
100
AcDbBlockTableRecord
  2
_ARROWFILLED
340
0
 70
     0
280
     1
281
     0
  0
BLOCK_RECORD
  5
93
330
1
100
AcDbSymbolTableRecord
100
AcDbBlockTableRecord
  2
_BOXBLANK
340
0
 70
     0
280
     1
281
     0
  0
BLOCK_RECORD
  5
9B
330
1
100
AcDbSymbolTableRecord
100
AcDbBlockTableRecord
  2
_BOXFILLED
340
0
 70
     0
280
     1
281
     0
  0
BLOCK_RECORD
  5
A0
330
1
100
AcDbSymbolTableRecord
100
AcDbBlockTableRecord
  2
_INTEGRAL
340
0
 70
     0
280
     1
281
     0
  0
BLOCK_RECORD
  5
A5
330
1
100
AcDbSymbolTableRecord
100
AcDbBlockTableRecord
  2
_OBLIQUE
340
0
 70
     0
280
     1
281
     0
  0
BLOCK_RECORD
  5
A9
330
1
100
AcDbSymbolTableRecord
100
AcDbBlockTableRecord
  2
_NONE
340
0
 70
     0
280
     1
281
     0
  0
BLOCK_RECORD
  5
AC
330
1
100
AcDbSymbolTableRecord
100
AcDbBlockTableRecord
  2
MARK_OPEN
340
0
 70
     0
280
     1
281
     0
  0
BLOCK_RECORD
  5
B1
330
1
100
AcDbSymbolTableRecord
100
AcDbBlockTableRecord
  2
MARK_ORIGIN
340
0
 70
     0
280
     1
281
     0
  0
BLOCK_RECORD
  5
B5
330
1
100
AcDbSymbolTableRecord
100
AcDbBlockTableRecord
  2
MARK_DOT
340
0
 70
     0
280
     1
281
     0
  0
BLOCK_RECORD
  5
2B9
330
1
100
AcDbSymbolTableRecord
100
AcDbBlockTableRecord
  2
Dim1
340
0
 70
     0
280
     1
281
     0
  0
BLOCK_RECORD
  5
2C3
330
1
100
AcDbSymbolTableRecord
100
AcDbBlockTableRecord
  2
Dim2
340
0
 70
     0
280
     1
281
     0
  0
BLOCK_RECORD
  5
2CD
330
1
100
AcDbSymbolTableRecord
100
AcDbBlockTableRecord
  2
Dim3
340
0
 70
     0
280
     1
281
     0
  0
BLOCK_RECORD
  5
2D7
330
1
100
AcDbSymbolTableRecord
100
AcDbBlockTableRecord
  2
Dim4
340
0
 70
     0
280
     1
281
     0
  0
BLOCK_RECORD
  5
2E1
330
1
100
AcDbSymbolTableRecord
100
AcDbBlockTableRecord
  2
Dim5
340
0
 70
     0
280
     1
281
     0
  0
BLOCK_RECORD
  5
2EB
330
1
100
AcDbSymbolTableRecord
100
AcDbBlockTableRecord
  2
Dim6
340
0
 70
     0
280
     1
281
     0
  0
BLOCK_RECORD
  5
2F5
330
1
100
AcDbSymbolTableRecord
100
AcDbBlockTableRecord
  2
Dim7
340
0
 70
     0
280
     1
281
     0
  0
BLOCK_RECORD
  5
2FF
330
1
100
AcDbSymbolTableRecord
100
AcDbBlockTableRecord
  2
Dim8
340
0
 70
     0
280
     1
281
     0
  0
BLOCK_RECORD
  5
309
330
1
100
AcDbSymbolTableRecord
100
AcDbBlockTableRecord
  2
Dim9
340
0
 70
     0
280
     1
281
     0
  0
BLOCK_RECORD
  5
313
330
1
100
AcDbSymbolTableRecord
100
AcDbBlockTableRecord
  2
Dim10
340
0
 70
     0
280
     1
281
     0
  0
BLOCK_RECORD
  5
31D
330
1
100
AcDbSymbolTableRecord
100
AcDbBlockTableRecord
  2
Dim11
340
0
 70
     0
280
     1
281
     0
  0
ENDTAB
  0
ENDSEC
  0
SECTION
  2
BLOCKS
  0
BLOCK
  5
20
330
1F
100
AcDbEntity
  8
0
100
AcDbBlockBegin
  2
*Model_Space
 70
     0
 10
0.0
 20
0.0
 30
0.0
  3
*Model_Space
  1
*Model_Space
  0
ENDBLK
  5
21
330
1F
100
AcDbEntity
  8
0
100
AcDbBlockEnd
  0
BLOCK
  5
1C
330
1B
100
AcDbEntity
 67
     1
  8
0
100
AcDbBlockBegin
  2
*Paper_Space
 70
     0
 10
0.0
 20
0.0
 30
0.0
  3
*Paper_Space
  1
*Paper_Space
  0
ENDBLK
  5
1D
330
1B
100
AcDbEntity
 67
     1
  8
0
100
AcDbBlockEnd
  0
BLOCK
  5
24
330
23
100
AcDbEntity
  8
0
100
AcDbBlockBegin
  2
*Paper_Space0
 70
     0
 10
0.0
 20
0.0
 30
0.0
  3
*Paper_Space0
  1
*Paper_Space0
  0
ENDBLK
  5
25
330
23
100
AcDbEntity
  8
0
100
AcDbBlockEnd
  0
BLOCK
  5
70
330
6D
100
AcDbEntity
  8
0
100
AcDbBlockBegin
  2
_ORIGIN
 70
     0
 10
0.0
 20
0.0
 30
0.0
  3
_ORIGIN
  1
_ORIGIN
  0
CIRCLE
  5
6E
330
6D
100
AcDbEntity
  8
0
 62
     0
100
AcDbCircle
 10
0.0
 20
0.0
 30
0.0
 40
0.5
  0
LINE
  5
6F
330
6D
100
AcDbEntity
  8
0
 62
     0
100
AcDbLine
 10
0.0
 20
0.0
 30
0.0
 11
-1.0
 21
0.0
 31
0.0
  0
ENDBLK
  5
71
330
6D
100
AcDbEntity
  8
0
100
AcDbBlockEnd
  0
BLOCK
  5
75
330
72
100
AcDbEntity
  8
0
100
AcDbBlockBegin
  2
_DOTBLANK
 70
     0
 10
0.0
 20
0.0
 30
0.0
  3
_DOTBLANK
  1
_DOTBLANK
  0
CIRCLE
  5
73
330
72
100
AcDbEntity
  8
0
 62
     0
100
AcDbCircle
 10
0.0
 20
0.0
 30
0.0
 40
0.5
  0
LINE
  5
74
330
72
100
AcDbEntity
  8
0
 62
     0
100
AcDbLine
 10
-0.5
 20
0.0
 30
0.0
 11
-1.0
 21
0.0
 31
0.0
  0
ENDBLK
  5
76
330
72
100
AcDbEntity
  8
0
100
AcDbBlockEnd
  0
BLOCK
  5
7A
330
77
100
AcDbEntity
  8
0
100
AcDbBlockBegin
  2
_DOT
 70
     0
 10
0.0
 20
0.0
 30
0.0
  3
_DOT
  1
_DOT
  0
LWPOLYLINE
  5
78
330
77
100
AcDbEntity
  8
0
 62
     0
100
AcDbPolyline
 90
        2
 70
     1
 43
0.5
 10
-0.25
 20
0.0
 42
1.0
 10
0.25
 20
0.0
 42
1.0
  0
LINE
  5
79
330
77
100
AcDbEntity
  8
0
 62
     0
100
AcDbLine
 10
-0.5
 20
0.0
 30
0.0
 11
-1.0
 21
0.0
 31
0.0
  0
ENDBLK
  5
7B
330
77
100
AcDbEntity
  8
0
100
AcDbBlockEnd
  0
BLOCK
  5
80
330
7C
100
AcDbEntity
  8
0
100
AcDbBlockBegin
  2
_OPEN
 70
     0
 10
0.0
 20
0.0
 30
0.0
  3
_OPEN
  1
_OPEN
  0
LINE
  5
7D
330
7C
100
AcDbEntity
  8
0
 62
     0
100
AcDbLine
 10
0.0
 20
0.0
 30
0.0
 11
-1.0
 21
0.1666666666666667
 31
0.0
  0
LINE
  5
7E
330
7C
100
AcDbEntity
  8
0
 62
     0
100
AcDbLine
 10
0.0
 20
0.0
 30
0.0
 11
-1.0
 21
-0.1666666666666667
 31
0.0
  0
LINE
  5
7F
330
7C
100
AcDbEntity
  8
0
 62
     0
100
AcDbLine
 10
0.0
 20
0.0
 30
0.0
 11
-1.0
 21
0.0
 31
0.0
  0
ENDBLK
  5
81
330
7C
100
AcDbEntity
  8
0
100
AcDbBlockEnd
  0
BLOCK
  5
87
330
82
100
AcDbEntity
  8
0
100
AcDbBlockBegin
  2
_CLOSED
 70
     0
 10
0.0
 20
0.0
 30
0.0
  3
_CLOSED
  1
_CLOSED
  0
LINE
  5
83
330
82
100
AcDbEntity
  8
0
 62
     0
100
AcDbLine
 10
0.0
 20
0.0
 30
0.0
 11
-1.0
 21
0.1666666666666667
 31
0.0
  0
LINE
  5
84
330
82
100
AcDbEntity
  8
0
 62
     0
100
AcDbLine
 10
0.0
 20
0.0
 30
0.0
 11
-1.0
 21
-0.1666666666666667
 31
0.0
  0
LINE
  5
85
330
82
100
AcDbEntity
  8
0
 62
     0
100
AcDbLine
 10
-1.0
 20
0.1666666666666667
 30
0.0
 11
-1.0
 21
-0.1666666666666667
 31
0.0
  0
LINE
  5
86
330
82
100
AcDbEntity
  8
0
 62
     0
100
AcDbLine
 10
0.0
 20
0.0
 30
0.0
 11
-1.0
 21
0.0
 31
0.0
  0
ENDBLK
  5
88
330
82
100
AcDbEntity
  8
0
100
AcDbBlockEnd
  0
BLOCK
  5
8D
330
89
100
AcDbEntity
  8
0
100
AcDbBlockBegin
  2
_CLOSEDBLANK
 70
     0
 10
0.0
 20
0.0
 30
0.0
  3
_CLOSEDBLANK
  1
_CLOSEDBLANK
  0
LINE
  5
8A
330
89
100
AcDbEntity
  8
0
 62
     0
100
AcDbLine
 10
0.0
 20
0.0
 30
0.0
 11
-1.0
 21
0.1666666666666667
 31
0.0
  0
LINE
  5
8B
330
89
100
AcDbEntity
  8
0
 62
     0
100
AcDbLine
 10
0.0
 20
0.0
 30
0.0
 11
-1.0
 21
-0.1666666666666667
 31
0.0
  0
LINE
  5
8C
330
89
100
AcDbEntity
  8
0
 62
     0
100
AcDbLine
 10
-1.0
 20
0.1666666666666667
 30
0.0
 11
-1.0
 21
-0.1666666666666667
 31
0.0
  0
ENDBLK
  5
8E
330
89
100
AcDbEntity
  8
0
100
AcDbBlockEnd
  0
BLOCK
  5
91
330
8F
100
AcDbEntity
  8
0
100
AcDbBlockBegin
  2
_ARROWFILLED
 70
     0
 10
0.0
 20
0.0
 30
0.0
  3
_ARROWFILLED
  1
_ARROWFILLED
  0
SOLID
  5
90
330
8F
100
AcDbEntity
  8
0
 62
     0
100
AcDbTrace
 10
0.0
 20
0.0
 30
0.0
 11
-1.0
 21
-0.1666666666666667
 31
0.0
 12
-1.0
 22
0.1666666666666667
 32
0.0
 13
0.0
 23
0.0
 33
0.0
  0
ENDBLK
  5
92
330
8F
100
AcDbEntity
  8
0
100
AcDbBlockEnd
  0
BLOCK
  5
99
330
93
100
AcDbEntity
  8
0
100
AcDbBlockBegin
  2
_BOXBLANK
 70
     0
 10
0.0
 20
0.0
 30
0.0
  3
_BOXBLANK
  1
_BOXBLANK
  0
LINE
  5
94
330
93
100
AcDbEntity
  8
0
 62
     0
100
AcDbLine
 10
-0.5
 20
-0.5
 30
0.0
 11
0.5
 21
-0.5
 31
0.0
  0
LINE
  5
95
330
93
100
AcDbEntity
  8
0
 62
     0
100
AcDbLine
 10
0.5
 20
-0.5
 30
0.0
 11
0.5
 21
0.5
 31
0.0
  0
LINE
  5
96
330
93
100
AcDbEntity
  8
0
 62
     0
100
AcDbLine
 10
0.5
 20
0.5
 30
0.0
 11
-0.5
 21
0.5
 31
0.0
  0
LINE
  5
97
330
93
100
AcDbEntity
  8
0
 62
     0
100
AcDbLine
 10
-0.5
 20
0.5
 30
0.0
 11
-0.5
 21
-0.5
 31
0.0
  0
LINE
  5
98
330
93
100
AcDbEntity
  8
0
 62
     0
100
AcDbLine
 10
-0.5
 20
0.0
 30
0.0
 11
-1.0
 21
0.0
 31
0.0
  0
ENDBLK
  5
9A
330
93
100
AcDbEntity
  8
0
100
AcDbBlockEnd
  0
BLOCK
  5
9E
330
9B
100
AcDbEntity
  8
0
100
AcDbBlockBegin
  2
_BOXFILLED
 70
     0
 10
0.0
 20
0.0
 30
0.0
  3
_BOXFILLED
  1
_BOXFILLED
  0
SOLID
  5
9C
330
9B
100
AcDbEntity
  8
0
 62
     0
100
AcDbTrace
 10
-0.5
 20
0.5
 30
0.0
 11
0.5
 21
0.5
 31
0.0
 12
-0.5
 22
-0.5
 32
0.0
 13
0.5
 23
-0.5
 33
0.0
  0
LINE
  5
9D
330
9B
100
AcDbEntity
  8
0
 62
     0
100
AcDbLine
 10
-0.5
 20
0.0
 30
0.0
 11
-1.0
 21
0.0
 31
0.0
  0
ENDBLK
  5
9F
330
9B
100
AcDbEntity
  8
0
100
AcDbBlockEnd
  0
BLOCK
  5
A3
330
A0
100
AcDbEntity
  8
0
100
AcDbBlockBegin
  2
_INTEGRAL
 70
     0
 10
0.0
 20
0.0
 30
0.0
  3
_INTEGRAL
  1
_INTEGRAL
  0
ARC
  5
A1
330
A0
100
AcDbEntity
  8
0
 62
     0
100
AcDbCircle
 10
0.444888
 20
-0.0913346
 30
0.0
 40
0.4541666
100
AcDbArc
 50
101.9999999999999
 51
167.9999999999998
  0
ARC
  5
A2
330
A0
100
AcDbEntity
  8
0
 62
     0
100
AcDbCircle
 10
-0.444888
 20
0.0913346
 30
0.0
 40
0.4541666
100
AcDbArc
 50
281.9999999999997
 51
347.9999999999997
  0
ENDBLK
  5
A4
330
A0
100
AcDbEntity
  8
0
100
AcDbBlockEnd
  0
BLOCK
  5
A7
330
A5
100
AcDbEntity
  8
0
100
AcDbBlockBegin
  2
_OBLIQUE
 70
     0
 10
0.0
 20
0.0
 30
0.0
  3
_OBLIQUE
  1
_OBLIQUE
  0
LINE
  5
A6
330
A5
100
AcDbEntity
  8
0
 62
     0
100
AcDbLine
 10
-0.5
 20
-0.5
 30
0.0
 11
0.5
 21
0.5
 31
0.0
  0
ENDBLK
  5
A8
330
A5
100
AcDbEntity
  8
0
100
AcDbBlockEnd
  0
BLOCK
  5
AA
330
A9
100
AcDbEntity
  8
0
100
AcDbBlockBegin
  2
_NONE
 70
     0
 10
0.0
 20
0.0
 30
0.0
  3
_NONE
  1
_NONE
  0
ENDBLK
  5
AB
330
A9
100
AcDbEntity
  8
0
100
AcDbBlockEnd
  0
BLOCK
  5
AF
330
AC
100
AcDbEntity
  8
0
100
AcDbBlockBegin
  2
MARK_OPEN
 70
     0
 10
0.0
 20
0.0
 30
0.0
  3
MARK_OPEN
  1
MARK_OPEN
  0
LINE
  5
AD
330
AC
100
AcDbEntity
  8
0
 62
     0
100
AcDbLine
 10
0.0
 20
0.0
 30
0.0
 11
-1.0
 21
0.1666666666666667
 31
0.0
  0
LINE
  5
AE
330
AC
100
AcDbEntity
  8
0
 62
     0
100
AcDbLine
 10
0.0
 20
0.0
 30
0.0
 11
-1.0
 21
-0.1666666666666667
 31
0.0
  0
ENDBLK
  5
B0
330
AC
100
AcDbEntity
  8
0
100
AcDbBlockEnd
  0
BLOCK
  5
B3
330
B1
100
AcDbEntity
  8
0
100
AcDbBlockBegin
  2
MARK_ORIGIN
 70
     0
 10
0.0
 20
0.0
 30
0.0
  3
MARK_ORIGIN
  1
MARK_ORIGIN
  0
CIRCLE
  5
B2
330
B1
100
AcDbEntity
  8
0
 62
     0
100
AcDbCircle
 10
0.0
 20
0.0
 30
0.0
 40
0.5
  0
ENDBLK
  5
B4
330
B1
100
AcDbEntity
  8
0
100
AcDbBlockEnd
  0
BLOCK
  5
B7
330
B5
100
AcDbEntity
  8
0
100
AcDbBlockBegin
  2
MARK_DOT
 70
     0
 10
0.0
 20
0.0
 30
0.0
  3
MARK_DOT
  1
MARK_DOT
  0
LWPOLYLINE
  5
B6
330
B5
100
AcDbEntity
  8
0
 62
     0
100
AcDbPolyline
 90
        2
 70
     1
 43
0.5
 10
-0.25
 20
0.0
 42
1.0
 10
0.25
 20
0.0
 42
1.0
  0
ENDBLK
  5
B8
330
B5
100
AcDbEntity
  8
0
100
AcDbBlockEnd
  0
BLOCK
  5
2BA
330
2B9
100
AcDbEntity
  8
0
100
AcDbBlockBegin
  2
Dim1
 70
     0
 10
0.0
 20
0.0
 30
0.0
  3
Dim1
  1
Dim1
  0
LINE
  5
2BC
330
2B9
100
AcDbEntity
  8
6
  6
Continuous
 62
     3
370
     9
100
AcDbLine
 10
1710.495723403135
 20
1423.075943195717
 30
0.0
 11
1710.495723403135
 21
1548.749627681498
 31
0.0
  0
LINE
  5
2BD
330
2B9
100
AcDbEntity
  8
6
  6
Continuous
 62
     3
370
     9
100
AcDbLine
 10
2110.495723403135
 20
1423.075943195717
 30
0.0
 11
2110.495723403135
 21
1548.749627681498
 31
0.0
  0
LINE
  5
2BE
330
2B9
100
AcDbEntity
  8
6
  6
Continuous
 62
     3
370
     9
100
AcDbLine
 10
1710.495723403135
 20
1540.749627681498
 30
0.0
 11
2110.495723403135
 21
1540.749627681498
 31
0.0
  0
MTEXT
  5
2BF
330
2B9
100
AcDbEntity
  8
6
  6
Continuous
 62
     3
370
     9
100
AcDbMText
 10
1908.602600111411
 20
1547.149627681498
 30
0.0
 40
26.4
 41
312.576
 46
26.4
 71
     8
 72
     1
  1
400
  7
ＭＳ Ｐゴシック
 73
     1
 44
1.0
1001
ACAD
1000
ACAD_MTEXT_DEFINED_HEIGHT_BEGIN
1070
    46
1040
26.4
1000
ACAD_MTEXT_DEFINED_HEIGHT_END
  0
INSERT
  5
2C0
330
2B9
100
AcDbEntity
  8
6
  6
Continuous
 62
     3
370
     9
100
AcDbBlockReference
  2
_OPEN
 10
1710.495723403135
 20
1540.749627681498
 30
0.0
 41
18.4
 42
18.4
 43
18.4
 50
179.9999999999998
  0
INSERT
  5
2C1
330
2B9
100
AcDbEntity
  8
6
  6
Continuous
 62
     3
370
     9
100
AcDbBlockReference
  2
_OPEN
 10
2110.495723403135
 20
1540.749627681498
 30
0.0
 41
18.4
 42
18.4
 43
18.4
 50
359.9999999999997
  0
ENDBLK
  5
2BB
330
2B9
100
AcDbEntity
  8
0
100
AcDbBlockEnd
  0
BLOCK
  5
2C4
330
2C3
100
AcDbEntity
  8
0
100
AcDbBlockBegin
  2
Dim2
 70
     0
 10
0.0
 20
0.0
 30
0.0
  3
Dim2
  1
Dim2
  0
LINE
  5
2C6
330
2C3
100
AcDbEntity
  8
6
  6
Continuous
 62
     3
370
     9
100
AcDbLine
 10
2168.495723403135
 20
1483.075943195719
 30
0.0
 11
2229.216058640362
 21
1483.075943195719
 31
0.0
  0
LINE
  5
2C7
330
2C3
100
AcDbEntity
  8
6
  6
Continuous
 62
     3
370
     9
100
AcDbLine
 10
2055.995599833604
 20
1002.075926556914
 30
0.0
 11
2229.216058640362
 21
1002.075926556914
 31
0.0
  0
LINE
  5
2C8
330
2C3
100
AcDbEntity
  8
6
  6
Continuous
 62
     3
370
     9
100
AcDbLine
 10
2221.216058640362
 20
1483.075943195719
 30
0.0
 11
2221.216058640362
 21
1002.075926556914
 31
0.0
  0
MTEXT
  5
2C9
330
2C3
100
AcDbEntity
  8
6
  6
Continuous
 62
     3
370
     9
100
AcDbMText
 10
2217.410529167227
 20
1247.106435193236
 30
0.0
 40
26.4
 41
310.992
 46
26.4
 71
     8
 72
     1
  1
481
  7
ＭＳ Ｐゴシック
 11
1.393499969507555E-15
 21
1.0
 31
0.0
 73
     1
 44
1.0
1001
ACAD
1000
ACAD_MTEXT_DEFINED_HEIGHT_BEGIN
1070
    46
1040
26.4
1000
ACAD_MTEXT_DEFINED_HEIGHT_END
  0
INSERT
  5
2CA
330
2C3
100
AcDbEntity
  8
6
  6
Continuous
 62
     3
370
     9
100
AcDbBlockReference
  2
_OPEN
 10
2221.216058640362
 20
1483.075943195719
 30
0.0
 41
18.4
 42
18.4
 43
18.4
 50
89.99999999999991
  0
INSERT
  5
2CB
330
2C3
100
AcDbEntity
  8
6
  6
Continuous
 62
     3
370
     9
100
AcDbBlockReference
  2
_OPEN
 10
2221.216058640362
 20
1002.075926556914
 30
0.0
 41
18.4
 42
18.4
 43
18.4
 50
269.9999999999999
  0
ENDBLK
  5
2C5
330
2C3
100
AcDbEntity
  8
0
100
AcDbBlockEnd
  0
BLOCK
  5
2CE
330
2CD
100
AcDbEntity
  8
0
100
AcDbBlockBegin
  2
Dim3
 70
     0
 10
0.0
 20
0.0
 30
0.0
  3
Dim3
  1
Dim3
  0
LINE
  5
2D0
330
2CD
100
AcDbEntity
  8
6
  6
Continuous
 62
     3
370
     9
100
AcDbLine
 10
1652.495723403135
 20
1483.075943195719
 30
0.0
 11
1586.921848937703
 21
1483.07594319572
 31
0.0
  0
LINE
  5
2D1
330
2CD
100
AcDbEntity
  8
6
  6
Continuous
 62
     3
370
     9
100
AcDbLine
 10
1858.995723403135
 20
995.0759431937181
 30
0.0
 11
1586.921848937704
 21
995.0759431937189
 31
0.0
  0
LINE
  5
2D2
330
2CD
100
AcDbEntity
  8
6
  6
Continuous
 62
     3
370
     9
100
AcDbLine
 10
1594.921848937703
 20
1483.07594319572
 30
0.0
 11
1594.921848937704
 21
995.0759431937189
 31
0.0
  0
MTEXT
  5
2D3
330
2CD
100
AcDbEntity
  8
6
  6
Continuous
 62
     3
370
     9
100
AcDbMText
 10
1588.521848937703
 20
1238.77466680513
 30
0.0
 40
26.4
 41
356.4
 46
26.4
 71
     8
 72
     1
  1
488
  7
ＭＳ Ｐゴシック
 11
1.393499969507555E-15
 21
1.0
 31
0.0
 73
     1
 44
1.0
1001
ACAD
1000
ACAD_MTEXT_DEFINED_HEIGHT_BEGIN
1070
    46
1040
26.4
1000
ACAD_MTEXT_DEFINED_HEIGHT_END
  0
INSERT
  5
2D4
330
2CD
100
AcDbEntity
  8
6
  6
Continuous
 62
     3
370
     9
100
AcDbBlockReference
  2
_OPEN
 10
1594.921848937703
 20
1483.07594319572
 30
0.0
 41
18.4
 42
18.4
 43
18.4
 50
89.99999999999991
  0
INSERT
  5
2D5
330
2CD
100
AcDbEntity
  8
6
  6
Continuous
 62
     3
370
     9
100
AcDbBlockReference
  2
_OPEN
 10
1594.921848937704
 20
995.0759431937189
 30
0.0
 41
18.4
 42
18.4
 43
18.4
 50
269.9999999999999
  0
ENDBLK
  5
2CF
330
2CD
100
AcDbEntity
  8
0
100
AcDbBlockEnd
  0
BLOCK
  5
2D8
330
2D7
100
AcDbEntity
  8
0
100
AcDbBlockBegin
  2
Dim4
 70
     0
 10
0.0
 20
0.0
 30
0.0
  3
Dim4
  1
Dim4
  0
LINE
  5
2DA
330
2D7
100
AcDbEntity
  8
6
  6
Continuous
 62
     3
370
     9
100
AcDbLine
 10
1028.888688251343
 20
1483.075943195719
 30
0.0
 11
1107.216058640365
 21
1483.075943195719
 31
0.0
  0
LINE
  5
2DB
330
2D7
100
AcDbEntity
  8
6
  6
Continuous
 62
     3
370
     9
100
AcDbLine
 10
1028.888688251343
 20
783.075943195719
 30
0.0
 11
1107.216058640366
 21
783.075943195719
 31
0.0
  0
LINE
  5
2DC
330
2D7
100
AcDbEntity
  8
6
  6
Continuous
 62
     3
370
     9
100
AcDbLine
 10
1099.216058640365
 20
1483.075943195719
 30
0.0
 11
1099.216058640366
 21
783.075943195719
 31
0.0
  0
MTEXT
  5
2DD
330
2D7
100
AcDbEntity
  8
6
  6
Continuous
 62
     3
370
     9
100
AcDbMText
 10
1092.816058640366
 20
1129.180161501705
 30
0.0
 40
26.4
 41
309.54
 46
26.4
 71
     8
 72
     1
  1
700
  7
ＭＳ Ｐゴシック
 11
1.837589179357618E-15
 21
1.0
 31
0.0
 73
     1
 44
1.0
1001
ACAD
1000
ACAD_MTEXT_DEFINED_HEIGHT_BEGIN
1070
    46
1040
26.4
1000
ACAD_MTEXT_DEFINED_HEIGHT_END
  0
INSERT
  5
2DE
330
2D7
100
AcDbEntity
  8
6
  6
Continuous
 62
     3
370
     9
100
AcDbBlockReference
  2
_OPEN
 10
1099.216058640365
 20
1483.075943195719
 30
0.0
 41
18.4
 42
18.4
 43
18.4
 50
89.9999999999999
  0
INSERT
  5
2DF
330
2D7
100
AcDbEntity
  8
6
  6
Continuous
 62
     3
370
     9
100
AcDbBlockReference
  2
_OPEN
 10
1099.216058640366
 20
783.075943195719
 30
0.0
 41
18.4
 42
18.4
 43
18.4
 50
269.9999999999999
  0
ENDBLK
  5
2D9
330
2D7
100
AcDbEntity
  8
0
100
AcDbBlockEnd
  0
BLOCK
  5
2E2
330
2E1
100
AcDbEntity
  8
0
100
AcDbBlockBegin
  2
Dim5
 70
     0
 10
0.0
 20
0.0
 30
0.0
  3
Dim5
  1
Dim5
  0
LINE
  5
2E4
330
2E1
100
AcDbEntity
  8
6
  6
Continuous
 62
     3
370
     9
100
AcDbLine
 10
1910.495723403135
 20
745.075943195719
 30
0.0
 11
1910.495723403135
 21
674.4660505902377
 31
0.0
  0
LINE
  5
2E5
330
2E1
100
AcDbEntity
  8
6
  6
Continuous
 62
     3
370
     9
100
AcDbLine
 10
2030.495599833604
 20
976.5759265569136
 30
0.0
 11
2030.495599833603
 21
674.4660505902377
 31
0.0
  0
LINE
  5
2E6
330
2E1
100
AcDbEntity
  8
6
  6
Continuous
 62
     3
370
     9
100
AcDbLine
 10
1910.495723403135
 20
682.4660505902377
 30
0.0
 11
2030.495599833603
 21
682.4660505902377
 31
0.0
  0
MTEXT
  5
2E7
330
2E1
100
AcDbEntity
  8
6
  6
Continuous
 62
     3
370
     9
100
AcDbMText
 10
1970.104187596999
 20
688.8660505902377
 30
0.0
 40
26.4
 41
288.552
 46
26.4
 71
     8
 72
     1
  1
120
  7
ＭＳ Ｐゴシック
 73
     1
 44
1.0
1001
ACAD
1000
ACAD_MTEXT_DEFINED_HEIGHT_BEGIN
1070
    46
1040
26.4
1000
ACAD_MTEXT_DEFINED_HEIGHT_END
  0
INSERT
  5
2E8
330
2E1
100
AcDbEntity
  8
6
  6
Continuous
 62
     3
370
     9
100
AcDbBlockReference
  2
_OPEN
 10
1910.495723403135
 20
682.4660505902377
 30
0.0
 41
18.4
 42
18.4
 43
18.4
 50
179.9999999999998
  0
INSERT
  5
2E9
330
2E1
100
AcDbEntity
  8
6
  6
Continuous
 62
     3
370
     9
100
AcDbBlockReference
  2
_OPEN
 10
2030.495599833603
 20
682.4660505902377
 30
0.0
 41
18.4
 42
18.4
 43
18.4
 50
359.9999999999997
  0
ENDBLK
  5
2E3
330
2E1
100
AcDbEntity
  8
0
100
AcDbBlockEnd
  0
BLOCK
  5
2EC
330
2EB
100
AcDbEntity
  8
0
100
AcDbBlockBegin
  2
Dim6
 70
     0
 10
0.0
 20
0.0
 30
0.0
  3
Dim6
  1
Dim6
  0
LINE
  5
2EE
330
2EB
100
AcDbEntity
  8
6
  6
Continuous
 62
     3
370
     9
100
AcDbLine
 10
1388.97761046675
 20
1483.075943195719
 30
0.0
 11
1478.846599544682
 21
1483.075943195719
 31
0.0
  0
LINE
  5
2EF
330
2EB
100
AcDbEntity
  8
6
  6
Continuous
 62
     3
370
     9
100
AcDbLine
 10
1406.329928392787
 20
1400.075943195697
 30
0.0
 11
1478.846599544682
 21
1400.075943195697
 31
0.0
  0
LINE
  5
2F0
330
2EB
100
AcDbEntity
  8
6
  6
Continuous
 62
     3
370
     9
100
AcDbLine
 10
1470.846599544682
 20
1483.075943195719
 30
0.0
 11
1470.846599544682
 21
1400.075943195697
 31
0.0
  0
MTEXT
  5
2F1
330
2EB
100
AcDbEntity
  8
6
  6
Continuous
 62
     3
370
     9
100
AcDbMText
 10
1464.446599544682
 20
1441.887502254037
 30
0.0
 40
26.4
 41
222.816
 46
26.4
 71
     8
 72
     1
  1
83
  7
ＭＳ Ｐゴシック
 11
1.615544574432587E-15
 21
1.0
 31
0.0
 73
     1
 44
1.0
1001
ACAD
1000
ACAD_MTEXT_DEFINED_HEIGHT_BEGIN
1070
    46
1040
26.4
1000
ACAD_MTEXT_DEFINED_HEIGHT_END
  0
INSERT
  5
2F2
330
2EB
100
AcDbEntity
  8
6
  6
Continuous
 62
     3
370
     9
100
AcDbBlockReference
  2
_OPEN
 10
1470.846599544682
 20
1483.075943195719
 30
0.0
 41
18.4
 42
18.4
 43
18.4
 50
89.99999999999991
  0
INSERT
  5
2F3
330
2EB
100
AcDbEntity
  8
6
  6
Continuous
 62
     3
370
     9
100
AcDbBlockReference
  2
_OPEN
 10
1470.846599544682
 20
1400.075943195697
 30
0.0
 41
18.4
 42
18.4
 43
18.4
 50
269.9999999999998
  0
ENDBLK
  5
2ED
330
2EB
100
AcDbEntity
  8
0
100
AcDbBlockEnd
  0
BLOCK
  5
2F6
330
2F5
100
AcDbEntity
  8
0
100
AcDbBlockBegin
  2
Dim7
 70
     0
 10
0.0
 20
0.0
 30
0.0
  3
Dim7
  1
Dim7
  0
LINE
  5
2F8
330
2F5
100
AcDbEntity
  8
6
  6
Continuous
 62
     3
370
     9
100
AcDbLine
 10
1406.329928392787
 20
1400.075943195697
 30
0.0
 11
1478.846599587339
 21
1400.075943195697
 31
0.0
  0
LINE
  5
2F9
330
2F5
100
AcDbEntity
  8
6
  6
Continuous
 62
     3
370
     9
100
AcDbLine
 10
1406.329928392787
 20
823.0738775355599
 30
0.0
 11
1478.84659958734
 21
823.0738775355599
 31
0.0
  0
LINE
  5
2FA
330
2F5
100
AcDbEntity
  8
6
  6
Continuous
 62
     3
370
     9
100
AcDbLine
 10
1470.846599587339
 20
1400.075943195697
 30
0.0
 11
1470.84659958734
 21
823.0738775355599
 31
0.0
  0
MTEXT
  5
2FB
330
2F5
100
AcDbEntity
  8
6
  6
Continuous
 62
     3
370
     9
100
AcDbMText
 10
1464.446599587339
 20
1112.928909545524
 30
0.0
 40
26.4
 41
355.7400000000001
 46
26.4
 71
     8
 72
     1
  1
577
  7
ＭＳ Ｐゴシック
 11
1.615544574432587E-15
 21
1.0
 31
0.0
 73
     1
 44
1.0
1001
ACAD
1000
ACAD_MTEXT_DEFINED_HEIGHT_BEGIN
1070
    46
1040
26.4
1000
ACAD_MTEXT_DEFINED_HEIGHT_END
  0
INSERT
  5
2FC
330
2F5
100
AcDbEntity
  8
6
  6
Continuous
 62
     3
370
     9
100
AcDbBlockReference
  2
_OPEN
 10
1470.846599587339
 20
1400.075943195697
 30
0.0
 41
18.4
 42
18.4
 43
18.4
 50
89.99999999999991
  0
INSERT
  5
2FD
330
2F5
100
AcDbEntity
  8
6
  6
Continuous
 62
     3
370
     9
100
AcDbBlockReference
  2
_OPEN
 10
1470.84659958734
 20
823.0738775355599
 30
0.0
 41
18.4
 42
18.4
 43
18.4
 50
269.9999999999999
  0
ENDBLK
  5
2F7
330
2F5
100
AcDbEntity
  8
0
100
AcDbBlockEnd
  0
BLOCK
  5
300
330
2FF
100
AcDbEntity
  8
0
100
AcDbBlockBegin
  2
Dim8
 70
     0
 10
0.0
 20
0.0
 30
0.0
  3
Dim8
  1
Dim8
  0
LINE
  5
302
330
2FF
100
AcDbEntity
  8
6
  6
Continuous
 62
     3
370
     9
100
AcDbLine
 10
1220.97761046675
 20
778.075943195719
 30
0.0
 11
1220.97761046675
 21
674.4660505902377
 31
0.0
  0
LINE
  5
303
330
2FF
100
AcDbEntity
  8
6
  6
Continuous
 62
     3
370
     9
100
AcDbLine
 10
1380.97761046675
 20
775.075943195719
 30
0.0
 11
1380.97761046675
 21
674.4660505902377
 31
0.0
  0
LINE
  5
304
330
2FF
100
AcDbEntity
  8
6
  6
Continuous
 62
     3
370
     9
100
AcDbLine
 10
1220.97761046675
 20
682.4660505902377
 30
0.0
 11
1380.97761046675
 21
682.4660505902377
 31
0.0
  0
MTEXT
  5
305
330
2FF
100
AcDbEntity
  8
6
  6
Continuous
 62
     3
370
     9
100
AcDbMText
 10
1299.242434085538
 20
688.8660505902377
 30
0.0
 40
26.4
 41
288.552
 46
26.4
 71
     8
 72
     1
  1
160
  7
ＭＳ Ｐゴシック
 73
     1
 44
1.0
1001
ACAD
1000
ACAD_MTEXT_DEFINED_HEIGHT_BEGIN
1070
    46
1040
26.4
1000
ACAD_MTEXT_DEFINED_HEIGHT_END
  0
INSERT
  5
306
330
2FF
100
AcDbEntity
  8
6
  6
Continuous
 62
     3
370
     9
100
AcDbBlockReference
  2
_OPEN
 10
1220.97761046675
 20
682.4660505902377
 30
0.0
 41
18.4
 42
18.4
 43
18.4
 50
179.9999999999998
  0
INSERT
  5
307
330
2FF
100
AcDbEntity
  8
6
  6
Continuous
 62
     3
370
     9
100
AcDbBlockReference
  2
_OPEN
 10
1380.97761046675
 20
682.4660505902377
 30
0.0
 41
18.4
 42
18.4
 43
18.4
 50
359.9999999999997
  0
ENDBLK
  5
301
330
2FF
100
AcDbEntity
  8
0
100
AcDbBlockEnd
  0
BLOCK
  5
30A
330
309
100
AcDbEntity
  8
0
100
AcDbBlockBegin
  2
Dim9
 70
     0
 10
0.0
 20
0.0
 30
0.0
  3
Dim9
  1
Dim9
  0
LINE
  5
30C
330
309
100
AcDbEntity
  8
6
  6
Continuous
 62
     3
370
     9
100
AcDbLine
 10
520.888688251343
 20
775.075943195719
 30
0.0
 11
520.8886882513425
 21
674.4660505902377
 31
0.0
  0
LINE
  5
30D
330
309
100
AcDbEntity
  8
6
  6
Continuous
 62
     3
370
     9
100
AcDbLine
 10
1020.888688251343
 20
775.075943195719
 30
0.0
 11
1020.888688251342
 21
674.4660505902377
 31
0.0
  0
LINE
  5
30E
330
309
100
AcDbEntity
  8
6
  6
Continuous
 62
     3
370
     9
100
AcDbLine
 10
520.8886882513425
 20
682.4660505902377
 30
0.0
 11
1020.888688251342
 21
682.4660505902377
 31
0.0
  0
MTEXT
  5
30F
330
309
100
AcDbEntity
  8
6
  6
Continuous
 62
     3
370
     9
100
AcDbMText
 10
767.7815255156927
 20
688.8660505902377
 30
0.0
 40
26.4
 41
310.992
 46
26.4
 71
     8
 72
     1
  1
500
  7
ＭＳ Ｐゴシック
 73
     1
 44
1.0
1001
ACAD
1000
ACAD_MTEXT_DEFINED_HEIGHT_BEGIN
1070
    46
1040
26.4
1000
ACAD_MTEXT_DEFINED_HEIGHT_END
  0
INSERT
  5
310
330
309
100
AcDbEntity
  8
6
  6
Continuous
 62
     3
370
     9
100
AcDbBlockReference
  2
_OPEN
 10
520.8886882513425
 20
682.4660505902377
 30
0.0
 41
18.4
 42
18.4
 43
18.4
 50
179.9999999999998
  0
INSERT
  5
311
330
309
100
AcDbEntity
  8
6
  6
Continuous
 62
     3
370
     9
100
AcDbBlockReference
  2
_OPEN
 10
1020.888688251342
 20
682.4660505902377
 30
0.0
 41
18.4
 42
18.4
 43
18.4
 50
359.9999999999997
  0
ENDBLK
  5
30B
330
309
100
AcDbEntity
  8
0
100
AcDbBlockEnd
  0
BLOCK
  5
314
330
313
100
AcDbEntity
  8
0
100
AcDbBlockBegin
  2
Dim10
 70
     0
 10
0.0
 20
0.0
 30
0.0
  3
Dim10
  1
Dim10
  0
LINE
  5
316
330
313
100
AcDbEntity
  8
6
  6
Continuous
 62
     3
370
     9
100
AcDbLine
 10
1220.97761046675
 20
778.075943195719
 30
0.0
 11
1220.97761046675
 21
732.1163964238141
 31
0.0
  0
LINE
  5
317
330
313
100
AcDbEntity
  8
6
  6
Continuous
 62
     3
370
     9
100
AcDbLine
 10
1245.97761046675
 20
775.075943195719
 30
0.0
 11
1245.97761046675
 21
732.1163964238141
 31
0.0
  0
LINE
  5
318
330
313
100
AcDbEntity
  8
6
  6
Continuous
 62
     3
370
     9
100
AcDbLine
 10
1176.804575263031
 20
740.1163964238141
 30
0.0
 11
1269.97761046675
 21
740.1163964238141
 31
0.0
  0
MTEXT
  5
319
330
313
100
AcDbEntity
  8
6
  6
Continuous
 62
     3
370
     9
100
AcDbMText
 10
1203.204575263031
 20
744.8786668537006
 30
0.0
 40
26.4
 41
222.816
 46
26.4
 71
     9
 72
     1
  1
25
  7
ＭＳ Ｐゴシック
 73
     1
 44
1.0
1001
ACAD
1000
ACAD_MTEXT_DEFINED_HEIGHT_BEGIN
1070
    46
1040
26.4
1000
ACAD_MTEXT_DEFINED_HEIGHT_END
  0
INSERT
  5
31A
330
313
100
AcDbEntity
  8
6
  6
Continuous
 62
     3
370
     9
100
AcDbBlockReference
  2
_OPEN
 10
1220.97761046675
 20
740.1163964238141
 30
0.0
 41
18.4
 42
18.4
 43
18.4
 50
359.9999999999997
  0
INSERT
  5
31B
330
313
100
AcDbEntity
  8
6
  6
Continuous
 62
     3
370
     9
100
AcDbBlockReference
  2
_OPEN
 10
1245.97761046675
 20
740.1163964238141
 30
0.0
 41
18.4
 42
18.4
 43
18.4
 50
179.9999999999995
  0
ENDBLK
  5
315
330
313
100
AcDbEntity
  8
0
100
AcDbBlockEnd
  0
BLOCK
  5
31E
330
31D
100
AcDbEntity
  8
0
100
AcDbBlockBegin
  2
Dim11
 70
     0
 10
0.0
 20
0.0
 30
0.0
  3
Dim11
  1
Dim11
  0
LINE
  5
320
330
31D
100
AcDbEntity
  8
6
  6
Continuous
 62
     3
370
     9
100
AcDbLine
 10
1363.977610466752
 20
778.2759431957197
 30
0.0
 11
1363.977610466752
 21
730.9353844259009
 31
0.0
  0
LINE
  5
321
330
31D
100
AcDbEntity
  8
6
  6
Continuous
 62
     3
370
     9
100
AcDbLine
 10
1380.97761046675
 20
775.075943195719
 30
0.0
 11
1380.97761046675
 21
730.9353844259009
 31
0.0
  0
LINE
  5
322
330
31D
100
AcDbEntity
  8
6
  6
Continuous
 62
     3
370
     9
100
AcDbLine
 10
1339.977610466752
 20
738.9353844259009
 30
0.0
 11
1431.680827408438
 21
738.9353844259009
 31
0.0
  0
MTEXT
  5
323
330
31D
100
AcDbEntity
  8
6
  6
Continuous
 62
     3
370
     9
100
AcDbMText
 10
1405.280827408438
 20
745.3353844259009
 30
0.0
 40
26.4
 41
179.388
 46
26.4
 71
     7
 72
     1
  1
17
  7
ＭＳ Ｐゴシック
 73
     1
 44
1.0
1001
ACAD
1000
ACAD_MTEXT_DEFINED_HEIGHT_BEGIN
1070
    46
1040
26.4
1000
ACAD_MTEXT_DEFINED_HEIGHT_END
  0
INSERT
  5
324
330
31D
100
AcDbEntity
  8
6
  6
Continuous
 62
     3
370
     9
100
AcDbBlockReference
  2
_OPEN
 10
1363.977610466752
 20
738.9353844259009
 30
0.0
 41
18.4
 42
18.4
 43
18.4
 50
359.9999999999997
  0
INSERT
  5
325
330
31D
100
AcDbEntity
  8
6
  6
Continuous
 62
     3
370
     9
100
AcDbBlockReference
  2
_OPEN
 10
1380.97761046675
 20
738.9353844259009
 30
0.0
 41
18.4
 42
18.4
 43
18.4
 50
179.9999999999995
  0
ENDBLK
  5
31F
330
31D
100
AcDbEntity
  8
0
100
AcDbBlockEnd
  0
ENDSEC
  0
SECTION
  2
ENTITIES
  0
LINE
  5
E3
330
1F
100
AcDbEntity
  8
12
  6
Continuous
 62
     5
370
    53
100
AcDbLine
 10
0.0
 20
2184.000000000002
 30
0.0
 11
2895.999988415999
 21
2184.000000000002
 31
0.0
  0
LINE
  5
E4
330
1F
100
AcDbEntity
  8
12
  6
Continuous
 62
     5
370
    53
100
AcDbLine
 10
2895.999988415999
 20
0.0
 30
0.0
 11
0.0
 21
0.0
 31
0.0
  0
LINE
  5
E5
330
1F
100
AcDbEntity
  8
12
  6
Continuous
 62
     5
370
    53
100
AcDbLine
 10
0.0
 20
2184.000000000002
 30
0.0
 11
0.0
 21
0.0
 31
0.0
  0
LINE
  5
E6
330
1F
100
AcDbEntity
  8
12
  6
Continuous
 62
     5
370
    53
100
AcDbLine
 10
0.0
 20
0.0
 30
0.0
 11
0.0
 21
2184.000000000002
 31
0.0
  0
LINE
  5
E7
330
1F
100
AcDbEntity
  8
12
  6
Continuous
 62
     5
370
    53
100
AcDbLine
 10
2895.999988415999
 20
2184.000000000002
 30
0.0
 11
2895.999988415999
 21
0.0
 31
0.0
  0
MTEXT
  5
E8
330
1F
100
AcDbEntity
  8
9
  6
Continuous
 62
     7
370
     9
100
AcDbMText
 10
2849.793666370221
 20
22.30062309148437
 30
0.0
 40
22.0
 41
93.40763736303998
 46
22.0
 71
     5
 72
     1
  1
{\fＭＳ Ｐゴシック;\W0.714286;A3 1/8}
 73
     1
 44
1.0
1001
ACAD
1000
ACAD_MTEXT_DEFINED_HEIGHT_BEGIN
1070
    46
1040
22.0
1000
ACAD_MTEXT_DEFINED_HEIGHT_END
  0
MTEXT
  5
E9
330
1F
100
AcDbEntity
  8
9
  6
Continuous
 62
     7
370
     9
100
AcDbMText
 10
2599.369062099001
 20
164.7379799417021
 30
0.0
 40
30.8
 41
801.8061607223362
 46
30.8
 71
     5
 72
     1
  1
{\fＭＳ Ｐゴシック;\W0.714286;プリアクション制御盤（1回線、予作動式用）}
 73
     1
 44
1.0
1001
ACAD
1000
ACAD_MTEXT_DEFINED_HEIGHT_BEGIN
1070
    46
1040
30.8
1000
ACAD_MTEXT_DEFINED_HEIGHT_END
  0
LINE
  5
EA
330
1F
100
AcDbEntity
  8
6
  6
Continuous
 62
     3
370
    25
100
AcDbLine
 10
2595.717239805664
 20
96.40037655311369
 30
0.0
 11
2865.557024915503
 21
96.40037655311369
 31
0.0
  0
MTEXT
  5
EB
330
1F
100
AcDbEntity
  8
9
  6
Continuous
 62
     7
370
     9
100
AcDbMText
 10
2730.525012022312
 20
111.8003765531138
 30
0.0
 40
30.8
 41
358.0730232291521
 46
30.8
 71
     5
 72
     1
  1
{\fＭＳ Ｐゴシック;\W0.714286;SDP-1L, SDP-1LA}
 73
     1
 44
1.0
1001
ACAD
1000
ACAD_MTEXT_DEFINED_HEIGHT_BEGIN
1070
    46
1040
30.8
1000
ACAD_MTEXT_DEFINED_HEIGHT_END
  0
LINE
  5
EC
330
1F
100
AcDbEntity
  8
6
  6
Continuous
 62
     3
370
    25
100
AcDbLine
 10
2595.717239805664
 20
60.59442976125143
 30
0.0
 11
2865.557024915503
 21
60.59442976125143
 31
0.0
  0
MTEXT
  5
ED
330
1F
100
AcDbEntity
  8
9
  6
Continuous
 62
     7
370
     9
100
AcDbMText
 10
2730.525012022312
 20
75.99442976125152
 30
0.0
 40
30.8
 41
366.5703066280639
 46
30.8
 71
     5
 72
     1
  1
{\fＭＳ Ｐゴシック;\W0.714286;SWP-1L, SWP-1LA}
 73
     1
 44
1.0
1001
ACAD
1000
ACAD_MTEXT_DEFINED_HEIGHT_BEGIN
1070
    46
1040
30.8
1000
ACAD_MTEXT_DEFINED_HEIGHT_END
  0
LINE
  5
EE
330
1F
100
AcDbEntity
  8
10
  6
Continuous
 62
     6
370
    53
100
AcDbLine
 10
1380.97761046675
 20
784.6759431957194
 30
0.0
 11
1380.97761046675
 21
786.2759431957197
 31
0.0
  0
LINE
  5
EF
330
1F
100
AcDbEntity
  8
9
  6
Continuous
 62
     7
370
    35
100
AcDbLine
 10
520.888688251343
 20
1483.075943195719
 30
0.0
 11
520.888688251343
 21
783.075943195719
 31
0.0
  0
LINE
  5
F0
330
1F
100
AcDbEntity
  8
9
  6
Continuous
 62
     7
370
    35
100
AcDbLine
 10
520.888688251343
 20
783.075943195719
 30
0.0
 11
1020.888688251343
 21
783.075943195719
 31
0.0
  0
LINE
  5
F1
330
1F
100
AcDbEntity
  8
9
  6
Continuous
 62
     7
370
    35
100
AcDbLine
 10
1020.888688251343
 20
1483.075943195719
 30
0.0
 11
520.888688251343
 21
1483.075943195719
 31
0.0
  0
LINE
  5
F2
330
1F
100
AcDbEntity
  8
9
  6
Continuous
 62
     7
370
    35
100
AcDbLine
 10
523.888688251343
 20
1480.075943195719
 30
0.0
 11
523.888688251343
 21
786.075943195719
 31
0.0
  0
LINE
  5
F3
330
1F
100
AcDbEntity
  8
9
  6
Continuous
 62
     7
370
    35
100
AcDbLine
 10
523.888688251343
 20
1480.075943195719
 30
0.0
 11
1017.888688251343
 21
1480.075943195719
 31
0.0
  0
LINE
  5
F4
330
1F
100
AcDbEntity
  8
9
  6
Continuous
 62
     7
370
    35
100
AcDbLine
 10
1017.888688251343
 20
1480.075943195719
 30
0.0
 11
1017.888688251343
 21
786.075943195719
 31
0.0
  0
LINE
  5
F5
330
1F
100
AcDbEntity
  8
9
  6
Continuous
 62
     7
370
    35
100
AcDbLine
 10
523.888688251343
 20
786.075943195719
 30
0.0
 11
1017.888688251343
 21
786.075943195719
 31
0.0
  0
LINE
  5
F6
330
1F
100
AcDbEntity
  8
9
  6
Continuous
 62
     7
370
    35
100
AcDbLine
 10
549.9886882513433
 20
1139.008059175705
 30
0.0
 11
549.9886882513433
 21
1127.143827215733
 31
0.0
  0
LINE
  5
F7
330
1F
100
AcDbEntity
  8
9
  6
Continuous
 62
     7
370
    35
100
AcDbLine
 10
551.7886882513444
 20
1139.008059175705
 30
0.0
 11
551.7886882513444
 21
1127.143827215733
 31
0.0
  0
CIRCLE
  5
F8
330
1F
100
AcDbEntity
  8
9
  6
Continuous
 62
     7
370
    35
100
AcDbCircle
 10
550.888688251343
 20
1133.075943195719
 30
0.0
 40
9.0
  0
CIRCLE
  5
F9
330
1F
100
AcDbEntity
  8
9
  6
Continuous
 62
     7
370
    35
100
AcDbCircle
 10
550.888688251343
 20
1133.075943195719
 30
0.0
 40
6.0
  0
LINE
  5
FA
330
1F
100
AcDbEntity
  8
9
  6
Continuous
 62
     7
370
    35
100
AcDbLine
 10
1020.888688251343
 20
783.075943195719
 30
0.0
 11
1020.888688251343
 21
1483.075943195719
 31
0.0
  0
LINE
  5
FB
330
1F
100
AcDbEntity
  8
5
  6
Continuous
 62
     4
370
    25
100
AcDbLine
 10
590.888688251343
 20
1408.075943195719
 30
0.0
 11
590.888688251343
 21
1209.825943195722
 31
0.0
  0
LINE
  5
FC
330
1F
100
AcDbEntity
  8
5
  6
Continuous
 62
     4
370
    25
100
AcDbLine
 10
950.888688251343
 20
1209.825943195722
 30
0.0
 11
950.888688251343
 21
1408.075943195719
 31
0.0
  0
LINE
  5
FD
330
1F
100
AcDbEntity
  8
5
  6
Continuous
 62
     4
370
    25
100
AcDbLine
 10
948.888688251343
 20
1410.075943195719
 30
0.0
 11
592.888688251343
 21
1410.075943195719
 31
0.0
  0
ARC
  5
FE
330
1F
100
AcDbEntity
  8
5
  6
Continuous
 62
     4
370
    25
100
AcDbCircle
 10
592.888688251343
 20
1408.075943195719
 30
0.0
 40
2.0
100
AcDbArc
 50
89.99999999999991
 51
179.9999999999998
  0
ARC
  5
FF
330
1F
100
AcDbEntity
  8
5
  6
Continuous
 62
     4
370
    25
100
AcDbCircle
 10
948.888688251343
 20
1408.075943195719
 30
0.0
 40
2.0
100
AcDbArc
 50
0.0
 51
89.99999999999991
  0
LINE
  5
100
330
1F
100
AcDbEntity
  8
5
  6
Continuous
 62
     4
370
    25
100
AcDbLine
 10
950.888688251343
 20
1209.825943195722
 30
0.0
 11
590.888688251343
 21
1209.825943195722
 31
0.0
  0
LINE
  5
101
330
1F
100
AcDbEntity
  8
5
  6
Continuous
 62
     4
370
    25
100
AcDbLine
 10
950.888688251343
 20
1254.325943195722
 30
0.0
 11
590.8886882513411
 21
1254.325943195722
 31
0.0
  0
LINE
  5
102
330
1F
100
AcDbEntity
  8
5
  6
Continuous
 62
     4
370
    25
100
AcDbLine
 10
590.8886882513411
 20
1387.825943195722
 30
0.0
 11
950.8886882513411
 21
1387.825943195722
 31
0.0
  0
LINE
  5
103
330
1F
100
AcDbEntity
  8
5
  6
Continuous
 62
     4
370
    25
100
AcDbLine
 10
590.8886882513411
 20
1244.325943195722
 30
0.0
 11
590.8886882513411
 21
1377.825943195722
 31
0.0
  0
LINE
  5
104
330
1F
100
AcDbEntity
  8
5
  6
Continuous
 62
     4
370
    25
100
AcDbLine
 10
950.8886882513411
 20
1244.325943195722
 30
0.0
 11
950.8886882513411
 21
1377.825943195722
 31
0.0
  0
LINE
  5
105
330
1F
100
AcDbEntity
  8
5
  6
Continuous
 62
     4
370
    25
100
AcDbLine
 10
950.8886882513411
 20
1209.825943195722
 30
0.0
 11
590.8886882513411
 21
1209.825943195722
 31
0.0
  0
LINE
  5
106
330
1F
100
AcDbEntity
  8
5
  6
Continuous
 62
     4
370
    25
100
AcDbLine
 10
590.888688251343
 20
1209.825943195722
 30
0.0
 11
590.888688251343
 21
1039.075943195719
 31
0.0
  0
ARC
  5
107
330
1F
100
AcDbEntity
  8
5
  6
Continuous
 62
     4
370
    25
100
AcDbCircle
 10
592.888688251343
 20
1039.075943195719
 30
0.0
 40
2.0
100
AcDbArc
 50
179.9999999999998
 51
269.9999999999998
  0
LINE
  5
108
330
1F
100
AcDbEntity
  8
5
  6
Continuous
 62
     4
370
    25
100
AcDbLine
 10
592.888688251343
 20
1037.075943195719
 30
0.0
 11
948.888688251343
 21
1037.075943195719
 31
0.0
  0
ARC
  5
109
330
1F
100
AcDbEntity
  8
5
  6
Continuous
 62
     4
370
    25
100
AcDbCircle
 10
948.888688251343
 20
1039.075943195719
 30
0.0
 40
2.0
100
AcDbArc
 50
269.9999999999998
 51
0.0
  0
LINE
  5
10A
330
1F
100
AcDbEntity
  8
5
  6
Continuous
 62
     4
370
    25
100
AcDbLine
 10
950.8886882513411
 20
1209.825943195722
 30
0.0
 11
950.888688251343
 21
1039.075943195719
 31
0.0
  0
LINE
  5
10B
330
1F
100
AcDbEntity
  8
5
  6
Continuous
 62
     4
370
    25
100
AcDbLine
 10
589.8886882513448
 20
1024.075943195719
 30
0.0
 11
589.8886882513448
 21
889.075943195719
 31
0.0
  0
LINE
  5
10C
330
1F
100
AcDbEntity
  8
5
  6
Continuous
 62
     4
370
    25
100
AcDbLine
 10
951.888688251343
 20
1024.075943195719
 30
0.0
 11
951.888688251343
 21
889.075943195719
 31
0.0
  0
ARC
  5
10D
330
1F
100
AcDbEntity
  8
5
  6
Continuous
 62
     4
370
    25
100
AcDbCircle
 10
948.888688251343
 20
889.075943195719
 30
0.0
 40
3.0
100
AcDbArc
 50
269.9999999999998
 51
0.0
  0
ARC
  5
10E
330
1F
100
AcDbEntity
  8
5
  6
Continuous
 62
     4
370
    25
100
AcDbCircle
 10
948.888688251343
 20
1024.075943195719
 30
0.0
 40
3.0
100
AcDbArc
 50
0.0
 51
89.99999999999991
  0
LINE
  5
10F
330
1F
100
AcDbEntity
  8
5
  6
Continuous
 62
     4
370
    25
100
AcDbLine
 10
592.8886882513448
 20
1027.075943195719
 30
0.0
 11
948.888688251343
 21
1027.075943195719
 31
0.0
  0
ARC
  5
110
330
1F
100
AcDbEntity
  8
5
  6
Continuous
 62
     4
370
    25
100
AcDbCircle
 10
592.8886882513448
 20
1024.075943195719
 30
0.0
 40
3.0
100
AcDbArc
 50
89.99999999999991
 51
179.9999999999998
  0
LINE
  5
111
330
1F
100
AcDbEntity
  8
5
  6
Continuous
 62
     4
370
    25
100
AcDbLine
 10
592.8886882513448
 20
886.075943195719
 30
0.0
 11
948.888688251343
 21
886.075943195719
 31
0.0
  0
ARC
  5
112
330
1F
100
AcDbEntity
  8
5
  6
Continuous
 62
     4
370
    25
100
AcDbCircle
 10
592.8886882513448
 20
889.075943195719
 30
0.0
 40
3.0
100
AcDbArc
 50
179.9999999999998
 51
269.9999999999998
  0
LINE
  5
113
330
1F
100
AcDbEntity
  8
5
  6
Continuous
 62
     4
370
    25
100
AcDbLine
 10
745.8886882513439
 20
1357.075943195722
 30
0.0
 11
745.8886882513439
 21
1369.075943195722
 31
0.0
  0
ARC
  5
114
330
1F
100
AcDbEntity
  8
5
  6
Continuous
 62
     4
370
    25
100
AcDbCircle
 10
746.8886882513439
 20
1369.075943195722
 30
0.0
 40
1.0
100
AcDbArc
 50
89.99999999999991
 51
179.9999999999998
  0
LINE
  5
115
330
1F
100
AcDbEntity
  8
5
  6
Continuous
 62
     4
370
    25
100
AcDbLine
 10
795.8886882513439
 20
1369.075943195722
 30
0.0
 11
795.8886882513439
 21
1357.075943195722
 31
0.0
  0
ARC
  5
116
330
1F
100
AcDbEntity
  8
5
  6
Continuous
 62
     4
370
    25
100
AcDbCircle
 10
794.8886882513439
 20
1369.075943195722
 30
0.0
 40
1.0
100
AcDbArc
 50
0.0
 51
89.99999999999991
  0
LINE
  5
117
330
1F
100
AcDbEntity
  8
5
  6
Continuous
 62
     4
370
    25
100
AcDbLine
 10
794.8886882513439
 20
1356.075943195722
 30
0.0
 11
746.8886882513439
 21
1356.075943195722
 31
0.0
  0
ARC
  5
118
330
1F
100
AcDbEntity
  8
5
  6
Continuous
 62
     4
370
    25
100
AcDbCircle
 10
794.8886882513439
 20
1357.075943195722
 30
0.0
 40
1.0
100
AcDbArc
 50
269.9999999999998
 51
0.0
  0
ARC
  5
119
330
1F
100
AcDbEntity
  8
5
  6
Continuous
 62
     4
370
    25
100
AcDbCircle
 10
746.8886882513439
 20
1357.075943195722
 30
0.0
 40
1.0
100
AcDbArc
 50
179.9999999999998
 51
269.9999999999998
  0
LINE
  5
11A
330
1F
100
AcDbEntity
  8
5
  6
Continuous
 62
     4
370
    25
100
AcDbLine
 10
794.8886882513439
 20
1370.075943195722
 30
0.0
 11
746.8886882513439
 21
1370.075943195722
 31
0.0
  0
LINE
  5
11B
330
1F
100
AcDbEntity
  8
5
  6
Continuous
 62
     4
370
    25
100
AcDbLine
 10
743.8886882513439
 20
1259.075943195722
 30
0.0
 11
797.8886882513439
 21
1259.075943195722
 31
0.0
  0
ARC
  5
11C
330
1F
100
AcDbEntity
  8
5
  6
Continuous
 62
     4
370
    25
100
AcDbCircle
 10
797.8886882513439
 20
1262.075943195722
 30
0.0
 40
3.0
100
AcDbArc
 50
269.9999999999998
 51
0.0
  0
LINE
  5
11D
330
1F
100
AcDbEntity
  8
5
  6
Continuous
 62
     4
370
    25
100
AcDbLine
 10
740.8886882513439
 20
1262.075943195722
 30
0.0
 11
740.8886882513439
 21
1380.075943195722
 31
0.0
  0
ARC
  5
11E
330
1F
100
AcDbEntity
  8
5
  6
Continuous
 62
     4
370
    25
100
AcDbCircle
 10
743.8886882513439
 20
1262.075943195722
 30
0.0
 40
3.0
100
AcDbArc
 50
179.9999999999998
 51
269.9999999999998
  0
ARC
  5
11F
330
1F
100
AcDbEntity
  8
5
  6
Continuous
 62
     4
370
    25
100
AcDbCircle
 10
743.8886882513439
 20
1380.075943195722
 30
0.0
 40
3.0
100
AcDbArc
 50
89.99999999999991
 51
179.9999999999998
  0
LINE
  5
120
330
1F
100
AcDbEntity
  8
5
  6
Continuous
 62
     4
370
    25
100
AcDbLine
 10
800.8886882513439
 20
1262.075943195722
 30
0.0
 11
800.8886882513439
 21
1380.075943195722
 31
0.0
  0
ARC
  5
121
330
1F
100
AcDbEntity
  8
5
  6
Continuous
 62
     4
370
    25
100
AcDbCircle
 10
797.8886882513439
 20
1380.075943195722
 30
0.0
 40
3.0
100
AcDbArc
 50
0.0
 51
89.99999999999991
  0
LINE
  5
122
330
1F
100
AcDbEntity
  8
5
  6
Continuous
 62
     4
370
    25
100
AcDbLine
 10
743.8886882513439
 20
1383.075943195722
 30
0.0
 11
797.8886882513439
 21
1383.075943195722
 31
0.0
  0
CIRCLE
  5
123
330
1F
100
AcDbEntity
  8
5
  6
Continuous
 62
     4
370
    25
100
AcDbCircle
 10
753.3886882513439
 20
1324.075942760323
 30
0.0
 40
3.0
  0
CIRCLE
  5
124
330
1F
100
AcDbEntity
  8
5
  6
Continuous
 62
     4
370
    25
100
AcDbCircle
 10
753.3886882513439
 20
1334.075942760323
 30
0.0
 40
3.0
  0
MTEXT
  5
125
330
1F
100
AcDbEntity
  8
5
  6
Continuous
 62
     4
370
     9
100
AcDbMText
 10
787.3909145804068
 20
1334.075942760323
 30
0.0
 40
6.050000000000001
 41
8.050997506112001
 46
6.050000000000001
 71
     5
 72
     1
  1
{\fＭＳ Ｐゴシック;\W0.714286;水}
 73
     1
 44
1.0
1001
ACAD
1000
ACAD_MTEXT_DEFINED_HEIGHT_BEGIN
1070
    46
1040
6.050000000000001
1000
ACAD_MTEXT_DEFINED_HEIGHT_END
  0
MTEXT
  5
126
330
1F
100
AcDbEntity
  8
5
  6
Continuous
 62
     4
370
     9
100
AcDbMText
 10
763.3909145804068
 20
1334.075942760323
 30
0.0
 40
6.050000000000001
 41
8.050997506112001
 46
6.050000000000001
 71
     5
 72
     1
  1
{\fＭＳ Ｐゴシック;\W0.714286;流}
 73
     1
 44
1.0
1001
ACAD
1000
ACAD_MTEXT_DEFINED_HEIGHT_BEGIN
1070
    46
1040
6.050000000000001
1000
ACAD_MTEXT_DEFINED_HEIGHT_END
  0
CIRCLE
  5
127
330
1F
100
AcDbEntity
  8
5
  6
Continuous
 62
     4
370
    25
100
AcDbCircle
 10
753.3886882513439
 20
1314.075942760322
 30
0.0
 40
3.0
  0
MTEXT
  5
128
330
1F
100
AcDbEntity
  8
5
  6
Continuous
 62
     4
370
     9
100
AcDbMText
 10
787.3909145804068
 20
1314.075942760322
 30
0.0
 40
6.050000000000001
 41
8.22281757484
 46
6.050000000000001
 71
     5
 72
     1
  1
{\fＭＳ Ｐゴシック;\W0.714286;減}
 73
     1
 44
1.0
1001
ACAD
1000
ACAD_MTEXT_DEFINED_HEIGHT_BEGIN
1070
    46
1040
6.050000000000001
1000
ACAD_MTEXT_DEFINED_HEIGHT_END
  0
MTEXT
  5
129
330
1F
100
AcDbEntity
  8
5
  6
Continuous
 62
     4
370
     9
100
AcDbMText
 10
779.3909145804068
 20
1314.075942760322
 30
0.0
 40
6.050000000000001
 41
7.842358851228001
 46
6.050000000000001
 71
     5
 72
     1
  1
{\fＭＳ Ｐゴシック;\W0.714286;圧}
 73
     1
 44
1.0
1001
ACAD
1000
ACAD_MTEXT_DEFINED_HEIGHT_BEGIN
1070
    46
1040
6.050000000000001
1000
ACAD_MTEXT_DEFINED_HEIGHT_END
  0
MTEXT
  5
12A
330
1F
100
AcDbEntity
  8
5
  6
Continuous
 62
     4
370
     9
100
AcDbMText
 10
771.3909145804068
 20
1314.075942760322
 30
0.0
 40
6.050000000000001
 41
8.050997506112001
 46
6.050000000000001
 71
     5
 72
     1
  1
{\fＭＳ Ｐゴシック;\W0.714286;次}
 73
     1
 44
1.0
1001
ACAD
1000
ACAD_MTEXT_DEFINED_HEIGHT_BEGIN
1070
    46
1040
6.050000000000001
1000
ACAD_MTEXT_DEFINED_HEIGHT_END
  0
MTEXT
  5
12B
330
1F
100
AcDbEntity
  8
5
  6
Continuous
 62
     4
370
     9
100
AcDbMText
 10
763.3909145804068
 20
1314.075942760322
 30
0.0
 40
6.050000000000001
 41
3.552993564054001
 46
6.050000000000001
 71
     5
 72
     1
  1
{\fＭＳ Ｐゴシック;\W0.714286;2}
 73
     1
 44
1.0
1001
ACAD
1000
ACAD_MTEXT_DEFINED_HEIGHT_BEGIN
1070
    46
1040
6.050000000000001
1000
ACAD_MTEXT_DEFINED_HEIGHT_END
  0
ARC
  5
12C
330
1F
100
AcDbEntity
  8
5
  6
Continuous
 62
     4
370
    25
100
AcDbCircle
 10
752.8886882513439
 20
1334.075944066523
 30
0.0
 40
4.5
100
AcDbArc
 50
89.99999999999991
 51
269.9999999999998
  0
LINE
  5
12D
330
1F
100
AcDbEntity
  8
5
  6
Continuous
 62
     4
370
    25
100
AcDbLine
 10
752.8886882513439
 20
1338.575944066522
 30
0.0
 11
789.8886882513439
 21
1338.575944066522
 31
0.0
  0
LINE
  5
12E
330
1F
100
AcDbEntity
  8
5
  6
Continuous
 62
     4
370
    25
100
AcDbLine
 10
752.8886882513439
 20
1329.575944066523
 30
0.0
 11
789.8886882513439
 21
1329.575944066523
 31
0.0
  0
ARC
  5
12F
330
1F
100
AcDbEntity
  8
5
  6
Continuous
 62
     4
370
    25
100
AcDbCircle
 10
789.8886882513439
 20
1334.075944066523
 30
0.0
 40
4.5
100
AcDbArc
 50
269.9999999999998
 51
89.99999999999991
  0
ARC
  5
130
330
1F
100
AcDbEntity
  8
5
  6
Continuous
 62
     4
370
    25
100
AcDbCircle
 10
752.8886882513439
 20
1324.075943631122
 30
0.0
 40
4.5
100
AcDbArc
 50
89.99999999999991
 51
269.9999999999998
  0
LINE
  5
131
330
1F
100
AcDbEntity
  8
5
  6
Continuous
 62
     4
370
    25
100
AcDbLine
 10
752.8886882513439
 20
1328.575943631122
 30
0.0
 11
789.8886882513439
 21
1328.575943631122
 31
0.0
  0
LINE
  5
132
330
1F
100
AcDbEntity
  8
5
  6
Continuous
 62
     4
370
    25
100
AcDbLine
 10
752.8886882513439
 20
1319.575943631122
 30
0.0
 11
789.8886882513439
 21
1319.575943631122
 31
0.0
  0
ARC
  5
133
330
1F
100
AcDbEntity
  8
5
  6
Continuous
 62
     4
370
    25
100
AcDbCircle
 10
789.8886882513439
 20
1324.075943631122
 30
0.0
 40
4.5
100
AcDbArc
 50
269.9999999999998
 51
89.99999999999991
  0
ARC
  5
134
330
1F
100
AcDbEntity
  8
5
  6
Continuous
 62
     4
370
    25
100
AcDbCircle
 10
752.8886882513439
 20
1314.075943631122
 30
0.0
 40
4.5
100
AcDbArc
 50
89.99999999999991
 51
269.9999999999998
  0
LINE
  5
135
330
1F
100
AcDbEntity
  8
5
  6
Continuous
 62
     4
370
    25
100
AcDbLine
 10
752.8886882513439
 20
1318.575943631122
 30
0.0
 11
789.8886882513439
 21
1318.575943631122
 31
0.0
  0
LINE
  5
136
330
1F
100
AcDbEntity
  8
5
  6
Continuous
 62
     4
370
    25
100
AcDbLine
 10
752.8886882513439
 20
1309.575943631122
 30
0.0
 11
789.8886882513439
 21
1309.575943631122
 31
0.0
  0
ARC
  5
137
330
1F
100
AcDbEntity
  8
5
  6
Continuous
 62
     4
370
    25
100
AcDbCircle
 10
789.8886882513439
 20
1314.075943631122
 30
0.0
 40
4.5
100
AcDbArc
 50
269.9999999999998
 51
89.99999999999991
  0
CIRCLE
  5
138
330
1F
100
AcDbEntity
  8
5
  6
Continuous
 62
     4
370
    25
100
AcDbCircle
 10
753.3886882513439
 20
1304.075942760322
 30
0.0
 40
3.0
  0
ARC
  5
139
330
1F
100
AcDbEntity
  8
5
  6
Continuous
 62
     4
370
    25
100
AcDbCircle
 10
752.8886882513439
 20
1304.075943631122
 30
0.0
 40
4.5
100
AcDbArc
 50
89.99999999999991
 51
269.9999999999998
  0
LINE
  5
13A
330
1F
100
AcDbEntity
  8
5
  6
Continuous
 62
     4
370
    25
100
AcDbLine
 10
752.8886882513439
 20
1308.575943631122
 30
0.0
 11
789.8886882513439
 21
1308.575943631122
 31
0.0
  0
LINE
  5
13B
330
1F
100
AcDbEntity
  8
5
  6
Continuous
 62
     4
370
    25
100
AcDbLine
 10
752.8886882513439
 20
1299.575943631122
 30
0.0
 11
789.8886882513439
 21
1299.575943631122
 31
0.0
  0
ARC
  5
13C
330
1F
100
AcDbEntity
  8
5
  6
Continuous
 62
     4
370
    25
100
AcDbCircle
 10
789.8886882513439
 20
1304.075943631122
 30
0.0
 40
4.5
100
AcDbArc
 50
269.9999999999998
 51
89.99999999999991
  0
MTEXT
  5
13D
330
1F
100
AcDbEntity
  8
5
  6
Continuous
 62
     4
370
     9
100
AcDbMText
 10
787.3909145804068
 20
1304.075942760322
 30
0.0
 40
6.050000000000001
 41
7.738039523786001
 46
6.050000000000001
 71
     5
 72
     1
  1
{\fＭＳ Ｐゴシック;\W0.714286;弁}
 73
     1
 44
1.0
1001
ACAD
1000
ACAD_MTEXT_DEFINED_HEIGHT_BEGIN
1070
    46
1040
6.050000000000001
1000
ACAD_MTEXT_DEFINED_HEIGHT_END
  0
MTEXT
  5
13E
330
1F
100
AcDbEntity
  8
5
  6
Continuous
 62
     4
370
     9
100
AcDbMText
 10
763.3909145804068
 20
1304.075942760322
 30
0.0
 40
6.050000000000001
 41
7.842358851228001
 46
6.050000000000001
 71
     5
 72
     1
  1
{\fＭＳ Ｐゴシック;\W0.714286;電}
 73
     1
 44
1.0
1001
ACAD
1000
ACAD_MTEXT_DEFINED_HEIGHT_BEGIN
1070
    46
1040
6.050000000000001
1000
ACAD_MTEXT_DEFINED_HEIGHT_END
  0
MTEXT
  5
13F
330
1F
100
AcDbEntity
  8
5
  6
Continuous
 62
     4
370
     9
100
AcDbMText
 10
775.3909145804068
 20
1304.075942760322
 30
0.0
 40
6.050000000000001
 41
7.664402351474001
 46
6.050000000000001
 71
     5
 72
     1
  1
{\fＭＳ Ｐゴシック;\W0.714286;動}
 73
     1
 44
1.0
1001
ACAD
1000
ACAD_MTEXT_DEFINED_HEIGHT_BEGIN
1070
    46
1040
6.050000000000001
1000
ACAD_MTEXT_DEFINED_HEIGHT_END
  0
MTEXT
  5
140
330
1F
100
AcDbEntity
  8
5
  6
Continuous
 62
     4
370
     9
100
AcDbMText
 10
787.3909145804068
 20
1324.075942760323
 30
0.0
 40
6.050000000000001
 41
8.22281757484
 46
6.050000000000001
 71
     5
 72
     1
  1
{\fＭＳ Ｐゴシック;\W0.714286;器}
 73
     1
 44
1.0
1001
ACAD
1000
ACAD_MTEXT_DEFINED_HEIGHT_BEGIN
1070
    46
1040
6.050000000000001
1000
ACAD_MTEXT_DEFINED_HEIGHT_END
  0
MTEXT
  5
141
330
1F
100
AcDbEntity
  8
5
  6
Continuous
 62
     4
370
     9
100
AcDbMText
 10
763.3909145804068
 20
1324.075942760323
 30
0.0
 40
6.050000000000001
 41
7.977360333800002
 46
6.050000000000001
 71
     5
 72
     1
  1
{\fＭＳ Ｐゴシック;\W0.714286;感}
 73
     1
 44
1.0
1001
ACAD
1000
ACAD_MTEXT_DEFINED_HEIGHT_BEGIN
1070
    46
1040
6.050000000000001
1000
ACAD_MTEXT_DEFINED_HEIGHT_END
  0
MTEXT
  5
142
330
1F
100
AcDbEntity
  8
5
  6
Continuous
 62
     4
370
     9
100
AcDbMText
 10
775.3909145804068
 20
1324.075942760323
 30
0.0
 40
6.050000000000001
 41
7.455763696590001
 46
6.050000000000001
 71
     5
 72
     1
  1
{\fＭＳ Ｐゴシック;\W0.714286;知}
 73
     1
 44
1.0
1001
ACAD
1000
ACAD_MTEXT_DEFINED_HEIGHT_BEGIN
1070
    46
1040
6.050000000000001
1000
ACAD_MTEXT_DEFINED_HEIGHT_END
  0
LINE
  5
143
330
1F
100
AcDbEntity
  8
5
  6
Continuous
 62
     4
370
    25
100
AcDbLine
 10
761.4886882513424
 20
1264.673465530385
 30
0.0
 11
780.2886882513417
 21
1264.673465530385
 31
0.0
  0
LINE
  5
144
330
1F
100
AcDbEntity
  8
5
  6
Continuous
 62
     4
370
    25
100
AcDbLine
 10
780.2886882513435
 20
1264.673465530385
 30
0.0
 11
780.2886882513417
 21
1283.473465530386
 31
0.0
  0
LINE
  5
145
330
1F
100
AcDbEntity
  8
5
  6
Continuous
 62
     4
370
    25
100
AcDbLine
 10
780.2886882513417
 20
1283.473465530386
 30
0.0
 11
761.4886882513424
 21
1283.473465530386
 31
0.0
  0
LINE
  5
146
330
1F
100
AcDbEntity
  8
5
  6
Continuous
 62
     4
370
    25
100
AcDbLine
 10
761.4886882513424
 20
1283.473465530386
 30
0.0
 11
761.4886882513424
 21
1264.673465530385
 31
0.0
  0
LINE
  5
147
330
1F
100
AcDbEntity
  8
5
  6
Continuous
 62
     4
370
    25
100
AcDbLine
 10
760.6886882513431
 20
1284.323465530386
 30
0.0
 11
781.0886882513428
 21
1284.323465530386
 31
0.0
  0
LINE
  5
148
330
1F
100
AcDbEntity
  8
5
  6
Continuous
 62
     4
370
    25
100
AcDbLine
 10
760.6886882513431
 20
1284.323465530386
 30
0.0
 11
760.6886882513431
 21
1263.823465530386
 31
0.0
  0
LINE
  5
149
330
1F
100
AcDbEntity
  8
5
  6
Continuous
 62
     4
370
    25
100
AcDbLine
 10
781.0886882513428
 20
1284.323465530386
 30
0.0
 11
781.0886882513428
 21
1263.823465530386
 31
0.0
  0
LINE
  5
14A
330
1F
100
AcDbEntity
  8
5
  6
Continuous
 62
     4
370
    25
100
AcDbLine
 10
760.6886882513431
 20
1263.823465530386
 30
0.0
 11
781.0886882513428
 21
1263.823465530386
 31
0.0
  0
LINE
  5
14B
330
1F
100
AcDbEntity
  8
5
  6
Continuous
 62
     4
370
    25
100
AcDbLine
 10
773.6886957513439
 20
1281.323470530386
 30
0.0
 11
765.688688251345
 21
1281.323470530386
 31
0.0
  0
LINE
  5
14C
330
1F
100
AcDbEntity
  8
5
  6
Continuous
 62
     4
370
    25
100
AcDbLine
 10
773.6886957513439
 20
1281.323470530386
 30
0.0
 11
773.6886957513439
 21
1283.473465530386
 31
0.0
  0
LINE
  5
14D
330
1F
100
AcDbEntity
  8
5
  6
Continuous
 62
     4
370
    25
100
AcDbLine
 10
765.6886882513431
 20
1281.323470530386
 30
0.0
 11
765.6886882513431
 21
1283.473465530386
 31
0.0
  0
MTEXT
  5
14E
330
1F
100
AcDbEntity
  8
5
  6
Continuous
 62
     4
370
     9
100
AcDbMText
 10
770.8886882513439
 20
1274.073465530386
 30
0.0
 40
6.050000000000001
 41
16.869048890474
 46
6.050000000000001
 71
     5
 72
     1
  1
{\fＭＳ Ｐゴシック;\W0.714286;起動}
 73
     1
 44
1.0
1001
ACAD
1000
ACAD_MTEXT_DEFINED_HEIGHT_BEGIN
1070
    46
1040
6.050000000000001
1000
ACAD_MTEXT_DEFINED_HEIGHT_END
  0
HATCH
  5
14F
330
1F
100
AcDbEntity
  8
5
  6
Continuous
 62
     4
370
    25
100
AcDbHatch
 10
0.0
 20
0.0
 30
0.0
210
0.0
220
0.0
230
1.0
  2
SOLID
 70
     1
 71
     0
 91
        2
 92
        0
 93
        4
 72
     1
 10
705.88902555695
 20
1190.825760461552
 11
590.888688251342
 21
1190.825760461553
 72
     1
 10
590.888688251342
 20
1190.825760461553
 11
590.888688251342
 21
1185.825760461553
 72
     1
 10
590.888688251342
 20
1185.825760461553
 11
709.3901094840844
 21
1185.825760461553
 72
     1
 10
709.3901094840844
 20
1185.825760461553
 11
705.88902555695
 21
1190.825760461552
 97
        0
 92
        0
 93
        4
 72
     1
 10
950.8886882513411
 20
1190.825760461553
 11
835.8874209405644
 21
1190.825760461553
 72
     1
 10
835.8874209405644
 20
1190.825760461553
 11
832.3864294851987
 21
1185.825760461553
 72
     1
 10
832.3864294851987
 20
1185.825760461553
 11
950.8886882513411
 21
1185.825760461553
 72
     1
 10
950.8886882513411
 20
1185.825760461553
 11
950.8886882513411
 21
1190.825760461553
 97
        0
 75
     0
 76
     1
 98
        0
  0
CIRCLE
  5
150
330
1F
100
AcDbEntity
  8
5
  6
Continuous
 62
     4
370
    25
100
AcDbCircle
 10
635.8887222468752
 20
1152.326876481498
 30
0.0
 40
3.0
  0
CIRCLE
  5
151
330
1F
100
AcDbEntity
  8
5
  6
Continuous
 62
     4
370
    25
100
AcDbCircle
 10
635.8887222468752
 20
1142.326876481498
 30
0.0
 40
3.0
  0
CIRCLE
  5
152
330
1F
100
AcDbEntity
  8
5
  6
Continuous
 62
     4
370
    25
100
AcDbCircle
 10
635.8887222470753
 20
1132.326876481498
 30
0.0
 40
3.0
  0
CIRCLE
  5
153
330
1F
100
AcDbEntity
  8
5
  6
Continuous
 62
     4
370
    25
100
AcDbCircle
 10
685.8887222470753
 20
1162.326876481497
 30
0.0
 40
3.0
  0
CIRCLE
  5
154
330
1F
100
AcDbEntity
  8
5
  6
Continuous
 62
     4
370
    25
100
AcDbCircle
 10
685.8887222468752
 20
1152.326876481498
 30
0.0
 40
3.0
  0
CIRCLE
  5
155
330
1F
100
AcDbEntity
  8
5
  6
Continuous
 62
     4
370
    25
100
AcDbCircle
 10
685.8887222468752
 20
1142.326876481498
 30
0.0
 40
3.0
  0
CIRCLE
  5
156
330
1F
100
AcDbEntity
  8
5
  6
Continuous
 62
     4
370
    25
100
AcDbCircle
 10
685.8887222470753
 20
1132.326876481498
 30
0.0
 40
3.0
  0
CIRCLE
  5
157
330
1F
100
AcDbEntity
  8
5
  6
Continuous
 62
     4
370
    25
100
AcDbCircle
 10
735.8887222470753
 20
1162.326876481497
 30
0.0
 40
3.0
  0
CIRCLE
  5
158
330
1F
100
AcDbEntity
  8
5
  6
Continuous
 62
     4
370
    25
100
AcDbCircle
 10
735.8887222468752
 20
1152.326876481498
 30
0.0
 40
3.0
  0
CIRCLE
  5
159
330
1F
100
AcDbEntity
  8
5
  6
Continuous
 62
     4
370
    25
100
AcDbCircle
 10
735.8887222468752
 20
1142.326876481498
 30
0.0
 40
3.0
  0
CIRCLE
  5
15A
330
1F
100
AcDbEntity
  8
5
  6
Continuous
 62
     4
370
    25
100
AcDbCircle
 10
735.8887222470753
 20
1132.326876481498
 30
0.0
 40
3.0
  0
LINE
  5
15B
330
1F
100
AcDbEntity
  8
5
  6
Continuous
 62
     4
370
    25
100
AcDbLine
 10
629.8908658763244
 20
1078.32682397477
 30
0.0
 11
629.8908658763244
 21
1081.32682397477
 31
0.0
  0
LINE
  5
15C
330
1F
100
AcDbEntity
  8
5
  6
Continuous
 62
     4
370
    25
100
AcDbLine
 10
635.8908658763244
 20
1078.32682397477
 30
0.0
 11
635.8908658763244
 21
1081.32682397477
 31
0.0
  0
LINE
  5
15D
330
1F
100
AcDbEntity
  8
5
  6
Continuous
 62
     4
370
    25
100
AcDbLine
 10
635.8908658763244
 20
1078.32682397477
 30
0.0
 11
629.8908658763244
 21
1078.32682397477
 31
0.0
  0
LINE
  5
15E
330
1F
100
AcDbEntity
  8
5
  6
Continuous
 62
     4
370
    25
100
AcDbLine
 10
635.8908658763244
 20
1081.32682397477
 30
0.0
 11
629.8908658763244
 21
1081.32682397477
 31
0.0
  0
LINE
  5
15F
330
1F
100
AcDbEntity
  8
5
  6
Continuous
 62
     4
370
    25
100
AcDbLine
 10
662.3887226080064
 20
1107.826876481497
 30
0.0
 11
662.3887226080064
 21
1118.826876481497
 31
0.0
  0
LINE
  5
160
330
1F
100
AcDbEntity
  8
5
  6
Continuous
 62
     4
370
    25
100
AcDbLine
 10
687.3887226080064
 20
1118.826876481497
 30
0.0
 11
687.3887226080064
 21
1107.826876481497
 31
0.0
  0
LINE
  5
161
330
1F
100
AcDbEntity
  8
5
  6
Continuous
 62
     4
370
    25
100
AcDbLine
 10
685.3887226080064
 20
1105.826876481497
 30
0.0
 11
664.3887226080064
 21
1105.826876481497
 31
0.0
  0
ARC
  5
162
330
1F
100
AcDbEntity
  8
5
  6
Continuous
 62
     4
370
    25
100
AcDbCircle
 10
664.3887226080064
 20
1107.826876481497
 30
0.0
 40
2.0
100
AcDbArc
 50
179.9999999999998
 51
269.9999999999998
  0
ARC
  5
163
330
1F
100
AcDbEntity
  8
5
  6
Continuous
 62
     4
370
    25
100
AcDbCircle
 10
685.3887226080064
 20
1107.826876481497
 30
0.0
 40
2.0
100
AcDbArc
 50
269.9999999999998
 51
0.0
  0
LINE
  5
164
330
1F
100
AcDbEntity
  8
5
  6
Continuous
 62
     4
370
    25
100
AcDbLine
 10
664.3887226080064
 20
1120.826876481497
 30
0.0
 11
685.3887226080064
 21
1120.826876481497
 31
0.0
  0
ARC
  5
165
330
1F
100
AcDbEntity
  8
5
  6
Continuous
 62
     4
370
    25
100
AcDbCircle
 10
664.3887226080064
 20
1118.826876481497
 30
0.0
 40
2.0
100
AcDbArc
 50
89.99999999999991
 51
179.9999999999998
  0
ARC
  5
166
330
1F
100
AcDbEntity
  8
5
  6
Continuous
 62
     4
370
    25
100
AcDbCircle
 10
685.3887226080064
 20
1118.826876481497
 30
0.0
 40
2.0
100
AcDbArc
 50
0.0
 51
89.99999999999991
  0
MTEXT
  5
167
330
1F
100
AcDbEntity
  8
5
  6
Continuous
 62
     4
370
     9
100
AcDbMText
 10
636.1896600636924
 20
1086.826876481497
 30
0.0
 40
6.050000000000001
 41
7.946678178670001
 46
6.050000000000001
 71
     5
 72
     1
  1
{\fＭＳ Ｐゴシック;\W0.714286;話}
 73
     1
 44
1.0
1001
ACAD
1000
ACAD_MTEXT_DEFINED_HEIGHT_BEGIN
1070
    46
1040
6.050000000000001
1000
ACAD_MTEXT_DEFINED_HEIGHT_END
  0
MTEXT
  5
168
330
1F
100
AcDbEntity
  8
5
  6
Continuous
 62
     4
370
     9
100
AcDbMText
 10
629.6896600636924
 20
1086.826876481497
 30
0.0
 40
6.050000000000001
 41
7.842358851228001
 46
6.050000000000001
 71
     5
 72
     1
  1
{\fＭＳ Ｐゴシック;\W0.714286;電}
 73
     1
 44
1.0
1001
ACAD
1000
ACAD_MTEXT_DEFINED_HEIGHT_BEGIN
1070
    46
1040
6.050000000000001
1000
ACAD_MTEXT_DEFINED_HEIGHT_END
  0
CIRCLE
  5
169
330
1F
100
AcDbEntity
  8
5
  6
Continuous
 62
     4
370
    25
100
AcDbCircle
 10
635.8887222470753
 20
1162.326876481497
 30
0.0
 40
3.0
  0
ARC
  5
16A
330
1F
100
AcDbEntity
  8
5
  6
Continuous
 62
     4
370
    25
100
AcDbCircle
 10
635.3887222470753
 20
1162.326877352297
 30
0.0
 40
4.5
100
AcDbArc
 50
89.99999999999991
 51
269.9999999999998
  0
LINE
  5
16B
330
1F
100
AcDbEntity
  8
5
  6
Continuous
 62
     4
370
    25
100
AcDbLine
 10
635.3887222470753
 20
1166.826877352297
 30
0.0
 11
672.3887222470753
 21
1166.826877352297
 31
0.0
  0
LINE
  5
16C
330
1F
100
AcDbEntity
  8
5
  6
Continuous
 62
     4
370
    25
100
AcDbLine
 10
635.3887222470753
 20
1157.826877352297
 30
0.0
 11
672.3887222470753
 21
1157.826877352297
 31
0.0
  0
ARC
  5
16D
330
1F
100
AcDbEntity
  8
5
  6
Continuous
 62
     4
370
    25
100
AcDbCircle
 10
672.3887222470753
 20
1162.326877352297
 30
0.0
 40
4.5
100
AcDbArc
 50
269.9999999999998
 51
89.99999999999991
  0
ARC
  5
16E
330
1F
100
AcDbEntity
  8
5
  6
Continuous
 62
     4
370
    25
100
AcDbCircle
 10
635.3887222468752
 20
1152.326876916898
 30
0.0
 40
4.5
100
AcDbArc
 50
89.99999999999991
 51
269.9999999999998
  0
LINE
  5
16F
330
1F
100
AcDbEntity
  8
5
  6
Continuous
 62
     4
370
    25
100
AcDbLine
 10
635.3887222468752
 20
1156.826876916898
 30
0.0
 11
672.3887222468752
 21
1156.826876916898
 31
0.0
  0
LINE
  5
170
330
1F
100
AcDbEntity
  8
5
  6
Continuous
 62
     4
370
    25
100
AcDbLine
 10
635.3887222468752
 20
1147.826876916898
 30
0.0
 11
672.3887222468752
 21
1147.826876916898
 31
0.0
  0
ARC
  5
171
330
1F
100
AcDbEntity
  8
5
  6
Continuous
 62
     4
370
    25
100
AcDbCircle
 10
672.3887222468752
 20
1152.326876916898
 30
0.0
 40
4.5
100
AcDbArc
 50
269.9999999999998
 51
89.99999999999991
  0
ARC
  5
172
330
1F
100
AcDbEntity
  8
5
  6
Continuous
 62
     4
370
    25
100
AcDbCircle
 10
635.3887222470753
 20
1142.326876916897
 30
0.0
 40
4.5
100
AcDbArc
 50
89.99999999999991
 51
269.9999999999998
  0
LINE
  5
173
330
1F
100
AcDbEntity
  8
5
  6
Continuous
 62
     4
370
    25
100
AcDbLine
 10
635.3887222470753
 20
1146.826876916897
 30
0.0
 11
672.3887222470753
 21
1146.826876916897
 31
0.0
  0
LINE
  5
174
330
1F
100
AcDbEntity
  8
5
  6
Continuous
 62
     4
370
    25
100
AcDbLine
 10
635.3887222470753
 20
1137.826876916897
 30
0.0
 11
672.3887222470753
 21
1137.826876916897
 31
0.0
  0
ARC
  5
175
330
1F
100
AcDbEntity
  8
5
  6
Continuous
 62
     4
370
    25
100
AcDbCircle
 10
672.3887222470753
 20
1142.326876916897
 30
0.0
 40
4.5
100
AcDbArc
 50
269.9999999999998
 51
89.99999999999991
  0
ARC
  5
176
330
1F
100
AcDbEntity
  8
5
  6
Continuous
 62
     4
370
    25
100
AcDbCircle
 10
635.3887222470753
 20
1132.326876916897
 30
0.0
 40
4.5
100
AcDbArc
 50
89.99999999999991
 51
269.9999999999998
  0
LINE
  5
177
330
1F
100
AcDbEntity
  8
5
  6
Continuous
 62
     4
370
    25
100
AcDbLine
 10
635.3887222470753
 20
1136.826876916897
 30
0.0
 11
672.3887222470753
 21
1136.826876916897
 31
0.0
  0
LINE
  5
178
330
1F
100
AcDbEntity
  8
5
  6
Continuous
 62
     4
370
    25
100
AcDbLine
 10
635.3887222470753
 20
1127.826876916897
 30
0.0
 11
672.3887222470753
 21
1127.826876916897
 31
0.0
  0
ARC
  5
179
330
1F
100
AcDbEntity
  8
5
  6
Continuous
 62
     4
370
    25
100
AcDbCircle
 10
672.3887222470753
 20
1132.326876916897
 30
0.0
 40
4.5
100
AcDbArc
 50
269.9999999999998
 51
89.99999999999991
  0
ARC
  5
17A
330
1F
100
AcDbEntity
  8
5
  6
Continuous
 62
     4
370
    25
100
AcDbCircle
 10
685.3887222470753
 20
1162.326877352296
 30
0.0
 40
4.5
100
AcDbArc
 50
89.99999999999991
 51
269.9999999999998
  0
LINE
  5
17B
330
1F
100
AcDbEntity
  8
5
  6
Continuous
 62
     4
370
    25
100
AcDbLine
 10
685.3887222470753
 20
1166.826877352296
 30
0.0
 11
722.3887222470753
 21
1166.826877352296
 31
0.0
  0
LINE
  5
17C
330
1F
100
AcDbEntity
  8
5
  6
Continuous
 62
     4
370
    25
100
AcDbLine
 10
685.3887222470753
 20
1157.826877352296
 30
0.0
 11
722.3887222470753
 21
1157.826877352296
 31
0.0
  0
ARC
  5
17D
330
1F
100
AcDbEntity
  8
5
  6
Continuous
 62
     4
370
    25
100
AcDbCircle
 10
722.3887222470753
 20
1162.326877352296
 30
0.0
 40
4.5
100
AcDbArc
 50
269.9999999999998
 51
89.99999999999991
  0
ARC
  5
17E
330
1F
100
AcDbEntity
  8
5
  6
Continuous
 62
     4
370
    25
100
AcDbCircle
 10
685.3887222470753
 20
1152.326876916897
 30
0.0
 40
4.5
100
AcDbArc
 50
89.99999999999991
 51
269.9999999999998
  0
LINE
  5
17F
330
1F
100
AcDbEntity
  8
5
  6
Continuous
 62
     4
370
    25
100
AcDbLine
 10
685.3887222470753
 20
1156.826876916897
 30
0.0
 11
722.3887222470753
 21
1156.826876916897
 31
0.0
  0
LINE
  5
180
330
1F
100
AcDbEntity
  8
5
  6
Continuous
 62
     4
370
    25
100
AcDbLine
 10
685.3887222470753
 20
1147.826876916897
 30
0.0
 11
722.3887222470753
 21
1147.826876916897
 31
0.0
  0
ARC
  5
181
330
1F
100
AcDbEntity
  8
5
  6
Continuous
 62
     4
370
    25
100
AcDbCircle
 10
722.3887222470753
 20
1152.326876916897
 30
0.0
 40
4.5
100
AcDbArc
 50
269.9999999999998
 51
89.99999999999991
  0
ARC
  5
182
330
1F
100
AcDbEntity
  8
5
  6
Continuous
 62
     4
370
    25
100
AcDbCircle
 10
685.3887222468752
 20
1142.326876916898
 30
0.0
 40
4.5
100
AcDbArc
 50
89.99999999999991
 51
269.9999999999998
  0
LINE
  5
183
330
1F
100
AcDbEntity
  8
5
  6
Continuous
 62
     4
370
    25
100
AcDbLine
 10
685.3887222468752
 20
1146.826876916898
 30
0.0
 11
722.3887222468752
 21
1146.826876916898
 31
0.0
  0
LINE
  5
184
330
1F
100
AcDbEntity
  8
5
  6
Continuous
 62
     4
370
    25
100
AcDbLine
 10
685.3887222468752
 20
1137.826876916898
 30
0.0
 11
722.3887222468752
 21
1137.826876916898
 31
0.0
  0
ARC
  5
185
330
1F
100
AcDbEntity
  8
5
  6
Continuous
 62
     4
370
    25
100
AcDbCircle
 10
722.3887222468752
 20
1142.326876916898
 30
0.0
 40
4.5
100
AcDbArc
 50
269.9999999999998
 51
89.99999999999991
  0
ARC
  5
186
330
1F
100
AcDbEntity
  8
5
  6
Continuous
 62
     4
370
    25
100
AcDbCircle
 10
685.3887222470753
 20
1132.326876916898
 30
0.0
 40
4.5
100
AcDbArc
 50
89.99999999999991
 51
269.9999999999998
  0
LINE
  5
187
330
1F
100
AcDbEntity
  8
5
  6
Continuous
 62
     4
370
    25
100
AcDbLine
 10
685.3887222470753
 20
1136.826876916898
 30
0.0
 11
722.3887222470753
 21
1136.826876916898
 31
0.0
  0
LINE
  5
188
330
1F
100
AcDbEntity
  8
5
  6
Continuous
 62
     4
370
    25
100
AcDbLine
 10
685.3887222470753
 20
1127.826876916898
 30
0.0
 11
722.3887222470753
 21
1127.826876916898
 31
0.0
  0
ARC
  5
189
330
1F
100
AcDbEntity
  8
5
  6
Continuous
 62
     4
370
    25
100
AcDbCircle
 10
722.3887222470753
 20
1132.326876916898
 30
0.0
 40
4.5
100
AcDbArc
 50
269.9999999999998
 51
89.99999999999991
  0
ARC
  5
18A
330
1F
100
AcDbEntity
  8
5
  6
Continuous
 62
     4
370
    25
100
AcDbCircle
 10
735.3887222470753
 20
1162.326876916897
 30
0.0
 40
4.5
100
AcDbArc
 50
89.99999999999991
 51
269.9999999999998
  0
LINE
  5
18B
330
1F
100
AcDbEntity
  8
5
  6
Continuous
 62
     4
370
    25
100
AcDbLine
 10
735.3887222470753
 20
1166.826876916897
 30
0.0
 11
772.3887222470753
 21
1166.826876916897
 31
0.0
  0
LINE
  5
18C
330
1F
100
AcDbEntity
  8
5
  6
Continuous
 62
     4
370
    25
100
AcDbLine
 10
735.3887222470753
 20
1157.826876916897
 30
0.0
 11
772.3887222470753
 21
1157.826876916897
 31
0.0
  0
ARC
  5
18D
330
1F
100
AcDbEntity
  8
5
  6
Continuous
 62
     4
370
    25
100
AcDbCircle
 10
772.3887222470753
 20
1162.326876916897
 30
0.0
 40
4.5
100
AcDbArc
 50
269.9999999999998
 51
89.99999999999991
  0
ARC
  5
18E
330
1F
100
AcDbEntity
  8
5
  6
Continuous
 62
     4
370
    25
100
AcDbCircle
 10
735.3887222468752
 20
1152.326876916898
 30
0.0
 40
4.5
100
AcDbArc
 50
89.99999999999991
 51
269.9999999999998
  0
LINE
  5
18F
330
1F
100
AcDbEntity
  8
5
  6
Continuous
 62
     4
370
    25
100
AcDbLine
 10
735.3887222468752
 20
1156.826876916898
 30
0.0
 11
772.3887222468752
 21
1156.826876916898
 31
0.0
  0
LINE
  5
190
330
1F
100
AcDbEntity
  8
5
  6
Continuous
 62
     4
370
    25
100
AcDbLine
 10
735.3887222468752
 20
1148.626876916898
 30
0.0
 11
772.3887222468752
 21
1148.626876916898
 31
0.0
  0
LINE
  5
191
330
1F
100
AcDbEntity
  8
5
  6
Continuous
 62
     4
370
    25
100
AcDbLine
 10
735.3887222468752
 20
1147.826876916898
 30
0.0
 11
772.3887222468752
 21
1147.826876916898
 31
0.0
  0
ARC
  5
192
330
1F
100
AcDbEntity
  8
5
  6
Continuous
 62
     4
370
    25
100
AcDbCircle
 10
772.3887222468752
 20
1152.326876916898
 30
0.0
 40
4.5
100
AcDbArc
 50
269.9999999999998
 51
89.99999999999991
  0
ARC
  5
193
330
1F
100
AcDbEntity
  8
5
  6
Continuous
 62
     4
370
    25
100
AcDbCircle
 10
735.3887222470753
 20
1142.326876916897
 30
0.0
 40
4.5
100
AcDbArc
 50
89.99999999999991
 51
269.9999999999998
  0
LINE
  5
194
330
1F
100
AcDbEntity
  8
5
  6
Continuous
 62
     4
370
    25
100
AcDbLine
 10
735.3887222470753
 20
1146.826876916897
 30
0.0
 11
772.3887222470753
 21
1146.826876916897
 31
0.0
  0
LINE
  5
195
330
1F
100
AcDbEntity
  8
5
  6
Continuous
 62
     4
370
    25
100
AcDbLine
 10
735.3887222470753
 20
1137.826876916897
 30
0.0
 11
772.3887222470753
 21
1137.826876916897
 31
0.0
  0
ARC
  5
196
330
1F
100
AcDbEntity
  8
5
  6
Continuous
 62
     4
370
    25
100
AcDbCircle
 10
772.3887222470753
 20
1142.326876916897
 30
0.0
 40
4.5
100
AcDbArc
 50
269.9999999999998
 51
89.99999999999991
  0
ARC
  5
197
330
1F
100
AcDbEntity
  8
5
  6
Continuous
 62
     4
370
    25
100
AcDbCircle
 10
735.3887222470753
 20
1132.326876916898
 30
0.0
 40
4.5
100
AcDbArc
 50
89.99999999999991
 51
269.9999999999998
  0
LINE
  5
198
330
1F
100
AcDbEntity
  8
5
  6
Continuous
 62
     4
370
    25
100
AcDbLine
 10
735.3887222470753
 20
1136.826876916898
 30
0.0
 11
772.3887222470753
 21
1136.826876916898
 31
0.0
  0
LINE
  5
199
330
1F
100
AcDbEntity
  8
5
  6
Continuous
 62
     4
370
    25
100
AcDbLine
 10
735.3887222470753
 20
1127.826876916898
 30
0.0
 11
772.3887222470753
 21
1127.826876916898
 31
0.0
  0
ARC
  5
19A
330
1F
100
AcDbEntity
  8
5
  6
Continuous
 62
     4
370
    25
100
AcDbCircle
 10
772.3887222470753
 20
1132.326876916898
 30
0.0
 40
4.5
100
AcDbArc
 50
269.9999999999998
 51
89.99999999999991
  0
MTEXT
  5
19B
330
1F
100
AcDbEntity
  8
5
  6
Continuous
 62
     4
370
     9
100
AcDbMText
 10
669.8909485761383
 20
1152.326876481497
 30
0.0
 40
6.050000000000001
 41
7.842358851228001
 46
6.050000000000001
 71
     5
 72
     1
  1
{\fＭＳ Ｐゴシック;\W0.714286;圧}
 73
     1
 44
1.0
1001
ACAD
1000
ACAD_MTEXT_DEFINED_HEIGHT_BEGIN
1070
    46
1040
6.050000000000001
1000
ACAD_MTEXT_DEFINED_HEIGHT_END
  0
MTEXT
  5
19C
330
1F
100
AcDbEntity
  8
5
  6
Continuous
 62
     4
370
     9
100
AcDbMText
 10
661.8909485761383
 20
1152.326876481497
 30
0.0
 40
6.050000000000001
 41
7.842358851228001
 46
6.050000000000001
 71
     5
 72
     1
  1
{\fＭＳ Ｐゴシック;\W0.714286;電}
 73
     1
 44
1.0
1001
ACAD
1000
ACAD_MTEXT_DEFINED_HEIGHT_BEGIN
1070
    46
1040
6.050000000000001
1000
ACAD_MTEXT_DEFINED_HEIGHT_END
  0
MTEXT
  5
19D
330
1F
100
AcDbEntity
  8
5
  6
Continuous
 62
     4
370
     9
100
AcDbMText
 10
653.8909485761383
 20
1152.326876481497
 30
0.0
 40
6.050000000000001
 41
8.22281757484
 46
6.050000000000001
 71
     5
 72
     1
  1
{\fＭＳ Ｐゴシック;\W0.714286;路}
 73
     1
 44
1.0
1001
ACAD
1000
ACAD_MTEXT_DEFINED_HEIGHT_BEGIN
1070
    46
1040
6.050000000000001
1000
ACAD_MTEXT_DEFINED_HEIGHT_END
  0
MTEXT
  5
19E
330
1F
100
AcDbEntity
  8
5
  6
Continuous
 62
     4
370
     9
100
AcDbMText
 10
645.8909485761383
 20
1152.326876481497
 30
0.0
 40
6.050000000000001
 41
7.007804231692
 46
6.050000000000001
 71
     5
 72
     1
  1
{\fＭＳ Ｐゴシック;\W0.714286;回}
 73
     1
 44
1.0
1001
ACAD
1000
ACAD_MTEXT_DEFINED_HEIGHT_BEGIN
1070
    46
1040
6.050000000000001
1000
ACAD_MTEXT_DEFINED_HEIGHT_END
  0
MTEXT
  5
19F
330
1F
100
AcDbEntity
  8
5
  6
Continuous
 62
     4
370
     9
100
AcDbMText
 10
669.8909485759382
 20
1142.326876481498
 30
0.0
 40
6.050000000000001
 41
7.529400868902001
 46
6.050000000000001
 71
     5
 72
     1
  1
{\fＭＳ Ｐゴシック;\W0.714286;常}
 73
     1
 44
1.0
1001
ACAD
1000
ACAD_MTEXT_DEFINED_HEIGHT_BEGIN
1070
    46
1040
6.050000000000001
1000
ACAD_MTEXT_DEFINED_HEIGHT_END
  0
MTEXT
  5
1A0
330
1F
100
AcDbEntity
  8
5
  6
Continuous
 62
     4
370
     9
100
AcDbMText
 10
645.8909485759382
 20
1142.326876481498
 30
0.0
 40
6.050000000000001
 41
8.124634678424002
 46
6.050000000000001
 71
     5
 72
     1
  1
{\fＭＳ Ｐゴシック;\W0.714286;異}
 73
     1
 44
1.0
1001
ACAD
1000
ACAD_MTEXT_DEFINED_HEIGHT_BEGIN
1070
    46
1040
6.050000000000001
1000
ACAD_MTEXT_DEFINED_HEIGHT_END
  0
MTEXT
  5
1A1
330
1F
100
AcDbEntity
  8
5
  6
Continuous
 62
     4
370
     9
100
AcDbMText
 10
660.3409485761399
 20
1132.326876916897
 30
0.0
 40
4.95
 41
5.844113766216
 46
4.95
 71
     5
 72
     1
  1
{\fＭＳ Ｐゴシック;\W0.714286;チ}
 73
     1
 44
1.0
1001
ACAD
1000
ACAD_MTEXT_DEFINED_HEIGHT_BEGIN
1070
    46
1040
4.95
1000
ACAD_MTEXT_DEFINED_HEIGHT_END
  0
MTEXT
  5
1A2
330
1F
100
AcDbEntity
  8
5
  6
Continuous
 62
     4
370
     9
100
AcDbMText
 10
650.5409485761406
 20
1132.326876916897
 30
0.0
 40
4.95
 41
5.306897122758
 46
4.95
 71
     5
 72
     1
  1
{\fＭＳ Ｐゴシック;\W0.714286;イ}
 73
     1
 44
1.0
1001
ACAD
1000
ACAD_MTEXT_DEFINED_HEIGHT_BEGIN
1070
    46
1040
4.95
1000
ACAD_MTEXT_DEFINED_HEIGHT_END
  0
MTEXT
  5
1A3
330
1F
100
AcDbEntity
  8
5
  6
Continuous
 62
     4
370
     9
100
AcDbMText
 10
645.6409485761401
 20
1132.326876916897
 30
0.0
 40
4.95
 41
5.959590240978
 46
4.95
 71
     5
 72
     1
  1
{\fＭＳ Ｐゴシック;\W0.714286;ス}
 73
     1
 44
1.0
1001
ACAD
1000
ACAD_MTEXT_DEFINED_HEIGHT_BEGIN
1070
    46
1040
4.95
1000
ACAD_MTEXT_DEFINED_HEIGHT_END
  0
MTEXT
  5
1A4
330
1F
100
AcDbEntity
  8
5
  6
Continuous
 62
     4
370
     9
100
AcDbMText
 10
670.140948576141
 20
1132.326876916897
 30
0.0
 40
4.95
 41
6.587179777728001
 46
4.95
 71
     5
 72
     1
  1
{\fＭＳ Ｐゴシック;\W0.714286;意}
 73
     1
 44
1.0
1001
ACAD
1000
ACAD_MTEXT_DEFINED_HEIGHT_BEGIN
1070
    46
1040
4.95
1000
ACAD_MTEXT_DEFINED_HEIGHT_END
  0
MTEXT
  5
1A5
330
1F
100
AcDbEntity
  8
5
  6
Continuous
 62
     4
370
     9
100
AcDbMText
 10
665.2409485761405
 20
1132.326876916897
 30
0.0
 40
4.95
 41
6.526931182200001
 46
4.95
 71
     5
 72
     1
  1
{\fＭＳ Ｐゴシック;\W0.714286;注}
 73
     1
 44
1.0
1001
ACAD
1000
ACAD_MTEXT_DEFINED_HEIGHT_BEGIN
1070
    46
1040
4.95
1000
ACAD_MTEXT_DEFINED_HEIGHT_END
  0
MTEXT
  5
1A6
330
1F
100
AcDbEntity
  8
5
  6
Continuous
 62
     4
370
     9
100
AcDbMText
 10
655.4409485761403
 20
1131.826876916898
 30
0.0
 40
4.95
 41
4.850011940004
 46
4.95
 71
     5
 72
     1
  1
{\fＭＳ Ｐゴシック;\W0.714286;ッ}
 73
     1
 44
1.0
1001
ACAD
1000
ACAD_MTEXT_DEFINED_HEIGHT_BEGIN
1070
    46
1040
4.95
1000
ACAD_MTEXT_DEFINED_HEIGHT_END
  0
LINE
  5
1A7
330
1F
100
AcDbEntity
  8
5
  6
Continuous
 62
     4
370
    25
100
AcDbLine
 10
629.3908658763235
 20
1077.82682397477
 30
0.0
 11
629.3908658763244
 21
1081.82682397477
 31
0.0
  0
LINE
  5
1A8
330
1F
100
AcDbEntity
  8
5
  6
Continuous
 62
     4
370
    25
100
AcDbLine
 10
636.3908658763244
 20
1081.82682397477
 30
0.0
 11
629.3908658763244
 21
1081.82682397477
 31
0.0
  0
LINE
  5
1A9
330
1F
100
AcDbEntity
  8
5
  6
Continuous
 62
     4
370
    25
100
AcDbLine
 10
636.3908658763244
 20
1077.82682397477
 30
0.0
 11
636.3908658763235
 21
1081.82682397477
 31
0.0
  0
LINE
  5
1AA
330
1F
100
AcDbEntity
  8
5
  6
Continuous
 62
     4
370
    25
100
AcDbLine
 10
636.3908658763244
 20
1077.82682397477
 30
0.0
 11
629.3908658763244
 21
1077.82682397477
 31
0.0
  0
CIRCLE
  5
1AB
330
1F
100
AcDbEntity
  8
5
  6
Continuous
 62
     4
370
    25
100
AcDbCircle
 10
642.8887222470789
 20
1108.3268064865
 30
0.0
 40
5.300000000000182
  0
MTEXT
  5
1AC
330
1F
100
AcDbEntity
  8
5
  6
Continuous
 62
     4
370
     9
100
AcDbMText
 10
669.8909485761383
 20
1162.326876916897
 30
0.0
 40
6.050000000000001
 41
8.118498247398001
 46
6.050000000000001
 71
     5
 72
     1
  1
{\fＭＳ Ｐゴシック;\W0.714286;源}
 73
     1
 44
1.0
1001
ACAD
1000
ACAD_MTEXT_DEFINED_HEIGHT_BEGIN
1070
    46
1040
6.050000000000001
1000
ACAD_MTEXT_DEFINED_HEIGHT_END
  0
MTEXT
  5
1AD
330
1F
100
AcDbEntity
  8
5
  6
Continuous
 62
     4
370
     9
100
AcDbMText
 10
661.8909485761383
 20
1162.326876916897
 30
0.0
 40
6.050000000000001
 41
7.842358851228001
 46
6.050000000000001
 71
     5
 72
     1
  1
{\fＭＳ Ｐゴシック;\W0.714286;電}
 73
     1
 44
1.0
1001
ACAD
1000
ACAD_MTEXT_DEFINED_HEIGHT_BEGIN
1070
    46
1040
6.050000000000001
1000
ACAD_MTEXT_DEFINED_HEIGHT_END
  0
MTEXT
  5
1AE
330
1F
100
AcDbEntity
  8
5
  6
Continuous
 62
     4
370
     9
100
AcDbMText
 10
653.8909485761383
 20
1162.326876916897
 30
0.0
 40
6.050000000000001
 41
8.050997506112001
 46
6.050000000000001
 71
     5
 72
     1
  1
{\fＭＳ Ｐゴシック;\W0.714286;流}
 73
     1
 44
1.0
1001
ACAD
1000
ACAD_MTEXT_DEFINED_HEIGHT_BEGIN
1070
    46
1040
6.050000000000001
1000
ACAD_MTEXT_DEFINED_HEIGHT_END
  0
MTEXT
  5
1AF
330
1F
100
AcDbEntity
  8
5
  6
Continuous
 62
     4
370
     9
100
AcDbMText
 10
645.8909485761383
 20
1162.326876916897
 30
0.0
 40
6.050000000000001
 41
7.523264437876001
 46
6.050000000000001
 71
     5
 72
     1
  1
{\fＭＳ Ｐゴシック;\W0.714286;交}
 73
     1
 44
1.0
1001
ACAD
1000
ACAD_MTEXT_DEFINED_HEIGHT_BEGIN
1070
    46
1040
6.050000000000001
1000
ACAD_MTEXT_DEFINED_HEIGHT_END
  0
LINE
  5
1B0
330
1F
100
AcDbEntity
  8
5
  6
Continuous
 62
     4
370
    25
100
AcDbLine
 10
950.888688251342
 20
1185.825760461553
 30
0.0
 11
832.3864294851987
 21
1185.825760461553
 31
0.0
  0
LINE
  5
1B1
330
1F
100
AcDbEntity
  8
5
  6
Continuous
 62
     4
370
    25
100
AcDbLine
 10
709.3901094840835
 20
1185.825760461553
 30
0.0
 11
590.888688251342
 21
1185.825760461553
 31
0.0
  0
LINE
  5
1B2
330
1F
100
AcDbEntity
  8
5
  6
Continuous
 62
     4
370
    25
100
AcDbLine
 10
950.888688251342
 20
1190.825760461553
 30
0.0
 11
835.8874209405635
 21
1190.825760461553
 31
0.0
  0
LINE
  5
1B3
330
1F
100
AcDbEntity
  8
5
  6
Continuous
 62
     4
370
    25
100
AcDbLine
 10
705.889025556949
 20
1190.825760461552
 30
0.0
 11
590.888688251342
 21
1190.825760461553
 31
0.0
  0
LINE
  5
1B4
330
1F
100
AcDbEntity
  8
5
  6
Continuous
 62
     4
370
    25
100
AcDbLine
 10
828.885438029833
 20
1180.825760461553
 30
0.0
 11
839.3876317992886
 21
1195.824645639294
 31
0.0
  0
LINE
  5
1B5
330
1F
100
AcDbEntity
  8
5
  6
Continuous
 62
     4
370
    25
100
AcDbLine
 10
712.891193411218
 20
1180.825760461553
 30
0.0
 11
702.3887222470744
 21
1195.824645639294
 31
0.0
  0
LINE
  5
1B6
330
1F
100
AcDbEntity
  8
5
  6
Continuous
 62
     4
370
    25
100
AcDbLine
 10
950.888688251342
 20
1195.824645639294
 30
0.0
 11
839.3876317992876
 21
1195.824645639294
 31
0.0
  0
LINE
  5
1B7
330
1F
100
AcDbEntity
  8
5
  6
Continuous
 62
     4
370
    25
100
AcDbLine
 10
702.3887222470744
 20
1195.824645639294
 30
0.0
 11
590.888688251342
 21
1195.824645639294
 31
0.0
  0
LINE
  5
1B8
330
1F
100
AcDbEntity
  8
5
  6
Continuous
 62
     4
370
    25
100
AcDbLine
 10
590.888688251342
 20
1180.825760461553
 30
0.0
 11
712.891193411217
 21
1180.825760461553
 31
0.0
  0
LINE
  5
1B9
330
1F
100
AcDbEntity
  8
5
  6
Continuous
 62
     4
370
    25
100
AcDbLine
 10
828.885438029833
 20
1180.825760461553
 30
0.0
 11
950.888688251342
 21
1180.825760461553
 31
0.0
  0
LINE
  5
1BA
330
1F
100
AcDbEntity
  8
5
  6
Continuous
 62
     4
370
    25
100
AcDbLine
 10
824.2859719798275
 20
1180.826409675166
 30
0.0
 11
717.4916424854077
 21
1180.826409675166
 31
0.0
  0
ARC
  5
1BB
330
1F
100
AcDbEntity
  8
5
  6
Continuous
 62
     4
370
    25
100
AcDbCircle
 10
717.4916424854077
 20
1185.826409675166
 30
0.0
 40
5.0
100
AcDbArc
 50
215.0003555174515
 51
269.9999999999998
  0
LINE
  5
1BC
330
1F
100
AcDbEntity
  8
5
  6
Continuous
 62
     4
370
    25
100
AcDbLine
 10
828.3817499962556
 20
1182.95855290745
 30
0.0
 11
837.3910207181402
 21
1195.825294852906
 31
0.0
  0
ARC
  5
1BD
330
1F
100
AcDbEntity
  8
5
  6
Continuous
 62
     4
370
    25
100
AcDbCircle
 10
824.2859719798275
 20
1185.826409675166
 30
0.0
 40
5.0
100
AcDbArc
 50
269.9999999999998
 51
325.0003555173356
  0
LINE
  5
1BE
330
1F
100
AcDbEntity
  8
5
  6
Continuous
 62
     4
370
    25
100
AcDbLine
 10
713.3959000591035
 20
1182.958502079483
 30
0.0
 11
704.3863557845448
 21
1195.825294852906
 31
0.0
  0
LINE
  5
1BF
330
1F
100
AcDbEntity
  8
5
  6
Continuous
 62
     4
370
    25
100
AcDbLine
 10
837.3910207181402
 20
1195.825294852906
 30
0.0
 11
704.3863557845448
 21
1195.825294852906
 31
0.0
  0
MTEXT
  5
1C0
330
1F
100
AcDbEntity
  8
5
  6
Continuous
 62
     4
370
     9
100
AcDbMText
 10
734.8888203766651
 20
1188.326409675166
 30
0.0
 40
11.0
 41
14.0022198866
 46
11.0
 71
     5
 72
     1
  1
{\fＭＳ Ｐゴシック;\W0.714286;消}
 73
     1
 44
1.0
1001
ACAD
1000
ACAD_MTEXT_DEFINED_HEIGHT_BEGIN
1070
    46
1040
11.0
1000
ACAD_MTEXT_DEFINED_HEIGHT_END
  0
MTEXT
  5
1C1
330
1F
100
AcDbEntity
  8
5
  6
Continuous
 62
     4
370
     9
100
AcDbMText
 10
746.8888203766651
 20
1188.326409675166
 30
0.0
 40
11.0
 41
13.74560549824
 46
11.0
 71
     5
 72
     1
  1
{\fＭＳ Ｐゴシック;\W0.714286;火}
 73
     1
 44
1.0
1001
ACAD
1000
ACAD_MTEXT_DEFINED_HEIGHT_BEGIN
1070
    46
1040
11.0
1000
ACAD_MTEXT_DEFINED_HEIGHT_END
  0
MTEXT
  5
1C2
330
1F
100
AcDbEntity
  8
5
  6
Continuous
 62
     4
370
     9
100
AcDbMText
 10
758.8888203766642
 20
1188.326409675166
 30
0.0
 40
11.0
 41
14.58239154724
 46
11.0
 71
     5
 72
     1
  1
{\fＭＳ Ｐゴシック;\W0.714286;設}
 73
     1
 44
1.0
1001
ACAD
1000
ACAD_MTEXT_DEFINED_HEIGHT_BEGIN
1070
    46
1040
11.0
1000
ACAD_MTEXT_DEFINED_HEIGHT_END
  0
MTEXT
  5
1C3
330
1F
100
AcDbEntity
  8
5
  6
Continuous
 62
     4
370
     9
100
AcDbMText
 10
770.8888203766642
 20
1188.326409675166
 30
0.0
 40
11.0
 41
14.4485057794
 46
11.0
 71
     5
 72
     1
  1
{\fＭＳ Ｐゴシック;\W0.714286;備}
 73
     1
 44
1.0
1001
ACAD
1000
ACAD_MTEXT_DEFINED_HEIGHT_BEGIN
1070
    46
1040
11.0
1000
ACAD_MTEXT_DEFINED_HEIGHT_END
  0
MTEXT
  5
1C4
330
1F
100
AcDbEntity
  8
5
  6
Continuous
 62
     4
370
     9
100
AcDbMText
 10
782.8888203766642
 20
1188.326409675166
 30
0.0
 40
11.0
 41
14.19189139104
 46
11.0
 71
     5
 72
     1
  1
{\fＭＳ Ｐゴシック;\W0.714286;制}
 73
     1
 44
1.0
1001
ACAD
1000
ACAD_MTEXT_DEFINED_HEIGHT_BEGIN
1070
    46
1040
11.0
1000
ACAD_MTEXT_DEFINED_HEIGHT_END
  0
MTEXT
  5
1C5
330
1F
100
AcDbEntity
  8
5
  6
Continuous
 62
     4
370
     9
100
AcDbMText
 10
794.8888203766642
 20
1188.326409675166
 30
0.0
 40
11.0
 41
14.38156289548
 46
11.0
 71
     5
 72
     1
  1
{\fＭＳ Ｐゴシック;\W0.714286;御}
 73
     1
 44
1.0
1001
ACAD
1000
ACAD_MTEXT_DEFINED_HEIGHT_BEGIN
1070
    46
1040
11.0
1000
ACAD_MTEXT_DEFINED_HEIGHT_END
  0
MTEXT
  5
1C6
330
1F
100
AcDbEntity
  8
5
  6
Continuous
 62
     4
370
     9
100
AcDbMText
 10
806.8888203766642
 20
1188.326409675166
 30
0.0
 40
11.0
 41
14.70512016776
 46
11.0
 71
     5
 72
     1
  1
{\fＭＳ Ｐゴシック;\W0.714286;盤}
 73
     1
 44
1.0
1001
ACAD
1000
ACAD_MTEXT_DEFINED_HEIGHT_BEGIN
1070
    46
1040
11.0
1000
ACAD_MTEXT_DEFINED_HEIGHT_END
  0
LINE
  5
1C7
330
1F
100
AcDbEntity
  8
5
  6
Continuous
 62
     4
370
    25
100
AcDbLine
 10
836.0463332292597
 20
1195.125294852906
 30
0.0
 11
705.7310432734243
 21
1195.125294852906
 31
0.0
  0
LINE
  5
1C8
330
1F
100
AcDbEntity
  8
5
  6
Continuous
 62
     4
370
    25
100
AcDbLine
 10
705.7310432734243
 20
1195.125294852906
 30
0.0
 11
713.9691697130561
 21
1183.360030998856
 31
0.0
  0
LINE
  5
1C9
330
1F
100
AcDbEntity
  8
5
  6
Continuous
 62
     4
370
    25
100
AcDbLine
 10
824.285852999185
 20
1181.526409675167
 30
0.0
 11
717.4915235034991
 21
1181.526409675166
 31
0.0
  0
ARC
  5
1CA
330
1F
100
AcDbEntity
  8
5
  6
Continuous
 62
     4
370
    25
100
AcDbCircle
 10
717.4915235034991
 20
1185.826409675166
 30
0.0
 40
4.300000000000011
100
AcDbArc
 50
215.0000000000566
 51
269.9999999999998
  0
LINE
  5
1CB
330
1F
100
AcDbEntity
  8
5
  6
Continuous
 62
     4
370
    25
100
AcDbLine
 10
836.0463332292597
 20
1195.125294852906
 30
0.0
 11
827.808206789628
 21
1183.360030998856
 31
0.0
  0
ARC
  5
1CC
330
1F
100
AcDbEntity
  8
5
  6
Continuous
 62
     4
370
    25
100
AcDbCircle
 10
824.285852999185
 20
1185.826409675166
 30
0.0
 40
4.299999999999955
100
AcDbArc
 50
269.9999999999998
 51
324.9999999999427
  0
HATCH
  5
1CD
330
1F
100
AcDbEntity
  8
5
  6
Continuous
 62
     4
370
    25
100
AcDbHatch
 10
0.0
 20
0.0
 30
0.0
210
0.0
220
0.0
230
1.0
  2
SOLID
 70
     1
 71
     0
 91
        2
 92
        0
 93
        6
 72
     1
 10
705.7310092776911
 20
1195.125294852906
 11
713.9691357173228
 21
1183.360030998856
 72
     2
 10
717.4914895077659
 20
1185.826409675166
 40
4.300000000000011
 50
214.9999999999964
 51
270.0000000000001
 73
     1
 72
     1
 10
717.4914895077659
 20
1181.526409675166
 11
824.2858190034517
 21
1181.526409675166
 72
     2
 10
824.2858190034517
 20
1185.826409675166
 40
4.299999999999955
 50
270.0000000000001
 51
325.0000000000002
 73
     1
 72
     1
 10
827.8081727938948
 20
1183.360030998856
 11
836.0462992335265
 21
1195.125294852906
 72
     1
 10
836.0462992335265
 20
1195.125294852906
 11
705.7310092776911
 21
1195.125294852906
 97
        0
 92
        0
 93
        6
 72
     1
 10
837.390986722407
 20
1195.825294852906
 11
704.3863217888115
 21
1195.825294852906
 72
     1
 10
704.3863217888115
 20
1195.825294852906
 11
713.3958660633702
 21
1182.958502079483
 72
     2
 10
717.4916084896745
 20
1185.826409675166
 40
5.0
 50
215.0003555173767
 51
270.0000000000001
 73
     1
 72
     1
 10
717.4916084896745
 20
1180.826409675166
 11
824.2859379840943
 21
1180.826409675166
 72
     2
 10
824.2859379840943
 20
1185.826409675166
 40
5.0
 50
270.0000000000001
 51
325.0003555173778
 73
     1
 72
     1
 10
828.3817160005224
 20
1182.95855290745
 11
837.390986722407
 21
1195.825294852906
 97
        0
 75
     0
 76
     1
 98
        0
  0
LINE
  5
1CE
330
1F
100
AcDbEntity
  8
5
  6
Continuous
 62
     4
370
    25
100
AcDbLine
 10
909.8887222470835
 20
1073.826928532425
 30
0.0
 11
909.8887222470835
 21
1076.826928532425
 31
0.0
  0
LINE
  5
1CF
330
1F
100
AcDbEntity
  8
5
  6
Continuous
 62
     4
370
    25
100
AcDbLine
 10
915.8887222470835
 20
1073.826928532425
 30
0.0
 11
915.8887222470835
 21
1076.826928532425
 31
0.0
  0
LINE
  5
1D0
330
1F
100
AcDbEntity
  8
5
  6
Continuous
 62
     4
370
    25
100
AcDbLine
 10
915.8887222470835
 20
1073.826928532425
 30
0.0
 11
909.8887222470835
 21
1073.826928532425
 31
0.0
  0
LINE
  5
1D1
330
1F
100
AcDbEntity
  8
5
  6
Continuous
 62
     4
370
    25
100
AcDbLine
 10
915.8887222470835
 20
1076.826928532425
 30
0.0
 11
909.8887222470835
 21
1076.826928532425
 31
0.0
  0
LINE
  5
1D2
330
1F
100
AcDbEntity
  8
5
  6
Continuous
 62
     4
370
    25
100
AcDbLine
 10
845.8887222470826
 20
1073.827539282418
 30
0.0
 11
845.8887222470826
 21
1076.827539282418
 31
0.0
  0
LINE
  5
1D3
330
1F
100
AcDbEntity
  8
5
  6
Continuous
 62
     4
370
    25
100
AcDbLine
 10
851.8887222470826
 20
1073.827539282418
 30
0.0
 11
851.8887222470826
 21
1076.827539282418
 31
0.0
  0
LINE
  5
1D4
330
1F
100
AcDbEntity
  8
5
  6
Continuous
 62
     4
370
    25
100
AcDbLine
 10
851.8887222470826
 20
1073.827539282418
 30
0.0
 11
845.8887222470826
 21
1073.827539282418
 31
0.0
  0
LINE
  5
1D5
330
1F
100
AcDbEntity
  8
5
  6
Continuous
 62
     4
370
    25
100
AcDbLine
 10
851.8887222470826
 20
1076.827539282418
 30
0.0
 11
845.8887222470826
 21
1076.827539282418
 31
0.0
  0
LINE
  5
1D6
330
1F
100
AcDbEntity
  8
5
  6
Continuous
 62
     4
370
    25
100
AcDbLine
 10
813.8876534294518
 20
1073.827844667615
 30
0.0
 11
813.8876534294518
 21
1076.827844667615
 31
0.0
  0
LINE
  5
1D7
330
1F
100
AcDbEntity
  8
5
  6
Continuous
 62
     4
370
    25
100
AcDbLine
 10
819.8876534294518
 20
1073.827844667615
 30
0.0
 11
819.8876534294518
 21
1076.827844667615
 31
0.0
  0
LINE
  5
1D8
330
1F
100
AcDbEntity
  8
5
  6
Continuous
 62
     4
370
    25
100
AcDbLine
 10
819.8876534294518
 20
1073.827844667615
 30
0.0
 11
813.8876534294518
 21
1073.827844667615
 31
0.0
  0
LINE
  5
1D9
330
1F
100
AcDbEntity
  8
5
  6
Continuous
 62
     4
370
    25
100
AcDbLine
 10
819.8876534294518
 20
1076.827844667615
 30
0.0
 11
813.8876534294518
 21
1076.827844667615
 31
0.0
  0
LINE
  5
1DA
330
1F
100
AcDbEntity
  8
5
  6
Continuous
 62
     4
370
    25
100
AcDbLine
 10
781.8887222470817
 20
1073.828150032413
 30
0.0
 11
781.8887222470817
 21
1076.828150032413
 31
0.0
  0
LINE
  5
1DB
330
1F
100
AcDbEntity
  8
5
  6
Continuous
 62
     4
370
    25
100
AcDbLine
 10
787.8887222470817
 20
1073.828150032413
 30
0.0
 11
787.8887222470817
 21
1076.828150032413
 31
0.0
  0
LINE
  5
1DC
330
1F
100
AcDbEntity
  8
5
  6
Continuous
 62
     4
370
    25
100
AcDbLine
 10
787.8887222470817
 20
1073.828150032413
 30
0.0
 11
781.8887222470817
 21
1073.828150032413
 31
0.0
  0
LINE
  5
1DD
330
1F
100
AcDbEntity
  8
5
  6
Continuous
 62
     4
370
    25
100
AcDbLine
 10
787.8887222470817
 20
1076.828150032413
 30
0.0
 11
781.8887222470817
 21
1076.828150032413
 31
0.0
  0
LINE
  5
1DE
330
1F
100
AcDbEntity
  8
5
  6
Continuous
 62
     4
370
    25
100
AcDbLine
 10
749.8887222470826
 20
1073.82845540741
 30
0.0
 11
749.8887222470826
 21
1076.82845540741
 31
0.0
  0
LINE
  5
1DF
330
1F
100
AcDbEntity
  8
5
  6
Continuous
 62
     4
370
    25
100
AcDbLine
 10
755.8887222470826
 20
1073.82845540741
 30
0.0
 11
755.8887222470826
 21
1076.82845540741
 31
0.0
  0
LINE
  5
1E0
330
1F
100
AcDbEntity
  8
5
  6
Continuous
 62
     4
370
    25
100
AcDbLine
 10
755.8887222470826
 20
1073.82845540741
 30
0.0
 11
749.8887222470826
 21
1073.82845540741
 31
0.0
  0
LINE
  5
1E1
330
1F
100
AcDbEntity
  8
5
  6
Continuous
 62
     4
370
    25
100
AcDbLine
 10
755.8887222470826
 20
1076.82845540741
 30
0.0
 11
749.8887222470826
 21
1076.82845540741
 31
0.0
  0
LINE
  5
1E2
330
1F
100
AcDbEntity
  8
5
  6
Continuous
 62
     4
370
    25
100
AcDbLine
 10
717.8887222470826
 20
1073.828760782407
 30
0.0
 11
717.8887222470826
 21
1076.828760782407
 31
0.0
  0
LINE
  5
1E3
330
1F
100
AcDbEntity
  8
5
  6
Continuous
 62
     4
370
    25
100
AcDbLine
 10
723.8887222470826
 20
1073.828760782407
 30
0.0
 11
723.8887222470826
 21
1076.828760782407
 31
0.0
  0
LINE
  5
1E4
330
1F
100
AcDbEntity
  8
5
  6
Continuous
 62
     4
370
    25
100
AcDbLine
 10
723.8887222470826
 20
1073.828760782407
 30
0.0
 11
717.8887222470826
 21
1073.828760782407
 31
0.0
  0
LINE
  5
1E5
330
1F
100
AcDbEntity
  8
5
  6
Continuous
 62
     4
370
    25
100
AcDbLine
 10
723.8887222470826
 20
1076.828760782407
 30
0.0
 11
717.8887222470826
 21
1076.828760782407
 31
0.0
  0
LINE
  5
1E6
330
1F
100
AcDbEntity
  8
5
  6
Continuous
 62
     4
370
    25
100
AcDbLine
 10
904.538722247084
 20
1070.676876046097
 30
0.0
 11
904.5387222470849
 21
1053.976876046097
 31
0.0
  0
LINE
  5
1E7
330
1F
100
AcDbEntity
  8
5
  6
Continuous
 62
     4
370
    25
100
AcDbLine
 10
904.5387222470849
 20
1070.676876046097
 30
0.0
 11
921.2387222470848
 21
1070.676876046097
 31
0.0
  0
LINE
  5
1E8
330
1F
100
AcDbEntity
  8
5
  6
Continuous
 62
     4
370
    25
100
AcDbLine
 10
904.538722247084
 20
1053.976876046097
 30
0.0
 11
921.2387222470848
 21
1053.976876046097
 31
0.0
  0
LINE
  5
1E9
330
1F
100
AcDbEntity
  8
5
  6
Continuous
 62
     4
370
    25
100
AcDbLine
 10
921.2387222470848
 20
1070.676876046097
 30
0.0
 11
921.2387222470848
 21
1053.976876046097
 31
0.0
  0
LINE
  5
1EA
330
1F
100
AcDbEntity
  8
5
  6
Continuous
 62
     4
370
    25
100
AcDbLine
 10
840.5387222470831
 20
1070.676876046097
 30
0.0
 11
840.538722247084
 21
1053.976876046097
 31
0.0
  0
LINE
  5
1EB
330
1F
100
AcDbEntity
  8
5
  6
Continuous
 62
     4
370
    25
100
AcDbLine
 10
840.538722247084
 20
1070.676876046097
 30
0.0
 11
857.2387222470838
 21
1070.676876046097
 31
0.0
  0
LINE
  5
1EC
330
1F
100
AcDbEntity
  8
5
  6
Continuous
 62
     4
370
    25
100
AcDbLine
 10
840.5387222470831
 20
1053.976876046097
 30
0.0
 11
857.2387222470838
 21
1053.976876046097
 31
0.0
  0
LINE
  5
1ED
330
1F
100
AcDbEntity
  8
5
  6
Continuous
 62
     4
370
    25
100
AcDbLine
 10
857.2387222470838
 20
1070.676876046097
 30
0.0
 11
857.2387222470838
 21
1053.976876046097
 31
0.0
  0
LINE
  5
1EE
330
1F
100
AcDbEntity
  8
5
  6
Continuous
 62
     4
370
    25
100
AcDbLine
 10
808.5387222470831
 20
1070.676876046097
 30
0.0
 11
808.538722247084
 21
1053.976876046097
 31
0.0
  0
LINE
  5
1EF
330
1F
100
AcDbEntity
  8
5
  6
Continuous
 62
     4
370
    25
100
AcDbLine
 10
808.538722247084
 20
1070.676876046097
 30
0.0
 11
825.2387222470838
 21
1070.676876046097
 31
0.0
  0
LINE
  5
1F0
330
1F
100
AcDbEntity
  8
5
  6
Continuous
 62
     4
370
    25
100
AcDbLine
 10
808.5387222470831
 20
1053.976876046097
 30
0.0
 11
825.2387222470838
 21
1053.976876046097
 31
0.0
  0
LINE
  5
1F1
330
1F
100
AcDbEntity
  8
5
  6
Continuous
 62
     4
370
    25
100
AcDbLine
 10
825.2387222470838
 20
1070.676876046097
 30
0.0
 11
825.2387222470838
 21
1053.976876046097
 31
0.0
  0
LINE
  5
1F2
330
1F
100
AcDbEntity
  8
5
  6
Continuous
 62
     4
370
    25
100
AcDbLine
 10
776.5387222470831
 20
1070.676876046097
 30
0.0
 11
776.538722247084
 21
1053.976876046097
 31
0.0
  0
LINE
  5
1F3
330
1F
100
AcDbEntity
  8
5
  6
Continuous
 62
     4
370
    25
100
AcDbLine
 10
776.538722247084
 20
1070.676876046097
 30
0.0
 11
793.2387222470838
 21
1070.676876046097
 31
0.0
  0
LINE
  5
1F4
330
1F
100
AcDbEntity
  8
5
  6
Continuous
 62
     4
370
    25
100
AcDbLine
 10
776.5387222470831
 20
1053.976876046097
 30
0.0
 11
793.2387222470838
 21
1053.976876046097
 31
0.0
  0
LINE
  5
1F5
330
1F
100
AcDbEntity
  8
5
  6
Continuous
 62
     4
370
    25
100
AcDbLine
 10
793.2387222470838
 20
1070.676876046097
 30
0.0
 11
793.2387222470838
 21
1053.976876046097
 31
0.0
  0
LINE
  5
1F6
330
1F
100
AcDbEntity
  8
5
  6
Continuous
 62
     4
370
    25
100
AcDbLine
 10
744.5387222470831
 20
1070.676876046097
 30
0.0
 11
744.538722247084
 21
1053.976876046097
 31
0.0
  0
LINE
  5
1F7
330
1F
100
AcDbEntity
  8
5
  6
Continuous
 62
     4
370
    25
100
AcDbLine
 10
744.538722247084
 20
1070.676876046097
 30
0.0
 11
761.2387222470838
 21
1070.676876046097
 31
0.0
  0
LINE
  5
1F8
330
1F
100
AcDbEntity
  8
5
  6
Continuous
 62
     4
370
    25
100
AcDbLine
 10
744.5387222470831
 20
1053.976876046097
 30
0.0
 11
761.2387222470838
 21
1053.976876046097
 31
0.0
  0
LINE
  5
1F9
330
1F
100
AcDbEntity
  8
5
  6
Continuous
 62
     4
370
    25
100
AcDbLine
 10
761.2387222470838
 20
1070.676876046097
 30
0.0
 11
761.2387222470838
 21
1053.976876046097
 31
0.0
  0
LINE
  5
1FA
330
1F
100
AcDbEntity
  8
5
  6
Continuous
 62
     4
370
    25
100
AcDbLine
 10
712.5387222470831
 20
1070.676876046097
 30
0.0
 11
712.538722247084
 21
1053.976876046097
 31
0.0
  0
LINE
  5
1FB
330
1F
100
AcDbEntity
  8
5
  6
Continuous
 62
     4
370
    25
100
AcDbLine
 10
712.538722247084
 20
1070.676876046097
 30
0.0
 11
729.2387222470838
 21
1070.676876046097
 31
0.0
  0
LINE
  5
1FC
330
1F
100
AcDbEntity
  8
5
  6
Continuous
 62
     4
370
    25
100
AcDbLine
 10
712.5387222470831
 20
1053.976876046097
 30
0.0
 11
729.2387222470838
 21
1053.976876046097
 31
0.0
  0
LINE
  5
1FD
330
1F
100
AcDbEntity
  8
5
  6
Continuous
 62
     4
370
    25
100
AcDbLine
 10
729.2387222470838
 20
1070.676876046097
 30
0.0
 11
729.2387222470838
 21
1053.976876046097
 31
0.0
  0
HATCH
  5
1FE
330
1F
100
AcDbEntity
  8
5
  6
Continuous
 62
     4
370
    25
100
AcDbHatch
 10
0.0
 20
0.0
 30
0.0
210
0.0
220
0.0
230
1.0
  2
SOLID
 70
     1
 71
     0
 91
        2
 92
        0
 93
        3
 72
     1
 10
674.8887224611194
 20
1094.07687214278
 11
674.8887224389014
 21
1089.576876046097
 72
     1
 10
674.8887224389014
 20
1089.576876046097
 11
677.4867964188911
 21
1089.576876046097
 72
     1
 10
677.4867964188911
 20
1089.576876046097
 11
674.8887224611194
 21
1094.07687214278
 97
        0
 92
        0
 93
        4
 72
     1
 10
674.8887224611194
 20
1094.07687214278
 11
674.888720207538
 21
1094.076876046097
 72
     1
 10
674.888720207538
 20
1094.076876046097
 11
672.2906439961839
 21
1089.576876046097
 72
     1
 10
672.2906439961839
 20
1089.576876046097
 11
674.8887224389014
 21
1089.576876046097
 72
     1
 10
674.8887224389014
 20
1089.576876046097
 11
674.8887224611194
 21
1094.07687214278
 97
        0
 75
     0
 76
     1
 98
        0
  0
LINE
  5
1FF
330
1F
100
AcDbEntity
  8
5
  6
Continuous
 62
     4
370
    25
100
AcDbLine
 10
647.788722247084
 20
1077.926876046097
 30
0.0
 11
647.7887222470822
 21
1063.726876046097
 31
0.0
  0
LINE
  5
200
330
1F
100
AcDbEntity
  8
5
  6
Continuous
 62
     4
370
    25
100
AcDbLine
 10
647.788722247084
 20
1063.726876046097
 30
0.0
 11
661.9887222470838
 21
1063.726876046097
 31
0.0
  0
LINE
  5
201
330
1F
100
AcDbEntity
  8
5
  6
Continuous
 62
     4
370
    25
100
AcDbLine
 10
661.9887222470848
 20
1063.726876046097
 30
0.0
 11
661.988722247082
 21
1077.926876046097
 31
0.0
  0
LINE
  5
202
330
1F
100
AcDbEntity
  8
5
  6
Continuous
 62
     4
370
    25
100
AcDbLine
 10
661.9887222470838
 20
1077.926876046097
 30
0.0
 11
647.788722247084
 21
1077.926876046097
 31
0.0
  0
LINE
  5
203
330
1F
100
AcDbEntity
  8
5
  6
Continuous
 62
     4
370
    25
100
AcDbLine
 10
667.788722247084
 20
1087.926876046097
 30
0.0
 11
667.7887222470822
 21
1073.726876046097
 31
0.0
  0
LINE
  5
204
330
1F
100
AcDbEntity
  8
5
  6
Continuous
 62
     4
370
    25
100
AcDbLine
 10
667.788722247084
 20
1073.726876046097
 30
0.0
 11
681.9887222470838
 21
1073.726876046097
 31
0.0
  0
LINE
  5
205
330
1F
100
AcDbEntity
  8
5
  6
Continuous
 62
     4
370
    25
100
AcDbLine
 10
681.9887222470848
 20
1073.726876046097
 30
0.0
 11
681.988722247082
 21
1087.926876046097
 31
0.0
  0
LINE
  5
206
330
1F
100
AcDbEntity
  8
5
  6
Continuous
 62
     4
370
    25
100
AcDbLine
 10
681.9887222470838
 20
1087.926876046097
 30
0.0
 11
667.788722247084
 21
1087.926876046097
 31
0.0
  0
LINE
  5
207
330
1F
100
AcDbEntity
  8
5
  6
Continuous
 62
     4
370
    25
100
AcDbLine
 10
667.788722247084
 20
1067.926876046097
 30
0.0
 11
667.7887222470822
 21
1053.726876046097
 31
0.0
  0
LINE
  5
208
330
1F
100
AcDbEntity
  8
5
  6
Continuous
 62
     4
370
    25
100
AcDbLine
 10
667.788722247084
 20
1053.726876046097
 30
0.0
 11
681.9887222470838
 21
1053.726876046097
 31
0.0
  0
LINE
  5
209
330
1F
100
AcDbEntity
  8
5
  6
Continuous
 62
     4
370
    25
100
AcDbLine
 10
681.9887222470848
 20
1053.726876046097
 30
0.0
 11
681.988722247082
 21
1067.926876046097
 31
0.0
  0
LINE
  5
20A
330
1F
100
AcDbEntity
  8
5
  6
Continuous
 62
     4
370
    25
100
AcDbLine
 10
681.9887222470838
 20
1067.926876046097
 30
0.0
 11
667.788722247084
 21
1067.926876046097
 31
0.0
  0
LINE
  5
20B
330
1F
100
AcDbEntity
  8
5
  6
Continuous
 62
     4
370
    25
100
AcDbLine
 10
687.788722247084
 20
1077.926876046097
 30
0.0
 11
687.7887222470822
 21
1063.726876046097
 31
0.0
  0
LINE
  5
20C
330
1F
100
AcDbEntity
  8
5
  6
Continuous
 62
     4
370
    25
100
AcDbLine
 10
687.788722247084
 20
1063.726876046097
 30
0.0
 11
701.9887222470838
 21
1063.726876046097
 31
0.0
  0
LINE
  5
20D
330
1F
100
AcDbEntity
  8
5
  6
Continuous
 62
     4
370
    25
100
AcDbLine
 10
701.9887222470848
 20
1063.726876046097
 30
0.0
 11
701.988722247082
 21
1077.926876046097
 31
0.0
  0
LINE
  5
20E
330
1F
100
AcDbEntity
  8
5
  6
Continuous
 62
     4
370
    25
100
AcDbLine
 10
701.9887222470838
 20
1077.926876046097
 30
0.0
 11
687.788722247084
 21
1077.926876046097
 31
0.0
  0
LINE
  5
20F
330
1F
100
AcDbEntity
  8
5
  6
Continuous
 62
     4
370
    25
100
AcDbLine
 10
897.8887222470835
 20
1084.926027575874
 30
0.0
 11
897.8887222470835
 21
1051.326861624936
 31
0.0
  0
LINE
  5
210
330
1F
100
AcDbEntity
  8
5
  6
Continuous
 62
     4
370
    25
100
AcDbLine
 10
927.8887219621506
 20
1084.926027575874
 30
0.0
 11
927.8887219621506
 21
1051.326861624936
 31
0.0
  0
LINE
  5
211
330
1F
100
AcDbEntity
  8
5
  6
Continuous
 62
     4
370
    25
100
AcDbLine
 10
902.8887222470835
 20
1046.326861624936
 30
0.0
 11
922.8887219621506
 21
1046.326861624936
 31
0.0
  0
ARC
  5
212
330
1F
100
AcDbEntity
  8
5
  6
Continuous
 62
     4
370
    25
100
AcDbCircle
 10
902.8887222470835
 20
1051.326861624936
 30
0.0
 40
5.0
100
AcDbArc
 50
179.9999999999998
 51
269.9999999999998
  0
ARC
  5
213
330
1F
100
AcDbEntity
  8
5
  6
Continuous
 62
     4
370
    25
100
AcDbCircle
 10
922.8887219621506
 20
1051.326861624936
 30
0.0
 40
5.0
100
AcDbArc
 50
269.9999999999998
 51
0.0
  0
LINE
  5
214
330
1F
100
AcDbEntity
  8
5
  6
Continuous
 62
     4
370
    25
100
AcDbLine
 10
902.8887222470835
 20
1089.926027575874
 30
0.0
 11
922.8887219621506
 21
1089.926027575874
 31
0.0
  0
ARC
  5
215
330
1F
100
AcDbEntity
  8
5
  6
Continuous
 62
     4
370
    25
100
AcDbCircle
 10
902.8887222470835
 20
1084.926027575874
 30
0.0
 40
5.0
100
AcDbArc
 50
89.99999999999991
 51
179.9999999999998
  0
ARC
  5
216
330
1F
100
AcDbEntity
  8
5
  6
Continuous
 62
     4
370
    25
100
AcDbCircle
 10
922.8887219621506
 20
1084.926027575874
 30
0.0
 40
5.0
100
AcDbArc
 50
0.0
 51
89.99999999999991
  0
MTEXT
  5
217
330
1F
100
AcDbEntity
  8
5
  6
Continuous
 62
     4
370
     9
100
AcDbMText
 10
916.1387222470835
 20
1082.326928532425
 30
0.0
 40
6.050000000000001
 41
6.449389008326
 46
6.050000000000001
 71
     5
 72
     1
  1
{\fＭＳ Ｐゴシック;\W0.714286;旧}
 73
     1
 44
1.0
1001
ACAD
1000
ACAD_MTEXT_DEFINED_HEIGHT_BEGIN
1070
    46
1040
6.050000000000001
1000
ACAD_MTEXT_DEFINED_HEIGHT_END
  0
MTEXT
  5
218
330
1F
100
AcDbEntity
  8
5
  6
Continuous
 62
     4
370
     9
100
AcDbMText
 10
909.6387222470835
 20
1082.326928532425
 30
0.0
 40
6.050000000000001
 41
8.124634678424002
 46
6.050000000000001
 71
     5
 72
     1
  1
{\fＭＳ Ｐゴシック;\W0.714286;復}
 73
     1
 44
1.0
1001
ACAD
1000
ACAD_MTEXT_DEFINED_HEIGHT_BEGIN
1070
    46
1040
6.050000000000001
1000
ACAD_MTEXT_DEFINED_HEIGHT_END
  0
MTEXT
  5
219
330
1F
100
AcDbEntity
  8
5
  6
Continuous
 62
     4
370
     9
100
AcDbMText
 10
752.8887222470826
 20
1086.328457025163
 30
0.0
 40
5.5
 41
6.967638501339998
 46
5.5
 71
     5
 72
     1
  1
{\fＭＳ Ｐゴシック;\W0.714286;動}
 73
     1
 44
1.0
1001
ACAD
1000
ACAD_MTEXT_DEFINED_HEIGHT_BEGIN
1070
    46
1040
5.5
1000
ACAD_MTEXT_DEFINED_HEIGHT_END
  0
MTEXT
  5
21A
330
1F
100
AcDbEntity
  8
5
  6
Continuous
 62
     4
370
     9
100
AcDbMText
 10
746.8887222470826
 20
1086.328457025163
 30
0.0
 40
5.5
 41
7.129417137479999
 46
5.5
 71
     5
 72
     1
  1
{\fＭＳ Ｐゴシック;\W0.714286;電}
 73
     1
 44
1.0
1001
ACAD
1000
ACAD_MTEXT_DEFINED_HEIGHT_BEGIN
1070
    46
1040
5.5
1000
ACAD_MTEXT_DEFINED_HEIGHT_END
  0
MTEXT
  5
21B
330
1F
100
AcDbEntity
  8
5
  6
Continuous
 62
     4
370
     9
100
AcDbMText
 10
758.8887222470826
 20
1086.328457025163
 30
0.0
 40
5.5
 41
7.034581385259998
 46
5.5
 71
     5
 72
     1
  1
{\fＭＳ Ｐゴシック;\W0.714286;弁}
 73
     1
 44
1.0
1001
ACAD
1000
ACAD_MTEXT_DEFINED_HEIGHT_BEGIN
1070
    46
1040
5.5
1000
ACAD_MTEXT_DEFINED_HEIGHT_END
  0
MTEXT
  5
21C
330
1F
100
AcDbEntity
  8
5
  6
Continuous
 62
     4
370
     9
100
AcDbMText
 10
752.8887222470826
 20
1080.328457025163
 30
0.0
 40
5.5
 41
7.386031525839998
 46
5.5
 71
     5
 72
     1
  1
{\fＭＳ Ｐゴシック;\W0.714286;連}
 73
     1
 44
1.0
1001
ACAD
1000
ACAD_MTEXT_DEFINED_HEIGHT_BEGIN
1070
    46
1040
5.5
1000
ACAD_MTEXT_DEFINED_HEIGHT_END
  0
MTEXT
  5
21D
330
1F
100
AcDbEntity
  8
5
  6
Continuous
 62
     4
370
     9
100
AcDbMText
 10
746.8887222470826
 20
1080.328457025163
 30
0.0
 40
5.5
 41
7.129417137479998
 46
5.5
 71
     5
 72
     1
  1
{\fＭＳ Ｐゴシック;\W0.714286;非}
 73
     1
 44
1.0
1001
ACAD
1000
ACAD_MTEXT_DEFINED_HEIGHT_BEGIN
1070
    46
1040
5.5
1000
ACAD_MTEXT_DEFINED_HEIGHT_END
  0
MTEXT
  5
21E
330
1F
100
AcDbEntity
  8
5
  6
Continuous
 62
     4
370
     9
100
AcDbMText
 10
758.8887222470826
 20
1080.328457025163
 30
0.0
 40
5.5
 41
6.967638501339998
 46
5.5
 71
     5
 72
     1
  1
{\fＭＳ Ｐゴシック;\W0.714286;動}
 73
     1
 44
1.0
1001
ACAD
1000
ACAD_MTEXT_DEFINED_HEIGHT_BEGIN
1070
    46
1040
5.5
1000
ACAD_MTEXT_DEFINED_HEIGHT_END
  0
LINE
  5
21F
330
1F
100
AcDbEntity
  8
5
  6
Continuous
 62
     4
370
    25
100
AcDbLine
 10
737.8887222470826
 20
1084.926027575874
 30
0.0
 11
737.8887222470826
 21
1051.326861624936
 31
0.0
  0
LINE
  5
220
330
1F
100
AcDbEntity
  8
5
  6
Continuous
 62
     4
370
    25
100
AcDbLine
 10
742.8887222470826
 20
1046.326861624936
 30
0.0
 11
794.8887219621497
 21
1046.326861624936
 31
0.0
  0
ARC
  5
221
330
1F
100
AcDbEntity
  8
5
  6
Continuous
 62
     4
370
    25
100
AcDbCircle
 10
742.8887222470826
 20
1051.326861624936
 30
0.0
 40
5.0
100
AcDbArc
 50
179.9999999999998
 51
269.9999999999998
  0
LINE
  5
222
330
1F
100
AcDbEntity
  8
5
  6
Continuous
 62
     4
370
    25
100
AcDbLine
 10
742.8887222470826
 20
1089.926027575874
 30
0.0
 11
794.8887219621497
 21
1089.926027575874
 31
0.0
  0
ARC
  5
223
330
1F
100
AcDbEntity
  8
5
  6
Continuous
 62
     4
370
    25
100
AcDbCircle
 10
742.8887222470826
 20
1084.926027575874
 30
0.0
 40
5.0
100
AcDbArc
 50
89.99999999999991
 51
179.9999999999998
  0
LINE
  5
224
330
1F
100
AcDbEntity
  8
5
  6
Continuous
 62
     4
370
    25
100
AcDbLine
 10
710.8887222470826
 20
1091.926027575874
 30
0.0
 11
922.8887219621497
 21
1091.926027575874
 31
0.0
  0
ARC
  5
225
330
1F
100
AcDbEntity
  8
5
  6
Continuous
 62
     4
370
    25
100
AcDbCircle
 10
922.8887219621497
 20
1084.926027575874
 30
0.0
 40
7.0
100
AcDbArc
 50
0.0
 51
89.99999999999991
  0
LINE
  5
226
330
1F
100
AcDbEntity
  8
5
  6
Continuous
 62
     4
370
    25
100
AcDbLine
 10
929.8887219621497
 20
1084.926027575874
 30
0.0
 11
929.8887219621497
 21
1051.326861624936
 31
0.0
  0
ARC
  5
227
330
1F
100
AcDbEntity
  8
5
  6
Continuous
 62
     4
370
    25
100
AcDbCircle
 10
922.8887219621497
 20
1051.326861624936
 30
0.0
 40
7.0
100
AcDbArc
 50
269.9999999999998
 51
0.0
  0
LINE
  5
228
330
1F
100
AcDbEntity
  8
5
  6
Continuous
 62
     4
370
    25
100
AcDbLine
 10
677.4867964188911
 20
1089.576876046097
 30
0.0
 11
672.2906439961839
 21
1089.576876046097
 31
0.0
  0
LINE
  5
229
330
1F
100
AcDbEntity
  8
5
  6
Continuous
 62
     4
370
    25
100
AcDbLine
 10
674.888720207538
 20
1094.076876046097
 30
0.0
 11
672.2906439961839
 21
1089.576876046097
 31
0.0
  0
LINE
  5
22A
330
1F
100
AcDbEntity
  8
5
  6
Continuous
 62
     4
370
    25
100
AcDbLine
 10
674.888720207538
 20
1094.076876046097
 30
0.0
 11
677.4867964188911
 21
1089.576876046097
 31
0.0
  0
HATCH
  5
22B
330
1F
100
AcDbEntity
  8
5
  6
Continuous
 62
     4
370
    25
100
AcDbHatch
 10
0.0
 20
0.0
 30
0.0
210
0.0
220
0.0
230
1.0
  2
SOLID
 70
     1
 71
     0
 91
        1
 92
        0
 93
        3
 72
     1
 10
677.4867977881972
 20
1052.076876046095
 11
672.29064536549
 21
1052.076876046095
 72
     1
 10
672.29064536549
 20
1052.076876046095
 11
674.8887215768441
 21
1047.576876046095
 72
     1
 10
674.8887215768441
 20
1047.576876046095
 11
677.4867977881972
 21
1052.076876046095
 97
        0
 75
     0
 76
     1
 98
        0
  0
LINE
  5
22C
330
1F
100
AcDbEntity
  8
5
  6
Continuous
 62
     4
370
    25
100
AcDbLine
 10
677.4867977881972
 20
1052.076876046095
 30
0.0
 11
672.29064536549
 21
1052.076876046095
 31
0.0
  0
LINE
  5
22D
330
1F
100
AcDbEntity
  8
5
  6
Continuous
 62
     4
370
    25
100
AcDbLine
 10
674.8887215768441
 20
1047.576876046095
 30
0.0
 11
672.29064536549
 21
1052.076876046095
 31
0.0
  0
LINE
  5
22E
330
1F
100
AcDbEntity
  8
5
  6
Continuous
 62
     4
370
    25
100
AcDbLine
 10
674.8887215768441
 20
1047.576876046095
 30
0.0
 11
677.4867977881972
 21
1052.076876046095
 31
0.0
  0
LINE
  5
22F
330
1F
100
AcDbEntity
  8
5
  6
Continuous
 62
     4
370
    25
100
AcDbLine
 10
863.8887219621497
 20
1084.926027575874
 30
0.0
 11
863.8887219621497
 21
1051.326861624936
 31
0.0
  0
ARC
  5
230
330
1F
100
AcDbEntity
  8
5
  6
Continuous
 62
     4
370
    25
100
AcDbCircle
 10
858.8887219621497
 20
1051.326861624936
 30
0.0
 40
5.0
100
AcDbArc
 50
269.9999999999998
 51
0.0
  0
ARC
  5
231
330
1F
100
AcDbEntity
  8
5
  6
Continuous
 62
     4
370
    25
100
AcDbCircle
 10
858.8887219621497
 20
1084.926027575874
 30
0.0
 40
5.0
100
AcDbArc
 50
0.0
 51
89.99999999999991
  0
LINE
  5
232
330
1F
100
AcDbEntity
  8
5
  6
Continuous
 62
     4
370
    25
100
AcDbLine
 10
801.8887222470826
 20
1084.926027575874
 30
0.0
 11
801.8887222470826
 21
1051.326861624936
 31
0.0
  0
LINE
  5
233
330
1F
100
AcDbEntity
  8
5
  6
Continuous
 62
     4
370
    25
100
AcDbLine
 10
806.8887222470826
 20
1046.326861624936
 30
0.0
 11
858.8887219621497
 21
1046.326861624936
 31
0.0
  0
ARC
  5
234
330
1F
100
AcDbEntity
  8
5
  6
Continuous
 62
     4
370
    25
100
AcDbCircle
 10
806.8887222470826
 20
1051.326861624936
 30
0.0
 40
5.0
100
AcDbArc
 50
179.9999999999998
 51
269.9999999999998
  0
LINE
  5
235
330
1F
100
AcDbEntity
  8
5
  6
Continuous
 62
     4
370
    25
100
AcDbLine
 10
806.8887222470826
 20
1089.926027575874
 30
0.0
 11
858.8887219621497
 21
1089.926027575874
 31
0.0
  0
ARC
  5
236
330
1F
100
AcDbEntity
  8
5
  6
Continuous
 62
     4
370
    25
100
AcDbCircle
 10
806.8887222470826
 20
1084.926027575874
 30
0.0
 40
5.0
100
AcDbArc
 50
89.99999999999991
 51
179.9999999999998
  0
LINE
  5
237
330
1F
100
AcDbEntity
  8
5
  6
Continuous
 62
     4
370
    25
100
AcDbLine
 10
799.8887219621497
 20
1084.926027575874
 30
0.0
 11
799.8887219621497
 21
1051.326861624936
 31
0.0
  0
ARC
  5
238
330
1F
100
AcDbEntity
  8
5
  6
Continuous
 62
     4
370
    25
100
AcDbCircle
 10
794.8887219621497
 20
1051.326861624936
 30
0.0
 40
5.0
100
AcDbArc
 50
269.9999999999998
 51
0.0
  0
ARC
  5
239
330
1F
100
AcDbEntity
  8
5
  6
Continuous
 62
     4
370
    25
100
AcDbCircle
 10
794.8887219621497
 20
1084.926027575874
 30
0.0
 40
5.0
100
AcDbArc
 50
0.0
 51
89.99999999999991
  0
LINE
  5
23A
330
1F
100
AcDbEntity
  8
5
  6
Continuous
 62
     4
370
    25
100
AcDbLine
 10
705.8887222470826
 20
1084.926027575874
 30
0.0
 11
705.8887222470826
 21
1051.326861624936
 31
0.0
  0
LINE
  5
23B
330
1F
100
AcDbEntity
  8
5
  6
Continuous
 62
     4
370
    25
100
AcDbLine
 10
735.8887219621497
 20
1084.926027575874
 30
0.0
 11
735.8887219621497
 21
1051.326861624936
 31
0.0
  0
LINE
  5
23C
330
1F
100
AcDbEntity
  8
5
  6
Continuous
 62
     4
370
    25
100
AcDbLine
 10
710.8887222470826
 20
1046.326861624936
 30
0.0
 11
730.8887219621497
 21
1046.326861624936
 31
0.0
  0
ARC
  5
23D
330
1F
100
AcDbEntity
  8
5
  6
Continuous
 62
     4
370
    25
100
AcDbCircle
 10
730.8887219621497
 20
1051.326861624936
 30
0.0
 40
5.0
100
AcDbArc
 50
269.9999999999998
 51
0.0
  0
LINE
  5
23E
330
1F
100
AcDbEntity
  8
5
  6
Continuous
 62
     4
370
    25
100
AcDbLine
 10
710.8887222470826
 20
1089.926027575874
 30
0.0
 11
730.8887219621497
 21
1089.926027575874
 31
0.0
  0
ARC
  5
23F
330
1F
100
AcDbEntity
  8
5
  6
Continuous
 62
     4
370
    25
100
AcDbCircle
 10
710.8887222470826
 20
1084.926027575874
 30
0.0
 40
5.0
100
AcDbArc
 50
89.99999999999991
 51
179.9999999999998
  0
ARC
  5
240
330
1F
100
AcDbEntity
  8
5
  6
Continuous
 62
     4
370
    25
100
AcDbCircle
 10
730.8887219621497
 20
1084.926027575874
 30
0.0
 40
5.0
100
AcDbArc
 50
0.0
 51
89.99999999999991
  0
LINE
  5
241
330
1F
100
AcDbEntity
  8
5
  6
Continuous
 62
     4
370
    25
100
AcDbLine
 10
698.8887222470835
 20
1095.326876046097
 30
0.0
 11
650.8887222470835
 21
1095.326876046097
 31
0.0
  0
ARC
  5
242
330
1F
100
AcDbEntity
  8
5
  6
Continuous
 62
     4
370
    25
100
AcDbCircle
 10
698.8887222470835
 20
1090.326876046097
 30
0.0
 40
5.0
100
AcDbArc
 50
0.0
 51
89.99999999999991
  0
LINE
  5
243
330
1F
100
AcDbEntity
  8
5
  6
Continuous
 62
     4
370
    25
100
AcDbLine
 10
698.8887222470835
 20
1046.326876046097
 30
0.0
 11
650.8887222470835
 21
1046.326876046097
 31
0.0
  0
ARC
  5
244
330
1F
100
AcDbEntity
  8
5
  6
Continuous
 62
     4
370
    25
100
AcDbCircle
 10
650.8887222470835
 20
1051.326876046097
 30
0.0
 40
5.0
100
AcDbArc
 50
179.9999999999998
 51
269.9999999999998
  0
LINE
  5
245
330
1F
100
AcDbEntity
  8
5
  6
Continuous
 62
     4
370
    25
100
AcDbLine
 10
645.8887222470835
 20
1090.326876046097
 30
0.0
 11
645.8887222470835
 21
1051.326876046097
 31
0.0
  0
ARC
  5
246
330
1F
100
AcDbEntity
  8
5
  6
Continuous
 62
     4
370
    25
100
AcDbCircle
 10
650.8887222470835
 20
1090.326876046097
 30
0.0
 40
5.0
100
AcDbArc
 50
89.99999999999991
 51
179.9999999999998
  0
LINE
  5
247
330
1F
100
AcDbEntity
  8
5
  6
Continuous
 62
     4
370
    25
100
AcDbLine
 10
703.8887222470835
 20
1090.326876046097
 30
0.0
 11
703.8887222470835
 21
1051.326876046097
 31
0.0
  0
ARC
  5
248
330
1F
100
AcDbEntity
  8
5
  6
Continuous
 62
     4
370
    25
100
AcDbCircle
 10
698.8887222470835
 20
1051.326876046097
 30
0.0
 40
5.0
100
AcDbArc
 50
269.9999999999998
 51
0.0
  0
LINE
  5
249
330
1F
100
AcDbEntity
  8
5
  6
Continuous
 62
     4
370
    25
100
AcDbLine
 10
698.8887222470835
 20
1097.326876046097
 30
0.0
 11
650.8887222470835
 21
1097.326876046097
 31
0.0
  0
ARC
  5
24A
330
1F
100
AcDbEntity
  8
5
  6
Continuous
 62
     4
370
    25
100
AcDbCircle
 10
698.8887222470835
 20
1090.326876046097
 30
0.0
 40
7.0
100
AcDbArc
 50
0.0
 51
89.99999999999991
  0
ARC
  5
24B
330
1F
100
AcDbEntity
  8
5
  6
Continuous
 62
     4
370
    25
100
AcDbCircle
 10
650.8887222470835
 20
1090.326876046097
 30
0.0
 40
7.0
100
AcDbArc
 50
89.99999999999991
 51
179.9999999999998
  0
LINE
  5
24C
330
1F
100
AcDbEntity
  8
5
  6
Continuous
 62
     4
370
    25
100
AcDbLine
 10
705.8887222470835
 20
1090.326876046097
 30
0.0
 11
705.8887222470826
 21
1089.82500706144
 31
0.0
  0
LINE
  5
24D
330
1F
100
AcDbEntity
  8
5
  6
Continuous
 62
     4
370
    25
100
AcDbLine
 10
705.8887222470826
 20
1084.926027575874
 30
0.0
 11
705.8887222470826
 21
1051.326861624936
 31
0.0
  0
LINE
  5
24E
330
1F
100
AcDbEntity
  8
5
  6
Continuous
 62
     4
370
    25
100
AcDbLine
 10
922.8887219621497
 20
1044.326861624936
 30
0.0
 11
650.8887222470835
 21
1044.326876046097
 31
0.0
  0
ARC
  5
24F
330
1F
100
AcDbEntity
  8
5
  6
Continuous
 62
     4
370
    25
100
AcDbCircle
 10
650.8887222470835
 20
1051.326876046097
 30
0.0
 40
7.0
100
AcDbArc
 50
179.9999999999998
 51
269.9999999999998
  0
LINE
  5
250
330
1F
100
AcDbEntity
  8
5
  6
Continuous
 62
     4
370
    25
100
AcDbLine
 10
643.8887222470835
 20
1090.326876046097
 30
0.0
 11
643.8887222470835
 21
1051.326876046097
 31
0.0
  0
ARC
  5
251
330
1F
100
AcDbEntity
  8
5
  6
Continuous
 62
     4
370
    25
100
AcDbCircle
 10
710.8887222470826
 20
1084.926027575874
 30
0.0
 40
7.0
100
AcDbArc
 50
89.99999999999991
 51
135.5846914028112
  0
MTEXT
  5
252
330
1F
100
AcDbEntity
  8
5
  6
Continuous
 62
     4
370
     9
100
AcDbMText
 10
781.6387222470826
 20
1082.328150032413
 30
0.0
 40
6.050000000000001
 41
7.977360333800002
 46
6.050000000000001
 71
     5
 72
     1
  1
{\fＭＳ Ｐゴシック;\W0.714286;信}
 73
     1
 44
1.0
1001
ACAD
1000
ACAD_MTEXT_DEFINED_HEIGHT_BEGIN
1070
    46
1040
6.050000000000001
1000
ACAD_MTEXT_DEFINED_HEIGHT_END
  0
MTEXT
  5
253
330
1F
100
AcDbEntity
  8
5
  6
Continuous
 62
     4
370
     9
100
AcDbMText
 10
775.1387222470826
 20
1082.328150032413
 30
0.0
 40
6.050000000000001
 41
8.259636160996001
 46
6.050000000000001
 71
     5
 72
     1
  1
{\fＭＳ Ｐゴシック;\W0.714286;移}
 73
     1
 44
1.0
1001
ACAD
1000
ACAD_MTEXT_DEFINED_HEIGHT_BEGIN
1070
    46
1040
6.050000000000001
1000
ACAD_MTEXT_DEFINED_HEIGHT_END
  0
MTEXT
  5
254
330
1F
100
AcDbEntity
  8
5
  6
Continuous
 62
     4
370
     9
100
AcDbMText
 10
788.1387222470826
 20
1082.328150032413
 30
0.0
 40
6.050000000000001
 41
8.050997506112003
 46
6.050000000000001
 71
     5
 72
     1
  1
{\fＭＳ Ｐゴシック;\W0.714286;停}
 73
     1
 44
1.0
1001
ACAD
1000
ACAD_MTEXT_DEFINED_HEIGHT_BEGIN
1070
    46
1040
6.050000000000001
1000
ACAD_MTEXT_DEFINED_HEIGHT_END
  0
MTEXT
  5
255
330
1F
100
AcDbEntity
  8
5
  6
Continuous
 62
     4
370
     9
100
AcDbMText
 10
794.6387222470826
 20
1082.328150032413
 30
0.0
 40
6.050000000000001
 41
7.977360333800002
 46
6.050000000000001
 71
     5
 72
     1
  1
{\fＭＳ Ｐゴシック;\W0.714286;止}
 73
     1
 44
1.0
1001
ACAD
1000
ACAD_MTEXT_DEFINED_HEIGHT_BEGIN
1070
    46
1040
6.050000000000001
1000
ACAD_MTEXT_DEFINED_HEIGHT_END
  0
MTEXT
  5
256
330
1F
100
AcDbEntity
  8
5
  6
Continuous
 62
     4
370
     9
100
AcDbMText
 10
724.1387222470817
 20
1082.328760782407
 30
0.0
 40
6.050000000000001
 41
8.050997506112003
 46
6.050000000000001
 71
     5
 72
     1
  1
{\fＭＳ Ｐゴシック;\W0.714286;停}
 73
     1
 44
1.0
1001
ACAD
1000
ACAD_MTEXT_DEFINED_HEIGHT_BEGIN
1070
    46
1040
6.050000000000001
1000
ACAD_MTEXT_DEFINED_HEIGHT_END
  0
MTEXT
  5
257
330
1F
100
AcDbEntity
  8
5
  6
Continuous
 62
     4
370
     9
100
AcDbMText
 10
717.6387222470817
 20
1082.328760782407
 30
0.0
 40
6.050000000000001
 41
8.087816092268001
 46
6.050000000000001
 71
     5
 72
     1
  1
{\fＭＳ Ｐゴシック;\W0.714286;響}
 73
     1
 44
1.0
1001
ACAD
1000
ACAD_MTEXT_DEFINED_HEIGHT_BEGIN
1070
    46
1040
6.050000000000001
1000
ACAD_MTEXT_DEFINED_HEIGHT_END
  0
MTEXT
  5
258
330
1F
100
AcDbEntity
  8
5
  6
Continuous
 62
     4
370
     9
100
AcDbMText
 10
711.1387222470817
 20
1082.328760782407
 30
0.0
 40
6.050000000000001
 41
7.909859592514001
 46
6.050000000000001
 71
     5
 72
     1
  1
{\fＭＳ Ｐゴシック;\W0.714286;音}
 73
     1
 44
1.0
1001
ACAD
1000
ACAD_MTEXT_DEFINED_HEIGHT_BEGIN
1070
    46
1040
6.050000000000001
1000
ACAD_MTEXT_DEFINED_HEIGHT_END
  0
MTEXT
  5
259
330
1F
100
AcDbEntity
  8
5
  6
Continuous
 62
     4
370
     9
100
AcDbMText
 10
730.6387222470817
 20
1082.328760782407
 30
0.0
 40
6.050000000000001
 41
7.977360333800002
 46
6.050000000000001
 71
     5
 72
     1
  1
{\fＭＳ Ｐゴシック;\W0.714286;止}
 73
     1
 44
1.0
1001
ACAD
1000
ACAD_MTEXT_DEFINED_HEIGHT_BEGIN
1070
    46
1040
6.050000000000001
1000
ACAD_MTEXT_DEFINED_HEIGHT_END
  0
MTEXT
  5
25A
330
1F
100
AcDbEntity
  8
5
  6
Continuous
 62
     4
370
     9
100
AcDbMText
 10
845.6376534294518
 20
1082.327844667615
 30
0.0
 40
6.050000000000001
 41
7.946678178670001
 46
6.050000000000001
 71
     5
 72
     1
  1
{\fＭＳ Ｐゴシック;\W0.714286;括}
 73
     1
 44
1.0
1001
ACAD
1000
ACAD_MTEXT_DEFINED_HEIGHT_BEGIN
1070
    46
1040
6.050000000000001
1000
ACAD_MTEXT_DEFINED_HEIGHT_END
  0
MTEXT
  5
25B
330
1F
100
AcDbEntity
  8
5
  6
Continuous
 62
     4
370
     9
100
AcDbMText
 10
839.1376534294518
 20
1082.297305444378
 30
0.0
 40
6.050000000000001
 41
7.351444369148
 46
6.050000000000001
 71
     5
 72
     1
  1
{\fＭＳ Ｐゴシック;\W0.714286;一}
 73
     1
 44
1.0
1001
ACAD
1000
ACAD_MTEXT_DEFINED_HEIGHT_BEGIN
1070
    46
1040
6.050000000000001
1000
ACAD_MTEXT_DEFINED_HEIGHT_END
  0
MTEXT
  5
25C
330
1F
100
AcDbEntity
  8
5
  6
Continuous
 62
     4
370
     9
100
AcDbMText
 10
852.1376534294518
 20
1082.327844667615
 30
0.0
 40
6.050000000000001
 41
8.155316833554
 46
6.050000000000001
 71
     5
 72
     1
  1
{\fＭＳ Ｐゴシック;\W0.714286;試}
 73
     1
 44
1.0
1001
ACAD
1000
ACAD_MTEXT_DEFINED_HEIGHT_BEGIN
1070
    46
1040
6.050000000000001
1000
ACAD_MTEXT_DEFINED_HEIGHT_END
  0
MTEXT
  5
25D
330
1F
100
AcDbEntity
  8
5
  6
Continuous
 62
     4
370
     9
100
AcDbMText
 10
858.6376534294518
 20
1082.327844667615
 30
0.0
 40
6.050000000000001
 41
8.228954005866001
 46
6.050000000000001
 71
     5
 72
     1
  1
{\fＭＳ Ｐゴシック;\W0.714286;験}
 73
     1
 44
1.0
1001
ACAD
1000
ACAD_MTEXT_DEFINED_HEIGHT_BEGIN
1070
    46
1040
6.050000000000001
1000
ACAD_MTEXT_DEFINED_HEIGHT_END
  0
MTEXT
  5
25E
330
1F
100
AcDbEntity
  8
5
  6
Continuous
 62
     4
370
     9
100
AcDbMText
 10
820.1376534294518
 20
1082.327844667615
 30
0.0
 40
6.050000000000001
 41
8.155316833554
 46
6.050000000000001
 71
     5
 72
     1
  1
{\fＭＳ Ｐゴシック;\W0.714286;試}
 73
     1
 44
1.0
1001
ACAD
1000
ACAD_MTEXT_DEFINED_HEIGHT_BEGIN
1070
    46
1040
6.050000000000001
1000
ACAD_MTEXT_DEFINED_HEIGHT_END
  0
MTEXT
  5
25F
330
1F
100
AcDbEntity
  8
5
  6
Continuous
 62
     4
370
     9
100
AcDbMText
 10
813.6376534294518
 20
1082.327844667615
 30
0.0
 40
6.050000000000001
 41
7.909859592514
 46
6.050000000000001
 71
     5
 72
     1
  1
{\fＭＳ Ｐゴシック;\W0.714286;池}
 73
     1
 44
1.0
1001
ACAD
1000
ACAD_MTEXT_DEFINED_HEIGHT_BEGIN
1070
    46
1040
6.050000000000001
1000
ACAD_MTEXT_DEFINED_HEIGHT_END
  0
MTEXT
  5
260
330
1F
100
AcDbEntity
  8
5
  6
Continuous
 62
     4
370
     9
100
AcDbMText
 10
807.1376534294518
 20
1082.327844667615
 30
0.0
 40
6.050000000000001
 41
7.842358851228001
 46
6.050000000000001
 71
     5
 72
     1
  1
{\fＭＳ Ｐゴシック;\W0.714286;電}
 73
     1
 44
1.0
1001
ACAD
1000
ACAD_MTEXT_DEFINED_HEIGHT_BEGIN
1070
    46
1040
6.050000000000001
1000
ACAD_MTEXT_DEFINED_HEIGHT_END
  0
MTEXT
  5
261
330
1F
100
AcDbEntity
  8
5
  6
Continuous
 62
     4
370
     9
100
AcDbMText
 10
826.6376534294518
 20
1082.327844667615
 30
0.0
 40
6.050000000000001
 41
8.228954005866001
 46
6.050000000000001
 71
     5
 72
     1
  1
{\fＭＳ Ｐゴシック;\W0.714286;験}
 73
     1
 44
1.0
1001
ACAD
1000
ACAD_MTEXT_DEFINED_HEIGHT_BEGIN
1070
    46
1040
6.050000000000001
1000
ACAD_MTEXT_DEFINED_HEIGHT_END
  0
MTEXT
  5
262
330
1F
100
AcDbEntity
  8
5
  6
Continuous
 62
     4
370
     9
100
AcDbMText
 10
658.1387222470835
 20
1082.826876046096
 30
0.0
 40
6.050000000000001
 41
6.516889749612
 46
6.050000000000001
 71
     5
 72
     1
  1
{\fＭＳ Ｐゴシック;\W0.714286;る}
 73
     1
 44
1.0
1001
ACAD
1000
ACAD_MTEXT_DEFINED_HEIGHT_BEGIN
1070
    46
1040
6.050000000000001
1000
ACAD_MTEXT_DEFINED_HEIGHT_END
  0
MTEXT
  5
263
330
1F
100
AcDbEntity
  8
5
  6
Continuous
 62
     4
370
     9
100
AcDbMText
 10
651.6387222470835
 20
1082.826876046096
 30
0.0
 40
6.050000000000001
 41
7.836222420202001
 46
6.050000000000001
 71
     5
 72
     1
  1
{\fＭＳ Ｐゴシック;\W0.714286;戻}
 73
     1
 44
1.0
1001
ACAD
1000
ACAD_MTEXT_DEFINED_HEIGHT_BEGIN
1070
    46
1040
6.050000000000001
1000
ACAD_MTEXT_DEFINED_HEIGHT_END
  0
MTEXT
  5
264
330
1F
100
AcDbEntity
  8
5
  6
Continuous
 62
     4
370
     9
100
AcDbMText
 10
698.1387222470835
 20
1082.826876046097
 30
0.0
 40
6.050000000000001
 41
7.664402351474001
 46
6.050000000000001
 71
     5
 72
     1
  1
{\fＭＳ Ｐゴシック;\W0.714286;む}
 73
     1
 44
1.0
1001
ACAD
1000
ACAD_MTEXT_DEFINED_HEIGHT_BEGIN
1070
    46
1040
6.050000000000001
1000
ACAD_MTEXT_DEFINED_HEIGHT_END
  0
MTEXT
  5
265
330
1F
100
AcDbEntity
  8
5
  6
Continuous
 62
     4
370
     9
100
AcDbMText
 10
691.6387222470835
 20
1082.826876046097
 30
0.0
 40
6.050000000000001
 41
8.124634678424002
 46
6.050000000000001
 71
     5
 72
     1
  1
{\fＭＳ Ｐゴシック;\W0.714286;進}
 73
     1
 44
1.0
1001
ACAD
1000
ACAD_MTEXT_DEFINED_HEIGHT_BEGIN
1070
    46
1040
6.050000000000001
1000
ACAD_MTEXT_DEFINED_HEIGHT_END
  0
ARC
  5
266
330
1F
100
AcDbEntity
  8
5
  6
Continuous
 62
     4
370
    25
100
AcDbCircle
 10
710.8887222470826
 20
1051.326861624936
 30
0.0
 40
5.0
100
AcDbArc
 50
179.9999999999998
 51
269.9999999999998
  0
MTEXT
  5
267
330
1F
100
AcDbEntity
  8
5
  6
Continuous
 62
     4
370
     9
100
AcDbMText
 10
743.8887222470835
 20
1050.328603110261
 30
0.0
 40
4.4
 41
2.583995319312001
 46
4.4
 71
     5
 72
     1
  1
{\fＭＳ Ｐゴシック;\W0.714286;3}
 73
     1
 44
1.0
1001
ACAD
1000
ACAD_MTEXT_DEFINED_HEIGHT_BEGIN
1070
    46
1040
4.4
1000
ACAD_MTEXT_DEFINED_HEIGHT_END
  0
MTEXT
  5
268
330
1F
100
AcDbEntity
  8
5
  6
Continuous
 62
     4
370
     9
100
AcDbMText
 10
748.3887222470835
 20
1050.328603110261
 30
0.0
 40
4.4
 41
5.855270913536001
 46
4.4
 71
     5
 72
     1
  1
{\fＭＳ Ｐゴシック;\W0.714286;秒}
 73
     1
 44
1.0
1001
ACAD
1000
ACAD_MTEXT_DEFINED_HEIGHT_BEGIN
1070
    46
1040
4.4
1000
ACAD_MTEXT_DEFINED_HEIGHT_END
  0
MTEXT
  5
269
330
1F
100
AcDbEntity
  8
5
  6
Continuous
 62
     4
370
     9
100
AcDbMText
 10
752.8887222470835
 20
1050.328603110261
 30
0.0
 40
4.4
 41
5.699070851056001
 46
4.4
 71
     5
 72
     1
  1
{\fＭＳ Ｐゴシック;\W0.714286;長}
 73
     1
 44
1.0
1001
ACAD
1000
ACAD_MTEXT_DEFINED_HEIGHT_BEGIN
1070
    46
1040
4.4
1000
ACAD_MTEXT_DEFINED_HEIGHT_END
  0
MTEXT
  5
26A
330
1F
100
AcDbEntity
  8
5
  6
Continuous
 62
     4
370
     9
100
AcDbMText
 10
757.3887222470835
 20
1050.328603110261
 30
0.0
 40
4.4
 41
5.525019352864
 46
4.4
 71
     5
 72
     1
  1
{\fＭＳ Ｐゴシック;\W0.714286;押}
 73
     1
 44
1.0
1001
ACAD
1000
ACAD_MTEXT_DEFINED_HEIGHT_BEGIN
1070
    46
1040
4.4
1000
ACAD_MTEXT_DEFINED_HEIGHT_END
  0
MTEXT
  5
26B
330
1F
100
AcDbEntity
  8
5
  6
Continuous
 62
     4
370
     9
100
AcDbMText
 10
761.8887222470835
 20
1050.328603110261
 30
0.0
 40
4.4
 41
4.029961611984
 46
4.4
 71
     5
 72
     1
  1
{\fＭＳ Ｐゴシック;\W0.714286;し}
 73
     1
 44
1.0
1001
ACAD
1000
ACAD_MTEXT_DEFINED_HEIGHT_BEGIN
1070
    46
1040
4.4
1000
ACAD_MTEXT_DEFINED_HEIGHT_END
  0
MTEXT
  5
26C
330
1F
100
AcDbEntity
  8
5
  6
Continuous
 62
     4
370
     9
100
AcDbMText
 10
775.8887222470835
 20
1050.328603110261
 30
0.0
 40
4.4
 41
2.583995319312001
 46
4.4
 71
     5
 72
     1
  1
{\fＭＳ Ｐゴシック;\W0.714286;3}
 73
     1
 44
1.0
1001
ACAD
1000
ACAD_MTEXT_DEFINED_HEIGHT_BEGIN
1070
    46
1040
4.4
1000
ACAD_MTEXT_DEFINED_HEIGHT_END
  0
MTEXT
  5
26D
330
1F
100
AcDbEntity
  8
5
  6
Continuous
 62
     4
370
     9
100
AcDbMText
 10
780.3887222470835
 20
1050.328603110261
 30
0.0
 40
4.4
 41
5.855270913536001
 46
4.4
 71
     5
 72
     1
  1
{\fＭＳ Ｐゴシック;\W0.714286;秒}
 73
     1
 44
1.0
1001
ACAD
1000
ACAD_MTEXT_DEFINED_HEIGHT_BEGIN
1070
    46
1040
4.4
1000
ACAD_MTEXT_DEFINED_HEIGHT_END
  0
MTEXT
  5
26E
330
1F
100
AcDbEntity
  8
5
  6
Continuous
 62
     4
370
     9
100
AcDbMText
 10
784.8887222470835
 20
1050.328603110261
 30
0.0
 40
4.4
 41
5.699070851056001
 46
4.4
 71
     5
 72
     1
  1
{\fＭＳ Ｐゴシック;\W0.714286;長}
 73
     1
 44
1.0
1001
ACAD
1000
ACAD_MTEXT_DEFINED_HEIGHT_BEGIN
1070
    46
1040
4.4
1000
ACAD_MTEXT_DEFINED_HEIGHT_END
  0
MTEXT
  5
26F
330
1F
100
AcDbEntity
  8
5
  6
Continuous
 62
     4
370
     9
100
AcDbMText
 10
789.3887222470835
 20
1050.328603110261
 30
0.0
 40
4.4
 41
5.525019352864
 46
4.4
 71
     5
 72
     1
  1
{\fＭＳ Ｐゴシック;\W0.714286;押}
 73
     1
 44
1.0
1001
ACAD
1000
ACAD_MTEXT_DEFINED_HEIGHT_BEGIN
1070
    46
1040
4.4
1000
ACAD_MTEXT_DEFINED_HEIGHT_END
  0
MTEXT
  5
270
330
1F
100
AcDbEntity
  8
5
  6
Continuous
 62
     4
370
     9
100
AcDbMText
 10
793.8887222470835
 20
1050.328603110261
 30
0.0
 40
4.4
 41
4.029961611984
 46
4.4
 71
     5
 72
     1
  1
{\fＭＳ Ｐゴシック;\W0.714286;し}
 73
     1
 44
1.0
1001
ACAD
1000
ACAD_MTEXT_DEFINED_HEIGHT_BEGIN
1070
    46
1040
4.4
1000
ACAD_MTEXT_DEFINED_HEIGHT_END
  0
LINE
  5
271
330
1F
100
AcDbEntity
  8
5
  6
Continuous
 62
     4
370
    25
100
AcDbLine
 10
662.3887226080064
 20
1107.826876481497
 30
0.0
 11
662.3887226080064
 21
1118.826876481497
 31
0.0
  0
LINE
  5
272
330
1F
100
AcDbEntity
  8
5
  6
Continuous
 62
     4
370
    25
100
AcDbLine
 10
687.3887226080064
 20
1118.826876481497
 30
0.0
 11
687.3887226080064
 21
1107.826876481497
 31
0.0
  0
LINE
  5
273
330
1F
100
AcDbEntity
  8
5
  6
Continuous
 62
     4
370
    25
100
AcDbLine
 10
687.3887226080092
 20
1118.826806486496
 30
0.0
 11
687.3887226080092
 21
1107.826806486496
 31
0.0
  0
LINE
  5
274
330
1F
100
AcDbEntity
  8
5
  6
Continuous
 62
     4
370
    25
100
AcDbLine
 10
636.263722247078
 20
1056.481205005955
 30
0.0
 11
629.513722247078
 21
1056.481205005955
 31
0.0
  0
LINE
  5
275
330
1F
100
AcDbEntity
  8
5
  6
Continuous
 62
     4
370
    25
100
AcDbLine
 10
629.513722247078
 20
1056.481205005955
 30
0.0
 11
626.138722247078
 21
1062.3268764815
 31
0.0
  0
LINE
  5
276
330
1F
100
AcDbEntity
  8
5
  6
Continuous
 62
     4
370
    25
100
AcDbLine
 10
639.638722247078
 20
1062.3268764815
 30
0.0
 11
636.263722247078
 21
1056.481205005955
 31
0.0
  0
LINE
  5
277
330
1F
100
AcDbEntity
  8
5
  6
Continuous
 62
     4
370
    25
100
AcDbLine
 10
629.513722247078
 20
1068.172547957045
 30
0.0
 11
636.263722247078
 21
1068.172547957045
 31
0.0
  0
CIRCLE
  5
278
330
1F
100
AcDbEntity
  8
5
  6
Continuous
 62
     4
370
    25
100
AcDbCircle
 10
632.888722247078
 20
1062.3268764815
 30
0.0
 40
5.845671475544805
  0
LINE
  5
279
330
1F
100
AcDbEntity
  8
5
  6
Continuous
 62
     4
370
    25
100
AcDbLine
 10
636.263722247078
 20
1068.172547957045
 30
0.0
 11
639.638722247078
 21
1062.3268764815
 31
0.0
  0
LINE
  5
27A
330
1F
100
AcDbEntity
  8
5
  6
Continuous
 62
     4
370
    25
100
AcDbLine
 10
626.138722247078
 20
1062.3268764815
 30
0.0
 11
629.513722247078
 21
1068.172547957045
 31
0.0
  0
CIRCLE
  5
27B
330
1F
100
AcDbEntity
  8
5
  6
Continuous
 62
     4
370
    25
100
AcDbCircle
 10
632.888722247078
 20
1062.3268764815
 30
0.0
 40
4.899999999999977
  0
CIRCLE
  5
27C
330
1F
100
AcDbEntity
  8
5
  6
Continuous
 62
     4
370
    25
100
AcDbCircle
 10
632.888722247078
 20
1062.3268764815
 30
0.0
 40
4.800000000000011
  0
CIRCLE
  5
27D
330
1F
100
AcDbEntity
  8
5
  6
Continuous
 62
     4
370
    25
100
AcDbCircle
 10
632.888722247078
 20
1062.3268764815
 30
0.0
 40
2.639999999999986
  0
CIRCLE
  5
27E
330
1F
100
AcDbEntity
  8
9
  6
Continuous
 62
     7
370
    35
100
AcDbCircle
 10
2030.495599833604
 20
1002.075926556914
 30
0.0
 40
10.0
  0
LINE
  5
27F
330
1F
100
AcDbEntity
  8
9
  6
Continuous
 62
     7
370
    35
100
AcDbLine
 10
1660.495723403135
 20
1483.075943195719
 30
0.0
 11
1660.495723403135
 21
783.075943195719
 31
0.0
  0
LINE
  5
280
330
1F
100
AcDbEntity
  8
9
  6
Continuous
 62
     7
370
    35
100
AcDbLine
 10
2160.495723403135
 20
783.075943195719
 30
0.0
 11
2160.495723403135
 21
1483.075943195719
 31
0.0
  0
LINE
  5
281
330
1F
100
AcDbEntity
  8
9
  6
Continuous
 62
     7
370
    35
100
AcDbLine
 10
2160.495723403135
 20
1483.075943195717
 30
0.0
 11
1660.495723403135
 21
1483.075943195717
 31
0.0
  0
LINE
  5
282
330
1F
100
AcDbEntity
  8
9
  6
Continuous
 62
     7
370
    35
100
AcDbLine
 10
2160.495723403135
 20
783.075943195719
 30
0.0
 11
1660.495723403135
 21
783.075943195719
 31
0.0
  0
LINE
  5
283
330
1F
100
AcDbEntity
  8
9
  6
Continuous
 62
     7
370
    35
100
AcDbLine
 10
1878.995723403135
 20
979.0759431937181
 30
0.0
 11
1878.995723403135
 21
1011.075943193718
 31
0.0
  0
LINE
  5
284
330
1F
100
AcDbEntity
  8
9
  6
Continuous
 62
     7
370
    35
100
AcDbLine
 10
1936.995723403135
 20
979.0759431937181
 30
0.0
 11
1936.995723403135
 21
1011.075943193718
 31
0.0
  0
CIRCLE
  5
285
330
1F
100
AcDbEntity
  8
9
  6
Continuous
 62
     7
370
    35
100
AcDbCircle
 10
1710.495723403135
 20
1400.154493729074
 30
0.0
 40
6.0
  0
CIRCLE
  5
286
330
1F
100
AcDbEntity
  8
9
  6
Continuous
 62
     7
370
    35
100
AcDbCircle
 10
2110.495723403135
 20
1400.075943195719
 30
0.0
 40
6.0
  0
CIRCLE
  5
287
330
1F
100
AcDbEntity
  8
9
  6
Continuous
 62
     7
370
    35
100
AcDbCircle
 10
1710.495723403135
 20
823.0738775355635
 30
0.0
 40
6.0
  0
CIRCLE
  5
288
330
1F
100
AcDbEntity
  8
9
  6
Continuous
 62
     7
370
    35
100
AcDbCircle
 10
2110.495723403135
 20
823.0738775355635
 30
0.0
 40
6.0
  0
ARC
  5
289
330
1F
100
AcDbEntity
  8
9
  6
Continuous
 62
     7
370
    35
100
AcDbCircle
 10
1907.995723403135
 20
1011.075943193718
 30
0.0
 40
29.0
100
AcDbArc
 50
0.0
 51
179.9999999999998
  0
ARC
  5
28A
330
1F
100
AcDbEntity
  8
9
  6
Continuous
 62
     7
370
    35
100
AcDbCircle
 10
1907.995723403135
 20
979.0759431937181
 30
0.0
 40
29.0
100
AcDbArc
 50
179.9999999999998
 51
0.0
  0
LINE
  5
28B
330
1F
100
AcDbEntity
  8
3
  6
DASHDOT
 62
     1
370
    25
100
AcDbLine
 10
1910.495723403135
 20
1513.075943195719
 30
0.0
 11
1910.495723403135
 21
753.075943195719
 31
0.0
  0
LINE
  5
28C
330
1F
100
AcDbEntity
  8
3
  6
DASHDOT
 62
     1
370
    25
100
AcDbLine
 10
2030.495599833604
 20
984.5759265569136
 30
0.0
 11
2030.495599833604
 21
1019.575926556914
 31
0.0
  0
LINE
  5
28D
330
1F
100
AcDbEntity
  8
3
  6
DASHDOT
 62
     1
370
    25
100
AcDbLine
 10
1907.995723403135
 20
1051.075943193718
 30
0.0
 11
1907.995723403135
 21
939.0759431937181
 31
0.0
  0
LINE
  5
28E
330
1F
100
AcDbEntity
  8
3
  6
DASHDOT
 62
     1
370
    25
100
AcDbLine
 10
1866.995723403135
 20
995.0759431937181
 30
0.0
 11
1948.995723403135
 21
995.0759431937181
 31
0.0
  0
LINE
  5
28F
330
1F
100
AcDbEntity
  8
3
  6
DASHDOT
 62
     1
370
    25
100
AcDbLine
 10
2095.495723403135
 20
1400.075943195717
 30
0.0
 11
2125.495723403135
 21
1400.075943195717
 31
0.0
  0
LINE
  5
290
330
1F
100
AcDbEntity
  8
3
  6
DASHDOT
 62
     1
370
    25
100
AcDbLine
 10
2110.495723403135
 20
1385.075943195717
 30
0.0
 11
2110.495723403135
 21
1415.075943195717
 31
0.0
  0
LINE
  5
291
330
1F
100
AcDbEntity
  8
3
  6
DASHDOT
 62
     1
370
    25
100
AcDbLine
 10
1725.495723403135
 20
1400.075943195717
 30
0.0
 11
1695.495723403135
 21
1400.075943195717
 31
0.0
  0
LINE
  5
292
330
1F
100
AcDbEntity
  8
3
  6
DASHDOT
 62
     1
370
    25
100
AcDbLine
 10
1710.495723403135
 20
1385.075943195717
 30
0.0
 11
1710.495723403135
 21
1415.075943195717
 31
0.0
  0
LINE
  5
293
330
1F
100
AcDbEntity
  8
3
  6
DASHDOT
 62
     1
370
    25
100
AcDbLine
 10
2095.495723403135
 20
823.0759431957172
 30
0.0
 11
2125.495723403135
 21
823.0759431957172
 31
0.0
  0
LINE
  5
294
330
1F
100
AcDbEntity
  8
3
  6
DASHDOT
 62
     1
370
    25
100
AcDbLine
 10
2110.495723403135
 20
808.0759431957172
 30
0.0
 11
2110.495723403135
 21
838.0759431957172
 31
0.0
  0
LINE
  5
295
330
1F
100
AcDbEntity
  8
3
  6
DASHDOT
 62
     1
370
    25
100
AcDbLine
 10
1725.495723403135
 20
823.0759431957172
 30
0.0
 11
1695.495723403135
 21
823.0759431957172
 31
0.0
  0
LINE
  5
296
330
1F
100
AcDbEntity
  8
3
  6
DASHDOT
 62
     1
370
    25
100
AcDbLine
 10
1710.495723403135
 20
808.0759431957172
 30
0.0
 11
1710.495723403135
 21
838.0759431957172
 31
0.0
  0
LINE
  5
297
330
1F
100
AcDbEntity
  8
3
  6
DASHDOT
 62
     1
370
    25
100
AcDbLine
 10
2012.995599833604
 20
1002.075926556914
 30
0.0
 11
2047.995599833604
 21
1002.075926556914
 31
0.0
  0
LINE
  5
298
330
1F
100
AcDbEntity
  8
9
  6
Continuous
 62
     7
370
    35
100
AcDbLine
 10
1245.97761046675
 20
783.075943195719
 30
0.0
 11
1245.97761046675
 21
1483.075943195719
 31
0.0
  0
LINE
  5
299
330
1F
100
AcDbEntity
  8
9
  6
Continuous
 62
     7
370
    35
100
AcDbLine
 10
1380.97761046675
 20
783.075943195719
 30
0.0
 11
1380.97761046675
 21
1483.075943195719
 31
0.0
  0
LINE
  5
29A
330
1F
100
AcDbEntity
  8
9
  6
Continuous
 62
     7
370
    35
100
AcDbLine
 10
1245.97761046675
 20
783.075943195719
 30
0.0
 11
1380.97761046675
 21
783.075943195719
 31
0.0
  0
LINE
  5
29B
330
1F
100
AcDbEntity
  8
9
  6
Continuous
 62
     7
370
    35
100
AcDbLine
 10
1245.97761046675
 20
1483.075943195719
 30
0.0
 11
1380.97761046675
 21
1483.075943195719
 31
0.0
  0
LINE
  5
29C
330
1F
100
AcDbEntity
  8
9
  6
Continuous
 62
     7
370
    35
100
AcDbLine
 10
1242.97761046675
 20
1331.575943195719
 30
0.0
 11
1245.97761046675
 21
1331.575943195719
 31
0.0
  0
LINE
  5
29D
330
1F
100
AcDbEntity
  8
9
  6
Continuous
 62
     7
370
    35
100
AcDbLine
 10
1242.97761046675
 20
1364.575943195719
 30
0.0
 11
1245.97761046675
 21
1364.575943195719
 31
0.0
  0
LINE
  5
29E
330
1F
100
AcDbEntity
  8
9
  6
Continuous
 62
     7
370
    35
100
AcDbLine
 10
1242.97761046675
 20
901.575943195719
 30
0.0
 11
1245.97761046675
 21
901.575943195719
 31
0.0
  0
LINE
  5
29F
330
1F
100
AcDbEntity
  8
9
  6
Continuous
 62
     7
370
    35
100
AcDbLine
 10
1242.97761046675
 20
934.5759431957172
 30
0.0
 11
1245.97761046675
 21
934.575943195719
 31
0.0
  0
LINE
  5
2A0
330
1F
100
AcDbEntity
  8
9
  6
Continuous
 62
     7
370
    35
100
AcDbLine
 10
1220.97761046675
 20
1480.075943195719
 30
0.0
 11
1220.97761046675
 21
786.075943195719
 31
0.0
  0
LINE
  5
2A1
330
1F
100
AcDbEntity
  8
9
  6
Continuous
 62
     7
370
    35
100
AcDbLine
 10
1220.97761046675
 20
1480.075943195719
 30
0.0
 11
1242.97761046675
 21
1480.075943195719
 31
0.0
  0
LINE
  5
2A2
330
1F
100
AcDbEntity
  8
9
  6
Continuous
 62
     7
370
    35
100
AcDbLine
 10
1220.97761046675
 20
786.075943195719
 30
0.0
 11
1242.97761046675
 21
786.075943195719
 31
0.0
  0
LINE
  5
2A3
330
1F
100
AcDbEntity
  8
9
  6
Continuous
 62
     7
370
    35
100
AcDbLine
 10
1242.97761046675
 20
1480.075943195719
 30
0.0
 11
1242.97761046675
 21
786.075943195719
 31
0.0
  0
LINE
  5
2A4
330
1F
100
AcDbEntity
  8
9
  6
Continuous
 62
     7
370
    35
100
AcDbLine
 10
1216.97761046675
 20
1139.075939935617
 30
0.0
 11
1216.97761046675
 21
1127.075946455819
 31
0.0
  0
LINE
  5
2A5
330
1F
100
AcDbEntity
  8
9
  6
Continuous
 62
     7
370
    35
100
AcDbLine
 10
1216.97761046675
 20
1139.075939935617
 30
0.0
 11
1220.97761046675
 21
1142.075939935617
 31
0.0
  0
LINE
  5
2A6
330
1F
100
AcDbEntity
  8
9
  6
Continuous
 62
     7
370
    35
100
AcDbLine
 10
1216.97761046675
 20
1127.075946455819
 30
0.0
 11
1220.97761046675
 21
1124.075946455819
 31
0.0
  0
LINE
  5
2A7
330
1F
100
AcDbEntity
  8
3
  6
DASHDOT
 62
     1
370
    25
100
AcDbLine
 10
1353.560034066478
 20
1443.075943195719
 30
0.0
 11
1378.100996566479
 21
1443.075943195719
 31
0.0
  0
LINE
  5
2A8
330
1F
100
AcDbEntity
  8
3
  6
DASHDOT
 62
     1
370
    25
100
AcDbLine
 10
1368.234564389404
 20
1400.075943195697
 30
0.0
 11
1398.329928392787
 21
1400.075943195697
 31
0.0
  0
LINE
  5
2A9
330
1F
100
AcDbEntity
  8
3
  6
DASHDOT
 62
     1
370
    25
100
AcDbLine
 10
1358.034564389399
 20
823.0738775355599
 30
0.0
 11
1398.329928392787
 21
823.0738775355599
 31
0.0
  0
LINE
  5
2AA
330
1F
100
AcDbEntity
  8
11
  6
HIDDEN
 62
     2
370
    25
100
AcDbLine
 10
1363.977610466752
 20
1483.075943195722
 30
0.0
 11
1363.977610466752
 21
786.2759431957197
 31
0.0
  0
LINE
  5
2AB
330
1F
100
AcDbEntity
  8
11
  6
HIDDEN
 62
     2
370
    25
100
AcDbLine
 10
1380.97761046675
 20
786.2759431957197
 30
0.0
 11
1363.977610466752
 21
786.2759431957197
 31
0.0
  0
LINE
  5
2AC
330
1F
100
AcDbEntity
  8
11
  6
HIDDEN
 62
     2
370
    25
100
AcDbLine
 10
1377.377610466755
 20
1419.880943195715
 30
0.0
 11
1377.377610466755
 21
1379.875943195718
 31
0.0
  0
LINE
  5
2AD
330
1F
100
AcDbEntity
  8
11
  6
HIDDEN
 62
     2
370
    25
100
AcDbLine
 10
1380.577610466752
 20
1423.081572362383
 30
0.0
 11
1380.577610466752
 21
1379.875943195718
 31
0.0
  0
LINE
  5
2AE
330
1F
100
AcDbEntity
  8
11
  6
HIDDEN
 62
     2
370
    25
100
AcDbLine
 10
1377.377610466755
 20
1419.880943195715
 30
0.0
 11
1365.577610466752
 21
1419.880943195715
 31
0.0
  0
LINE
  5
2AF
330
1F
100
AcDbEntity
  8
11
  6
HIDDEN
 62
     2
370
    25
100
AcDbLine
 10
1368.777610466744
 20
1423.081572362385
 30
0.0
 11
1380.577610466752
 21
1423.081572362385
 31
0.0
  0
LINE
  5
2B0
330
1F
100
AcDbEntity
  8
11
  6
HIDDEN
 62
     2
370
    25
100
AcDbLine
 10
1368.777610466751
 20
1479.875943195718
 30
0.0
 11
1368.777610466749
 21
1423.081572362383
 31
0.0
  0
LINE
  5
2B1
330
1F
100
AcDbEntity
  8
11
  6
HIDDEN
 62
     2
370
    25
100
AcDbLine
 10
1377.377610466755
 20
1379.875943195718
 30
0.0
 11
1380.577610466752
 21
1379.875943195718
 31
0.0
  0
LINE
  5
2B2
330
1F
100
AcDbEntity
  8
11
  6
HIDDEN
 62
     2
370
    25
100
AcDbLine
 10
1363.977610466752
 20
838.0738775355617
 30
0.0
 11
1380.577610466752
 21
838.0738775355599
 31
0.0
  0
LINE
  5
2B3
330
1F
100
AcDbEntity
  8
11
  6
HIDDEN
 62
     2
370
    25
100
AcDbLine
 10
1363.977610466752
 20
808.0738775355617
 30
0.0
 11
1380.577610466752
 21
808.0738775355599
 31
0.0
  0
LINE
  5
2B4
330
1F
100
AcDbEntity
  8
11
  6
HIDDEN
 62
     2
370
    25
100
AcDbLine
 10
1367.177610466751
 20
836.4738775355595
 30
0.0
 11
1380.577610466752
 21
836.4738775355595
 31
0.0
  0
LINE
  5
2B5
330
1F
100
AcDbEntity
  8
11
  6
HIDDEN
 62
     2
370
    25
100
AcDbLine
 10
1367.177610466751
 20
809.6738775355602
 30
0.0
 11
1380.577610466752
 21
809.6738775355602
 31
0.0
  0
LINE
  5
2B6
330
1F
100
AcDbEntity
  8
11
  6
HIDDEN
 62
     2
370
    25
100
AcDbLine
 10
1367.177610466751
 20
836.4738775355595
 30
0.0
 11
1367.177610466751
 21
809.6738775355602
 31
0.0
  0
LINE
  5
2B7
330
1F
100
AcDbEntity
  8
11
  6
HIDDEN
 62
     2
370
    25
100
AcDbLine
 10
1363.977610466752
 20
1479.875943195716
 30
0.0
 11
1368.777610466748
 21
1479.87594319572
 31
0.0
  0
DIMENSION
  5
2C2
330
1F
100
AcDbEntity
  8
6
  6
Continuous
 62
     3
370
     9
100
AcDbDimension
280
     0
  2
Dim1
 10
2110.495723403135
 20
1540.749627681498
 30
0.0
 11
1908.602600111411
 21
1560.349627681498
 31
0.0
 70
   160
  1
<>
 71
     5
 42
-1.0
 73
     0
 74
     0
 75
     0
  3
Standard
100
AcDbAlignedDimension
 13
1710.495723403135
 23
1415.075943195717
 33
0.0
 14
2110.495723403135
 24
1415.075943195717
 34
0.0
100
AcDbRotatedDimension
1001
ACAD
1000
DSTYLE
1002
{
1070
   279
1070
     2
1070
   340
1005
2B8
1070
   140
1040
26.4
1070
    40
1040
1.0
1070
   147
1040
0.0
1070
    76
1070
     0
1070
    75
1070
     0
1070
   344
1005
7C
1070
   343
1005
7C
1070
   173
1070
     1
1070
   289
1070
     2
1070
   288
1070
     1
1070
    77
1070
     1
1070
   172
1070
     1
1070
   174
1070
     0
1070
    74
1070
     0
1070
    73
1070
     0
1070
   284
1070
     8
1070
    78
1070
     8
1070
    42
1040
8.0
1070
    44
1040
8.0
1070
    43
1040
10.0
1070
   271
1070
     1
1070
    41
1040
18.4
1002
}
  0
DIMENSION
  5
2CC
330
1F
100
AcDbEntity
  8
6
  6
Continuous
 62
     3
370
     9
100
AcDbDimension
280
     0
  2
Dim2
 10
2221.216058640362
 20
1002.075926556914
 30
0.0
 11
2204.210529167227
 21
1247.106435193236
 31
0.0
 70
   160
  1
<>
 71
     5
 42
-1.0
 73
     0
 74
     0
 75
     0
 53
89.99999999999991
  3
Standard
100
AcDbAlignedDimension
 13
2160.495723403135
 23
1483.075943195719
 33
0.0
 14
2047.995599833604
 24
1002.075926556914
 34
0.0
 50
-89.9999999999999
100
AcDbRotatedDimension
1001
ACAD
1000
DSTYLE
1002
{
1070
   279
1070
     2
1070
   340
1005
2B8
1070
   140
1040
26.4
1070
    40
1040
1.0
1070
   147
1040
0.0
1070
    76
1070
     0
1070
    75
1070
     0
1070
   344
1005
7C
1070
   343
1005
7C
1070
   173
1070
     1
1070
   289
1070
     2
1070
   288
1070
     1
1070
    77
1070
     1
1070
   172
1070
     1
1070
   174
1070
     0
1070
    74
1070
     0
1070
    73
1070
     0
1070
   284
1070
     8
1070
    78
1070
     8
1070
    42
1040
8.0
1070
    44
1040
8.0
1070
    43
1040
10.0
1070
   271
1070
     1
1070
    41
1040
18.4
1002
}
  0
DIMENSION
  5
2D6
330
1F
100
AcDbEntity
  8
6
  6
Continuous
 62
     3
370
     9
100
AcDbDimension
280
     0
  2
Dim3
 10
1594.921848937704
 20
995.0759431937189
 30
0.0
 11
1575.321848937703
 21
1238.77466680513
 31
0.0
 70
   160
  1
<>
 71
     5
 42
-1.0
 73
     0
 74
     0
 75
     0
 53
89.99999999999991
  3
Standard
100
AcDbAlignedDimension
 13
1660.495723403135
 23
1483.075943195719
 33
0.0
 14
1866.995723403135
 24
995.0759431937181
 34
0.0
 50
-89.9999999999999
100
AcDbRotatedDimension
1001
ACAD
1000
DSTYLE
1002
{
1070
   279
1070
     2
1070
   340
1005
2B8
1070
   140
1040
26.4
1070
    40
1040
1.0
1070
   147
1040
0.0
1070
    76
1070
     0
1070
    75
1070
     0
1070
   344
1005
7C
1070
   343
1005
7C
1070
   173
1070
     1
1070
   289
1070
     2
1070
   288
1070
     1
1070
    77
1070
     1
1070
   172
1070
     1
1070
   174
1070
     0
1070
    74
1070
     0
1070
    73
1070
     0
1070
   284
1070
     8
1070
    78
1070
     8
1070
    42
1040
8.0
1070
    44
1040
8.0
1070
    43
1040
10.0
1070
   271
1070
     1
1070
    41
1040
18.4
1002
}
  0
DIMENSION
  5
2E0
330
1F
100
AcDbEntity
  8
6
  6
Continuous
 62
     3
370
     9
100
AcDbDimension
280
     0
  2
Dim4
 10
1099.216058640366
 20
783.075943195719
 30
0.0
 11
1079.616058640366
 21
1129.180161501705
 31
0.0
 70
   160
  1
<>
 71
     5
 42
-1.0
 73
     0
 74
     0
 75
     0
 53
89.9999999999999
  3
Standard
100
AcDbAlignedDimension
 13
1020.888688251343
 23
1483.075943195719
 33
0.0
 14
1020.888688251343
 24
783.075943195719
 34
0.0
 50
-89.99999999999991
100
AcDbRotatedDimension
1001
ACAD
1000
DSTYLE
1002
{
1070
   279
1070
     2
1070
   340
1005
2B8
1070
   140
1040
26.4
1070
    40
1040
1.0
1070
   147
1040
0.0
1070
    76
1070
     0
1070
    75
1070
     0
1070
   344
1005
7C
1070
   343
1005
7C
1070
   173
1070
     1
1070
   289
1070
     2
1070
   288
1070
     1
1070
    77
1070
     1
1070
   172
1070
     1
1070
   174
1070
     0
1070
    74
1070
     0
1070
    73
1070
     0
1070
   284
1070
     8
1070
    78
1070
     8
1070
    42
1040
8.0
1070
    44
1040
8.0
1070
    43
1040
10.0
1070
   271
1070
     1
1070
    41
1040
18.4
1002
}
  0
DIMENSION
  5
2EA
330
1F
100
AcDbEntity
  8
6
  6
Continuous
 62
     3
370
     9
100
AcDbDimension
280
     0
  2
Dim5
 10
2030.495599833603
 20
682.4660505902377
 30
0.0
 11
1970.104187596999
 21
702.0660505902378
 31
0.0
 70
   160
  1
<>
 71
     5
 42
-1.0
 73
     0
 74
     0
 75
     0
  3
Standard
100
AcDbAlignedDimension
 13
1910.495723403135
 23
753.075943195719
 33
0.0
 14
2030.495599833604
 24
984.5759265569136
 34
0.0
100
AcDbRotatedDimension
1001
ACAD
1000
DSTYLE
1002
{
1070
   279
1070
     2
1070
   340
1005
2B8
1070
   140
1040
26.4
1070
    40
1040
1.0
1070
   147
1040
0.0
1070
    76
1070
     0
1070
    75
1070
     0
1070
   344
1005
7C
1070
   343
1005
7C
1070
   173
1070
     1
1070
   289
1070
     2
1070
   288
1070
     1
1070
    77
1070
     1
1070
   172
1070
     1
1070
   174
1070
     0
1070
    74
1070
     0
1070
    73
1070
     0
1070
   284
1070
     8
1070
    78
1070
     8
1070
    42
1040
8.0
1070
    44
1040
8.0
1070
    43
1040
10.0
1070
   271
1070
     1
1070
    41
1040
18.4
1002
}
  0
DIMENSION
  5
2F4
330
1F
100
AcDbEntity
  8
6
  6
Continuous
 62
     3
370
     9
100
AcDbDimension
280
     0
  2
Dim6
 10
1470.846599544682
 20
1400.075943195697
 30
0.0
 11
1451.246599544682
 21
1441.887502254037
 31
0.0
 70
   160
  1
<>
 71
     5
 42
-1.0
 73
     0
 74
     0
 75
     0
 53
89.99999999999991
  3
Standard
100
AcDbAlignedDimension
 13
1380.97761046675
 23
1483.075943195719
 33
0.0
 14
1398.329928392787
 24
1400.075943195697
 34
0.0
 50
-89.99999999999991
100
AcDbRotatedDimension
1001
ACAD
1000
DSTYLE
1002
{
1070
   279
1070
     2
1070
   340
1005
2B8
1070
   140
1040
26.4
1070
    40
1040
1.0
1070
   147
1040
0.0
1070
    76
1070
     0
1070
    75
1070
     0
1070
   344
1005
7C
1070
   343
1005
7C
1070
   173
1070
     1
1070
   289
1070
     2
1070
   288
1070
     1
1070
    77
1070
     1
1070
   172
1070
     1
1070
   174
1070
     0
1070
    74
1070
     0
1070
    73
1070
     0
1070
   284
1070
     8
1070
    78
1070
     8
1070
    42
1040
8.0
1070
    44
1040
8.0
1070
    43
1040
10.0
1070
   271
1070
     1
1070
    41
1040
18.4
1002
}
  0
DIMENSION
  5
2FE
330
1F
100
AcDbEntity
  8
6
  6
Continuous
 62
     3
370
     9
100
AcDbDimension
280
     0
  2
Dim7
 10
1470.84659958734
 20
823.0738775355599
 30
0.0
 11
1451.246599587339
 21
1112.928909545524
 31
0.0
 70
   160
  1
<>
 71
     5
 42
-1.0
 73
     0
 74
     0
 75
     0
 53
89.99999999999991
  3
Standard
100
AcDbAlignedDimension
 13
1398.329928392787
 23
1400.075943195697
 33
0.0
 14
1398.329928392787
 24
823.0738775355599
 34
0.0
 50
-89.99999999999991
100
AcDbRotatedDimension
1001
ACAD
1000
DSTYLE
1002
{
1070
   279
1070
     2
1070
   340
1005
2B8
1070
   140
1040
26.4
1070
    40
1040
1.0
1070
   147
1040
0.0
1070
    76
1070
     0
1070
    75
1070
     0
1070
   344
1005
7C
1070
   343
1005
7C
1070
   173
1070
     1
1070
   289
1070
     2
1070
   288
1070
     1
1070
    77
1070
     1
1070
   172
1070
     1
1070
   174
1070
     0
1070
    74
1070
     0
1070
    73
1070
     0
1070
   284
1070
     8
1070
    78
1070
     8
1070
    42
1040
8.0
1070
    44
1040
8.0
1070
    43
1040
10.0
1070
   271
1070
     1
1070
    41
1040
18.4
1002
}
  0
DIMENSION
  5
308
330
1F
100
AcDbEntity
  8
6
  6
Continuous
 62
     3
370
     9
100
AcDbDimension
280
     0
  2
Dim8
 10
1380.97761046675
 20
682.4660505902377
 30
0.0
 11
1299.242434085538
 21
702.0660505902378
 31
0.0
 70
   160
  1
<>
 71
     5
 42
-1.0
 73
     0
 74
     0
 75
     0
  3
Standard
100
AcDbAlignedDimension
 13
1220.97761046675
 23
786.075943195719
 33
0.0
 14
1380.97761046675
 24
783.075943195719
 34
0.0
100
AcDbRotatedDimension
1001
ACAD
1000
DSTYLE
1002
{
1070
   279
1070
     2
1070
   340
1005
2B8
1070
   140
1040
26.4
1070
    40
1040
1.0
1070
   147
1040
0.0
1070
    76
1070
     0
1070
    75
1070
     0
1070
   344
1005
7C
1070
   343
1005
7C
1070
   173
1070
     1
1070
   289
1070
     2
1070
   288
1070
     1
1070
    77
1070
     1
1070
   172
1070
     1
1070
   174
1070
     0
1070
    74
1070
     0
1070
    73
1070
     0
1070
   284
1070
     8
1070
    78
1070
     8
1070
    42
1040
8.0
1070
    44
1040
8.0
1070
    43
1040
10.0
1070
   271
1070
     1
1070
    41
1040
18.4
1002
}
  0
DIMENSION
  5
312
330
1F
100
AcDbEntity
  8
6
  6
Continuous
 62
     3
370
     9
100
AcDbDimension
280
     0
  2
Dim9
 10
1020.888688251342
 20
682.4660505902377
 30
0.0
 11
767.7815255156927
 21
702.0660505902378
 31
0.0
 70
   160
  1
<>
 71
     5
 42
-1.0
 73
     0
 74
     0
 75
     0
  3
Standard
100
AcDbAlignedDimension
 13
520.888688251343
 23
783.075943195719
 33
0.0
 14
1020.888688251343
 24
783.075943195719
 34
0.0
100
AcDbRotatedDimension
1001
ACAD
1000
DSTYLE
1002
{
1070
   279
1070
     2
1070
   340
1005
2B8
1070
   140
1040
26.4
1070
    40
1040
1.0
1070
   147
1040
0.0
1070
    76
1070
     0
1070
    75
1070
     0
1070
   344
1005
7C
1070
   343
1005
7C
1070
   173
1070
     1
1070
   289
1070
     2
1070
   288
1070
     1
1070
    77
1070
     1
1070
   172
1070
     1
1070
   174
1070
     0
1070
    74
1070
     0
1070
    73
1070
     0
1070
   284
1070
     8
1070
    78
1070
     8
1070
    42
1040
8.0
1070
    44
1040
8.0
1070
    43
1040
10.0
1070
   271
1070
     1
1070
    41
1040
18.4
1002
}
  0
DIMENSION
  5
31C
330
1F
100
AcDbEntity
  8
6
  6
Continuous
 62
     3
370
     9
100
AcDbDimension
280
     0
  2
Dim10
 10
1245.97761046675
 20
740.1163964238141
 30
0.0
 11
1190.004575263031
 21
758.0786668537006
 31
0.0
 70
   160
  1
<>
 71
     5
 42
-1.0
 73
     0
 74
     0
 75
     0
  3
Standard
100
AcDbAlignedDimension
 13
1220.97761046675
 23
786.075943195719
 33
0.0
 14
1245.97761046675
 24
783.075943195719
 34
0.0
100
AcDbRotatedDimension
1001
ACAD
1000
DSTYLE
1002
{
1070
   279
1070
     2
1070
   340
1005
2B8
1070
   140
1040
26.4
1070
    40
1040
1.0
1070
   147
1040
0.0
1070
    76
1070
     0
1070
    75
1070
     0
1070
   344
1005
7C
1070
   343
1005
7C
1070
   173
1070
     1
1070
   289
1070
     2
1070
   288
1070
     1
1070
    77
1070
     1
1070
   172
1070
     1
1070
   174
1070
     0
1070
    74
1070
     0
1070
    73
1070
     0
1070
   284
1070
     8
1070
    78
1070
     8
1070
    42
1040
8.0
1070
    44
1040
8.0
1070
    43
1040
10.0
1070
   271
1070
     1
1070
    41
1040
18.4
1002
}
  0
DIMENSION
  5
326
330
1F
100
AcDbEntity
  8
6
  6
Continuous
 62
     3
370
     9
100
AcDbDimension
280
     0
  2
Dim11
 10
1380.97761046675
 20
738.9353844259009
 30
0.0
 11
1418.480827408438
 21
758.5353844259009
 31
0.0
 70
   160
  1
<>
 71
     5
 42
-1.0
 73
     0
 74
     0
 75
     0
  3
Standard
100
AcDbAlignedDimension
 13
1363.977610466752
 23
786.2759431957197
 33
0.0
 14
1380.97761046675
 24
783.075943195719
 34
0.0
100
AcDbRotatedDimension
1001
ACAD
1000
DSTYLE
1002
{
1070
   279
1070
     2
1070
   340
1005
2B8
1070
   140
1040
26.4
1070
    40
1040
1.0
1070
   147
1040
0.0
1070
    76
1070
     0
1070
    75
1070
     0
1070
   344
1005
7C
1070
   343
1005
7C
1070
   173
1070
     1
1070
   289
1070
     2
1070
   288
1070
     1
1070
    77
1070
     1
1070
   172
1070
     1
1070
   174
1070
     0
1070
    74
1070
     0
1070
    73
1070
     0
1070
   284
1070
     8
1070
    78
1070
     8
1070
    42
1040
8.0
1070
    44
1040
8.0
1070
    43
1040
10.0
1070
   271
1070
     1
1070
    41
1040
18.4
1002
}
  0
INSERT
  5
327
330
1F
100
AcDbEntity
  8
6
  6
Continuous
 62
     3
370
     9
100
AcDbBlockReference
  2
_OPEN
 10
1896.145632153926
 20
952.6075594616989
 30
0.0
 41
18.4
 42
18.4
 43
18.4
 50
74.40912999955653
  0
POLYLINE
  5
328
330
1F
100
AcDbEntity
  8
6
  6
Continuous
 62
     3
370
     9
100
AcDb2dPolyline
 66
     1
 10
0.0
 20
0.0
 30
0.0
  0
VERTEX
  5
329
330
328
100
AcDbEntity
  8
6
  6
Continuous
 62
     3
370
     9
100
AcDbVertex
100
AcDb2dVertex
 10
1896.145632153926
 20
952.6075594616989
 30
0.0
  0
VERTEX
  5
32A
330
328
100
AcDbEntity
  8
6
  6
Continuous
 62
     3
370
     9
100
AcDbVertex
100
AcDb2dVertex
 10
1828.375973881874
 20
709.7345063177445
 30
0.0
  0
VERTEX
  5
32B
330
328
100
AcDbEntity
  8
6
  6
Continuous
 62
     3
370
     9
100
AcDbVertex
100
AcDb2dVertex
 10
1713.888754267895
 20
709.7345063177445
 30
0.0
  0
SEQEND
  5
32C
330
328
100
AcDbEntity
  8
6
  6
Continuous
 62
     3
370
     9
  0
MTEXT
  5
32D
330
1F
100
AcDbEntity
  8
6
  6
Continuous
 62
     3
370
     9
100
AcDbMText
 10
1810.732364074885
 20
713.7345063177445
 30
0.0
 40
26.4
 41
113.294136746208
 46
26.4
 71
     9
 72
     1
  1
{\fＭＳ Ｐゴシック;\W0.714286;60×90}
 73
     1
 44
1.0
1001
ACAD
1000
ACAD_MTEXT_DEFINED_HEIGHT_BEGIN
1070
    46
1040
26.4
1000
ACAD_MTEXT_DEFINED_HEIGHT_END
  0
MTEXT
  5
32E
330
1F
100
AcDbEntity
  8
6
  6
Continuous
 62
     3
370
     9
100
AcDbMText
 10
1810.732364074885
 20
705.7345063177445
 30
0.0
 40
26.4
 41
112.678262214144
 46
26.4
 71
     3
 72
     1
  1
{\fＭＳ Ｐゴシック;\W0.714286;配線孔}
 73
     1
 44
1.0
1001
ACAD
1000
ACAD_MTEXT_DEFINED_HEIGHT_BEGIN
1070
    46
1040
26.4
1000
ACAD_MTEXT_DEFINED_HEIGHT_END
  0
INSERT
  5
32F
330
1F
100
AcDbEntity
  8
6
  6
Continuous
 62
     3
370
     9
100
AcDbBlockReference
  2
_OPEN
 10
2032.666029657951
 20
992.3143060778341
 30
0.0
 41
18.4
 42
18.4
 43
18.4
 50
102.5354122508867
  0
POLYLINE
  5
330
330
1F
100
AcDbEntity
  8
6
  6
Continuous
 62
     3
370
     9
100
AcDb2dPolyline
 66
     1
 10
0.0
 20
0.0
 30
0.0
  0
VERTEX
  5
331
330
330
100
AcDbEntity
  8
6
  6
Continuous
 62
     3
370
     9
100
AcDbVertex
100
AcDb2dVertex
 10
2032.666029657951
 20
992.3143060778341
 30
0.0
  0
VERTEX
  5
332
330
330
100
AcDbEntity
  8
6
  6
Continuous
 62
     3
370
     9
100
AcDbVertex
100
AcDb2dVertex
 10
2095.495723403135
 20
709.7345063177445
 30
0.0
  0
VERTEX
  5
333
330
330
100
AcDbEntity
  8
6
  6
Continuous
 62
     3
370
     9
100
AcDbVertex
100
AcDb2dVertex
 10
2241.111509995034
 20
709.7345063177445
 30
0.0
  0
SEQEND
  5
334
330
330
100
AcDbEntity
  8
6
  6
Continuous
 62
     3
370
     9
  0
MTEXT
  5
335
330
1F
100
AcDbEntity
  8
6
  6
Continuous
 62
     3
370
     9
100
AcDbMText
 10
2141.903616699085
 20
713.7345063177445
 30
0.0
 40
26.4
 41
68.603067441216
 46
26.4
 71
     7
 72
     1
  1
{\fＭＳ Ｐゴシック;\W0.714286;φ20}
 73
     1
 44
1.0
1001
ACAD
1000
ACAD_MTEXT_DEFINED_HEIGHT_BEGIN
1070
    46
1040
26.4
1000
ACAD_MTEXT_DEFINED_HEIGHT_END
  0
MTEXT
  5
336
330
1F
100
AcDbEntity
  8
6
  6
Continuous
 62
     3
370
     9
100
AcDbMText
 10
2102.303616699084
 20
705.7345063177445
 30
0.0
 40
26.4
 41
189.475138647168
 46
26.4
 71
     1
 72
     1
  1
{\fＭＳ Ｐゴシック;\W0.714286;電線配線孔}
 73
     1
 44
1.0
1001
ACAD
1000
ACAD_MTEXT_DEFINED_HEIGHT_BEGIN
1070
    46
1040
26.4
1000
ACAD_MTEXT_DEFINED_HEIGHT_END
  0
INSERT
  5
337
330
1F
100
AcDbEntity
  8
6
  6
Continuous
 62
     3
370
     9
100
AcDbBlockReference
  2
_OPEN
 10
1708.517043243871
 20
1405.818840542903
 30
0.0
 41
18.4
 42
18.4
 43
18.4
 50
289.0110772561827
  0
POLYLINE
  5
338
330
1F
100
AcDbEntity
  8
6
  6
Continuous
 62
     3
370
     9
100
AcDb2dPolyline
 66
     1
 10
0.0
 20
0.0
 30
0.0
  0
VERTEX
  5
339
330
338
100
AcDbEntity
  8
6
  6
Continuous
 62
     3
370
     9
100
AcDbVertex
100
AcDb2dVertex
 10
1708.517043243871
 20
1405.818840542903
 30
0.0
  0
VERTEX
  5
33A
330
338
100
AcDbEntity
  8
6
  6
Continuous
 62
     3
370
     9
100
AcDbVertex
100
AcDb2dVertex
 10
1659.569952005123
 20
1547.882285769945
 30
0.0
  0
VERTEX
  5
33B
330
338
100
AcDbEntity
  8
6
  6
Continuous
 62
     3
370
     9
100
AcDbVertex
100
AcDb2dVertex
 10
1458.222708047552
 20
1547.882285769945
 30
0.0
  0
SEQEND
  5
33C
330
338
100
AcDbEntity
  8
6
  6
Continuous
 62
     3
370
     9
  0
MTEXT
  5
33D
330
1F
100
AcDbEntity
  8
6
  6
Continuous
 62
     3
370
     9
100
AcDbMText
 10
1598.496330026337
 20
1551.882285769945
 30
0.0
 40
26.4
 41
112.838925135552
 46
26.4
 71
     9
 72
     1
  1
{\fＭＳ Ｐゴシック;\W0.714286;2-φ12}
 73
     1
 44
1.0
1001
ACAD
1000
ACAD_MTEXT_DEFINED_HEIGHT_BEGIN
1070
    46
1040
26.4
1000
ACAD_MTEXT_DEFINED_HEIGHT_END
  0
MTEXT
  5
33E
330
1F
100
AcDbEntity
  8
6
  6
Continuous
 62
     3
370
     9
100
AcDbMText
 10
1647.943530026337
 20
1543.882285769945
 30
0.0
 40
26.4
 41
258.506640545472
 46
26.4
 71
     3
 72
     1
  1
{\fＭＳ Ｐゴシック;\W0.714286;ハンガー取付孔}
 73
     1
 44
1.0
1001
ACAD
1000
ACAD_MTEXT_DEFINED_HEIGHT_BEGIN
1070
    46
1040
26.4
1000
ACAD_MTEXT_DEFINED_HEIGHT_END
  0
INSERT
  5
33F
330
1F
100
AcDbEntity
  8
6
  6
Continuous
 62
     3
370
     9
100
AcDbBlockReference
  2
_OPEN
 10
1707.956911360226
 20
817.6374785977757
 30
0.0
 41
18.4
 42
18.4
 43
18.4
 50
64.97565012792158
  0
POLYLINE
  5
340
330
1F
100
AcDbEntity
  8
6
  6
Continuous
 62
     3
370
     9
100
AcDb2dPolyline
 66
     1
 10
0.0
 20
0.0
 30
0.0
  0
VERTEX
  5
341
330
340
100
AcDbEntity
  8
6
  6
Continuous
 62
     3
370
     9
100
AcDbVertex
100
AcDb2dVertex
 10
1707.956911360226
 20
817.6374785977757
 30
0.0
  0
VERTEX
  5
342
330
340
100
AcDbEntity
  8
6
  6
Continuous
 62
     3
370
     9
100
AcDbVertex
100
AcDb2dVertex
 10
1657.585089469138
 20
709.7345063177445
 30
0.0
  0
VERTEX
  5
343
330
340
100
AcDbEntity
  8
6
  6
Continuous
 62
     3
370
     9
100
AcDbVertex
100
AcDb2dVertex
 10
1512.318727567385
 20
709.7345063177445
 30
0.0
  0
SEQEND
  5
344
330
340
100
AcDbEntity
  8
6
  6
Continuous
 62
     3
370
     9
  0
MTEXT
  5
345
330
1F
100
AcDbEntity
  8
6
  6
Continuous
 62
     3
370
     9
100
AcDbMText
 10
1624.551908518261
 20
713.7345063177445
 30
0.0
 40
26.4
 41
112.838925135552
 46
26.4
 71
     9
 72
     1
  1
{\fＭＳ Ｐゴシック;\W0.714286;2-φ12}
 73
     1
 44
1.0
1001
ACAD
1000
ACAD_MTEXT_DEFINED_HEIGHT_BEGIN
1070
    46
1040
26.4
1000
ACAD_MTEXT_DEFINED_HEIGHT_END
  0
MTEXT
  5
346
330
1F
100
AcDbEntity
  8
6
  6
Continuous
 62
     3
370
     9
100
AcDbMText
 10
1650.951908518261
 20
705.7345063177445
 30
0.0
 40
26.4
 41
190.706887711296
 46
26.4
 71
     3
 72
     1
  1
{\fＭＳ Ｐゴシック;\W0.714286;本体固定孔}
 73
     1
 44
1.0
1001
ACAD
1000
ACAD_MTEXT_DEFINED_HEIGHT_BEGIN
1070
    46
1040
26.4
1000
ACAD_MTEXT_DEFINED_HEIGHT_END
  0
VIEWPORT
  5
6A
330
1B
100
AcDbEntity
 67
     1
  8
0
100
AcDbViewport
 10
1680.0
 20
1188.0
 30
0.0
 40
3360.0
 41
2376.0
 68
     1
 69
     1
 12
1680.0
 22
1188.0
 13
0.0
 23
0.0
 14
0.5
 24
0.5
 15
0.5
 25
0.5
 16
0.0
 26
0.0
 36
1.0
 17
0.0
 27
0.0
 37
0.0
 42
50.0
 43
0.0
 44
0.0
 45
9.0
 50
0.0
 51
0.0
 72
   100
 90
   557152
  1

281
     0
 71
     1
 74
     0
110
0.0
120
0.0
130
0.0
111
1.0
121
0.0
131
0.0
112
0.0
122
1.0
132
0.0
 79
     0
146
0.0
170
     0
 61
     5
292
     1
282
     1
141
0.0
142
0.0
 63
   256
  0
ENDSEC
  0
SECTION
  2
OBJECTS
  0
DICTIONARY
  5
C
330
0
100
AcDbDictionary
281
     1
  3
ACAD_DETAILVIEWSTYLE
350
34B
  3
ACAD_GROUP
350
D
  3
ACAD_LAYOUT
350
1A
  3
ACAD_MATERIAL
350
43
  3
ACAD_MLEADERSTYLE
350
34A
  3
ACAD_MLINESTYLE
350
17
  3
ACAD_PLOTSETTINGS
350
19
  3
ACAD_PLOTSTYLENAME
350
E
  3
ACAD_SCALELIST
350
47
  3
ACAD_SECTIONVIEWSTYLE
350
34C
  3
ACAD_TABLESTYLE
350
349
  3
ACAD_VISUALSTYLE
350
2A
  3
AcDbVariableDictionary
350
347
  0
SUN
  5
69
330
29
100
AcDbSun
 90
        1
290
     0
 63
     7
421
 16777215
 40
1.0
291
     1
 91
  2455826
 92
 54000000
292
     0
 70
     2
 71
   256
280
     1
  0
DICTIONARY
  5
34B
102
{ACAD_REACTORS
330
C
102
}
330
C
100
AcDbDictionary
281
     1
  0
DICTIONARY
  5
D
102
{ACAD_REACTORS
330
C
102
}
330
C
100
AcDbDictionary
281
     1
  0
DICTIONARY
  5
1A
102
{ACAD_REACTORS
330
C
102
}
330
C
100
AcDbDictionary
281
     1
  3
Layout1
350
1E
  3
Layout2
350
26
  3
Model
350
22
  0
DICTIONARY
  5
43
102
{ACAD_REACTORS
330
C
102
}
330
C
100
AcDbDictionary
281
     1
  3
ByBlock
350
45
  3
ByLayer
350
44
  3
Global
350
46
  0
DICTIONARY
  5
34A
102
{ACAD_REACTORS
330
C
102
}
330
C
100
AcDbDictionary
281
     1
  0
DICTIONARY
  5
17
102
{ACAD_REACTORS
330
C
102
}
330
C
100
AcDbDictionary
281
     1
  3
Standard
350
18
  0
DICTIONARY
  5
19
102
{ACAD_REACTORS
330
C
102
}
330
C
100
AcDbDictionary
281
     1
  0
ACDBDICTIONARYWDFLT
  5
E
102
{ACAD_REACTORS
330
C
102
}
330
C
100
AcDbDictionary
281
     1
  3
Normal
350
F
100
AcDbDictionaryWithDefault
340
F
  0
DICTIONARY
  5
47
102
{ACAD_REACTORS
330
C
102
}
330
C
100
AcDbDictionary
281
     1
  3
A0
350
48
  3
A1
350
49
  3
A2
350
4A
  3
A3
350
4B
  3
A4
350
4C
  3
A5
350
4D
  3
A6
350
4E
  3
A7
350
4F
  3
A8
350
50
  3
A9
350
51
  3
B0
350
52
  3
B1
350
53
  3
B2
350
54
  3
B3
350
55
  3
B4
350
56
  3
B5
350
57
  3
B6
350
58
  3
B7
350
59
  3
B8
350
5A
  3
B9
350
5B
  3
C0
350
5C
  3
C1
350
5D
  3
C2
350
5E
  3
C3
350
5F
  3
C4
350
60
  3
C5
350
61
  3
C6
350
62
  3
C7
350
63
  3
C8
350
64
  3
C9
350
65
  3
D0
350
66
  3
D1
350
67
  3
D2
350
68
  0
DICTIONARY
  5
34C
102
{ACAD_REACTORS
330
C
102
}
330
C
100
AcDbDictionary
281
     1
  0
DICTIONARY
  5
349
102
{ACAD_REACTORS
330
C
102
}
330
C
100
AcDbDictionary
281
     1
  0
DICTIONARY
  5
2A
102
{ACAD_REACTORS
330
C
102
}
330
C
100
AcDbDictionary
281
     1
  3
2dWireframe
350
2F
  3
Basic
350
32
  3
Brighten
350
36
  3
ColorChange
350
3A
  3
Conceptual
350
34
  3
Dim
350
35
  3
EdgeColorOff
350
3D
  3
Facepattern
350
39
  3
Flat
350
2B
  3
FlatWithEdges
350
2C
  3
Gouraud
350
2D
  3
GouraudWithEdges
350
2E
  3
Hidden
350
31
  3
JitterOff
350
3B
  3
Linepattern
350
38
  3
OverhangOff
350
3C
  3
Realistic
350
33
  3
Shaded
350
42
  3
Shaded with edges
350
41
  3
Shades of Gray
350
3E
  3
Sketchy
350
3F
  3
Thicken
350
37
  3
Wireframe
350
30
  3
X-Ray
350
40
  0
DICTIONARY
  5
347
102
{ACAD_REACTORS
330
C
102
}
330
C
100
AcDbDictionary
281
     1
  3
CANNOSCALE
350
348
  0
LAYOUT
  5
1E
102
{ACAD_REACTORS
330
1A
102
}
330
1A
100
AcDbPlotSettings
  1

  2
none_device
  4

  6

 40
0.0
 41
0.0
 42
0.0
 43
0.0
 44
0.0
 45
0.0
 46
0.0
 47
0.0
 48
0.0
 49
0.0
140
0.0
141
0.0
142
1.0
143
1.0
 70
   688
 72
     0
 73
     0
 74
     5
  7

 75
    16
 76
     0
 77
     2
 78
   300
147
1.0
148
0.0
149
0.0
100
AcDbLayout
  1
Layout1
 70
     1
 71
     1
 10
0.0
 20
0.0
 11
420.0
 21
297.0
 12
0.0
 22
0.0
 32
0.0
 14
0.0
 24
0.0
 34
0.0
 15
420.0
 25
297.0
 35
0.0
146
0.0
 13
0.0
 23
0.0
 33
0.0
 16
1.0
 26
0.0
 36
0.0
 17
0.0
 27
1.0
 37
0.0
 76
     0
330
1B
331
6A
  0
LAYOUT
  5
26
102
{ACAD_REACTORS
330
1A
102
}
330
1A
100
AcDbPlotSettings
  1

  2
none_device
  4

  6

 40
0.0
 41
0.0
 42
0.0
 43
0.0
 44
0.0
 45
0.0
 46
0.0
 47
0.0
 48
0.0
 49
0.0
140
0.0
141
0.0
142
1.0
143
1.0
 70
   688
 72
     0
 73
     0
 74
     5
  7

 75
    16
 76
     0
 77
     2
 78
   300
147
1.0
148
0.0
149
0.0
100
AcDbLayout
  1
Layout2
 70
     1
 71
     2
 10
0.0
 20
0.0
 11
0.0
 21
0.0
 12
0.0
 22
0.0
 32
0.0
 14
0.0
 24
0.0
 34
0.0
 15
0.0
 25
0.0
 35
0.0
146
0.0
 13
0.0
 23
0.0
 33
0.0
 16
1.0
 26
0.0
 36
0.0
 17
0.0
 27
1.0
 37
0.0
 76
     0
330
23
  0
LAYOUT
  5
22
102
{ACAD_REACTORS
330
1A
102
}
330
1A
100
AcDbPlotSettings
  1

  2
none_device
  4
Letter_(8.50_x_11.00_Inches)
  6

 40
6.35
 41
6.35
 42
6.35000508
 43
6.35000508
 44
215.9
 45
279.4
 46
0.0
 47
0.0
 48
0.0
 49
0.0
140
0.0
141
0.0
142
1.0
143
1.0
 70
  1712
 72
     0
 73
     0
 74
     0
  7

 75
     0
 76
     0
 77
     2
 78
   300
147
1.0
148
0.0
149
0.0
100
AcDbLayout
  1
Model
 70
     1
 71
     0
 10
0.0
 20
0.0
 11
420.0
 21
297.0
 12
0.0
 22
0.0
 32
0.0
 14
0.0
 24
0.0
 34
0.0
 15
2895.999988415999
 25
2184.000000000002
 35
0.0
146
0.0
 13
0.0
 23
0.0
 33
0.0
 16
1.0
 26
0.0
 36
0.0
 17
0.0
 27
1.0
 37
0.0
 76
     0
330
1F
331
29
  0
MATERIAL
  5
45
102
{ACAD_REACTORS
330
43
102
}
330
43
100
AcDbMaterial
  1
ByBlock
 72
     1
 94
      127
  0
MATERIAL
  5
44
102
{ACAD_REACTORS
330
43
102
}
330
43
100
AcDbMaterial
  1
ByLayer
 72
     1
 94
      127
  0
MATERIAL
  5
46
102
{ACAD_REACTORS
330
43
102
}
330
43
100
AcDbMaterial
  1
Global
 72
     1
 94
      127
  0
MLINESTYLE
  5
18
102
{ACAD_REACTORS
330
17
102
}
330
17
100
AcDbMlineStyle
  2
Standard
 70
     0
  3

 62
   256
 51
90.0
 52
90.0
 71
     2
 49
0.5
 62
   256
  6
BYLAYER
 49
-0.5
 62
   256
  6
BYLAYER
  0
ACDBPLACEHOLDER
  5
F
102
{ACAD_REACTORS
330
E
102
}
330
E
  0
SCALE
  5
48
102
{ACAD_REACTORS
330
47
102
}
330
47
100
AcDbScale
 70
     0
300
1:1
140
1.0
141
1.0
290
     1
  0
SCALE
  5
49
102
{ACAD_REACTORS
330
47
102
}
330
47
100
AcDbScale
 70
     0
300
1:2
140
1.0
141
2.0
290
     0
  0
SCALE
  5
4A
102
{ACAD_REACTORS
330
47
102
}
330
47
100
AcDbScale
 70
     0
300
1:4
140
1.0
141
4.0
290
     0
  0
SCALE
  5
4B
102
{ACAD_REACTORS
330
47
102
}
330
47
100
AcDbScale
 70
     0
300
1:5
140
1.0
141
5.0
290
     0
  0
SCALE
  5
4C
102
{ACAD_REACTORS
330
47
102
}
330
47
100
AcDbScale
 70
     0
300
1:8
140
1.0
141
8.0
290
     0
  0
SCALE
  5
4D
102
{ACAD_REACTORS
330
47
102
}
330
47
100
AcDbScale
 70
     0
300
1:10
140
1.0
141
10.0
290
     0
  0
SCALE
  5
4E
102
{ACAD_REACTORS
330
47
102
}
330
47
100
AcDbScale
 70
     0
300
1:16
140
1.0
141
16.0
290
     0
  0
SCALE
  5
4F
102
{ACAD_REACTORS
330
47
102
}
330
47
100
AcDbScale
 70
     0
300
1:20
140
1.0
141
20.0
290
     0
  0
SCALE
  5
50
102
{ACAD_REACTORS
330
47
102
}
330
47
100
AcDbScale
 70
     0
300
1:30
140
1.0
141
30.0
290
     0
  0
SCALE
  5
51
102
{ACAD_REACTORS
330
47
102
}
330
47
100
AcDbScale
 70
     0
300
1:40
140
1.0
141
40.0
290
     0
  0
SCALE
  5
52
102
{ACAD_REACTORS
330
47
102
}
330
47
100
AcDbScale
 70
     0
300
1:50
140
1.0
141
50.0
290
     0
  0
SCALE
  5
53
102
{ACAD_REACTORS
330
47
102
}
330
47
100
AcDbScale
 70
     0
300
1:100
140
1.0
141
100.0
290
     0
  0
SCALE
  5
54
102
{ACAD_REACTORS
330
47
102
}
330
47
100
AcDbScale
 70
     0
300
2:1
140
2.0
141
1.0
290
     0
  0
SCALE
  5
55
102
{ACAD_REACTORS
330
47
102
}
330
47
100
AcDbScale
 70
     0
300
4:1
140
4.0
141
1.0
290
     0
  0
SCALE
  5
56
102
{ACAD_REACTORS
330
47
102
}
330
47
100
AcDbScale
 70
     0
300
8:1
140
8.0
141
1.0
290
     0
  0
SCALE
  5
57
102
{ACAD_REACTORS
330
47
102
}
330
47
100
AcDbScale
 70
     0
300
10:1
140
10.0
141
1.0
290
     0
  0
SCALE
  5
58
102
{ACAD_REACTORS
330
47
102
}
330
47
100
AcDbScale
 70
     0
300
100:1
140
100.0
141
1.0
290
     0
  0
SCALE
  5
59
102
{ACAD_REACTORS
330
47
102
}
330
47
100
AcDbScale
 70
     0
300
1/128" = 1'-0"
140
0.0078125
141
12.0
290
     0
  0
SCALE
  5
5A
102
{ACAD_REACTORS
330
47
102
}
330
47
100
AcDbScale
 70
     0
300
1/64" = 1'-0"
140
0.015625
141
12.0
290
     0
  0
SCALE
  5
5B
102
{ACAD_REACTORS
330
47
102
}
330
47
100
AcDbScale
 70
     0
300
1/32" = 1'-0"
140
0.03125
141
12.0
290
     0
  0
SCALE
  5
5C
102
{ACAD_REACTORS
330
47
102
}
330
47
100
AcDbScale
 70
     0
300
1/16" = 1'-0"
140
0.0625
141
12.0
290
     0
  0
SCALE
  5
5D
102
{ACAD_REACTORS
330
47
102
}
330
47
100
AcDbScale
 70
     0
300
3/32" = 1'-0"
140
0.09375
141
12.0
290
     0
  0
SCALE
  5
5E
102
{ACAD_REACTORS
330
47
102
}
330
47
100
AcDbScale
 70
     0
300
1/8" = 1'-0"
140
0.125
141
12.0
290
     0
  0
SCALE
  5
5F
102
{ACAD_REACTORS
330
47
102
}
330
47
100
AcDbScale
 70
     0
300
3/16" = 1'-0"
140
0.1875
141
12.0
290
     0
  0
SCALE
  5
60
102
{ACAD_REACTORS
330
47
102
}
330
47
100
AcDbScale
 70
     0
300
1/4" = 1'-0"
140
0.25
141
12.0
290
     0
  0
SCALE
  5
61
102
{ACAD_REACTORS
330
47
102
}
330
47
100
AcDbScale
 70
     0
300
3/8" = 1'-0"
140
0.375
141
12.0
290
     0
  0
SCALE
  5
62
102
{ACAD_REACTORS
330
47
102
}
330
47
100
AcDbScale
 70
     0
300
1/2" = 1'-0"
140
0.5
141
12.0
290
     0
  0
SCALE
  5
63
102
{ACAD_REACTORS
330
47
102
}
330
47
100
AcDbScale
 70
     0
300
3/4" = 1'-0"
140
0.75
141
12.0
290
     0
  0
SCALE
  5
64
102
{ACAD_REACTORS
330
47
102
}
330
47
100
AcDbScale
 70
     0
300
1" = 1'-0"
140
1.0
141
12.0
290
     0
  0
SCALE
  5
65
102
{ACAD_REACTORS
330
47
102
}
330
47
100
AcDbScale
 70
     0
300
1-1/2" = 1'-0"
140
1.5
141
12.0
290
     0
  0
SCALE
  5
66
102
{ACAD_REACTORS
330
47
102
}
330
47
100
AcDbScale
 70
     0
300
3" = 1'-0"
140
3.0
141
12.0
290
     0
  0
SCALE
  5
67
102
{ACAD_REACTORS
330
47
102
}
330
47
100
AcDbScale
 70
     0
300
6" = 1'-0"
140
6.0
141
12.0
290
     0
  0
SCALE
  5
68
102
{ACAD_REACTORS
330
47
102
}
330
47
100
AcDbScale
 70
     0
300
1'-0" = 1'-0"
140
12.0
141
12.0
290
     0
  0
VISUALSTYLE
  5
2F
102
{ACAD_REACTORS
330
2A
102
}
330
2A
100
AcDbVisualStyle
  2
2dWireframe
 70
     4
177
     3
291
     0
 70
    58
 90
        0
176
     1
 90
        2
176
     1
 90
        0
176
     1
 90
        0
176
     1
 40
0.6
176
     1
 40
30.0
176
     1
 62
     7
420
 16777215
176
     1
 90
        1
176
     1
 90
        4
176
     1
 62
     7
176
     1
 62
   257
176
     1
 90
        1
176
     1
 90
        1
176
     1
 40
1.0
176
     1
 90
        0
176
     1
 62
   257
176
     1
 40
1.0
176
     1
 90
        1
176
     1
 90
        6
176
     1
 90
        2
176
     1
 62
     7
176
     1
 90
        5
176
     1
 90
        0
176
     1
 90
        0
176
     1
290
     0
176
     1
 90
        1
176
     1
 40
0.0
176
     1
 90
        0
176
     1
290
     1
176
     1
290
     1
176
     1
290
     0
176
     1
290
     0
176
     1
290
     0
176
     1
290
     0
176
     1
290
     0
176
     1
290
     0
176
     1
290
     0
176
     1
 90
       50
176
     1
 40
0.0
176
     1
 40
1.0
176
     1
 90
        0
176
     1
 62
    18
420
        0
176
     1
 90
       50
176
     1
 90
        3
176
     1
 62
     5
420
      255
176
     1
290
     0
176
     1
 90
       50
176
     1
 90
       50
176
     1
 90
       50
176
     1
290
     0
176
     1
 90
       50
176
     1
 62
   256
176
     0
 40
1.0
176
     0
 90
        2
176
     1
  1
strokes_ogs.tif
176
     1
290
     0
176
     1
 40
1.0
176
     1
 40
1.0
176
     1
  0
VISUALSTYLE
  5
32
102
{ACAD_REACTORS
330
2A
102
}
330
2A
100
AcDbVisualStyle
  2
Basic
 70
     7
177
     3
291
     1
 70
    58
 90
        1
176
     1
 90
        0
176
     1
 90
        1
176
     1
 90
        0
176
     1
 40
0.6
176
     1
 40
30.0
176
     1
 62
     7
420
 16777215
176
     1
 90
        0
176
     1
 90
        4
176
     1
 62
     7
176
     1
 62
   257
176
     1
 90
        1
176
     1
 90
        1
176
     1
 40
1.0
176
     1
 90
        8
176
     1
 62
     7
176
     1
 40
1.0
176
     1
 90
        1
176
     1
 90
        6
176
     1
 90
        2
176
     1
 62
     7
176
     1
 90
        5
176
     1
 90
        0
176
     1
 90
        0
176
     1
290
     0
176
     1
 90
        1
176
     1
 40
0.0
176
     1
 90
        0
176
     1
290
     0
176
     1
290
     1
176
     1
290
     1
176
     1
290
     0
176
     1
290
     0
176
     1
290
     0
176
     1
290
     0
176
     1
290
     0
176
     1
290
     0
176
     1
 90
       50
176
     1
 40
0.0
176
     1
 40
1.0
176
     1
 90
        0
176
     1
 62
    18
420
        0
176
     1
 90
       50
176
     1
 90
        3
176
     1
 62
     5
420
      255
176
     1
290
     0
176
     1
 90
       50
176
     1
 90
       50
176
     1
 90
       50
176
     1
290
     0
176
     1
 90
       50
176
     1
 62
   256
176
     0
 40
1.0
176
     0
 90
        2
176
     1
  1
strokes_ogs.tif
176
     1
290
     0
176
     1
 40
1.0
176
     1
 40
1.0
176
     1
  0
VISUALSTYLE
  5
36
102
{ACAD_REACTORS
330
2A
102
}
330
2A
100
AcDbVisualStyle
  2
Brighten
 70
    12
177
     3
291
     1
 70
    58
 90
        2
176
     1
 90
        2
176
     1
 90
        0
176
     1
 90
        0
176
     1
 40
0.6
176
     1
 40
30.0
176
     1
 62
     7
420
 16777215
176
     1
 90
        1
176
     1
 90
        4
176
     1
 62
     7
176
     1
 62
   257
176
     1
 90
        1
176
     1
 90
        1
176
     1
 40
1.0
176
     1
 90
        8
176
     1
 62
     7
176
     1
 40
1.0
176
     1
 90
        1
176
     1
 90
        6
176
     1
 90
        2
176
     1
 62
     7
176
     1
 90
        5
176
     1
 90
        0
176
     1
 90
        0
176
     1
290
     0
176
     1
 90
        1
176
     1
 40
50.0
176
     1
 90
        0
176
     1
290
     0
176
     1
290
     1
176
     1
290
     1
176
     1
290
     0
176
     1
290
     0
176
     1
290
     0
176
     1
290
     0
176
     1
290
     0
176
     1
290
     0
176
     1
 90
       50
176
     1
 40
0.0
176
     1
 40
1.0
176
     1
 90
        0
176
     1
 62
    18
420
        0
176
     1
 90
       50
176
     1
 90
        3
176
     1
 62
     5
420
      255
176
     1
290
     0
176
     1
 90
       50
176
     1
 90
       50
176
     1
 90
       50
176
     1
290
     0
176
     1
 90
       50
176
     1
 62
   256
176
     0
 40
1.0
176
     0
 90
        2
176
     1
  1
strokes_ogs.tif
176
     1
290
     0
176
     1
 40
1.0
176
     1
 40
1.0
176
     1
  0
VISUALSTYLE
  5
3A
102
{ACAD_REACTORS
330
2A
102
}
330
2A
100
AcDbVisualStyle
  2
ColorChange
 70
    16
177
     3
291
     1
 70
    58
 90
        2
176
     1
 90
        2
176
     1
 90
        3
176
     1
 90
        0
176
     1
 40
0.6
176
     1
 40
30.0
176
     1
 62
     8
420
  8421504
176
     1
 90
        1
176
     1
 90
        4
176
     1
 62
     7
176
     1
 62
   257
176
     1
 90
        1
176
     1
 90
        1
176
     1
 40
1.0
176
     1
 90
        8
176
     1
 62
     8
420
  8421504
176
     1
 40
1.0
176
     1
 90
        1
176
     1
 90
        6
176
     1
 90
        2
176
     1
 62
     7
176
     1
 90
        5
176
     1
 90
        0
176
     1
 90
        0
176
     1
290
     0
176
     1
 90
        1
176
     1
 40
0.0
176
     1
 90
        0
176
     1
290
     0
176
     1
290
     1
176
     1
290
     1
176
     1
290
     0
176
     1
290
     0
176
     1
290
     0
176
     1
290
     0
176
     1
290
     0
176
     1
290
     0
176
     1
 90
       50
176
     1
 40
0.0
176
     1
 40
1.0
176
     1
 90
        0
176
     1
 62
    18
420
        0
176
     1
 90
       50
176
     1
 90
        3
176
     1
 62
     5
420
      255
176
     1
290
     0
176
     1
 90
       50
176
     1
 90
       50
176
     1
 90
       50
176
     1
290
     0
176
     1
 90
       50
176
     1
 62
   256
176
     0
 40
1.0
176
     0
 90
        2
176
     1
  1
strokes_ogs.tif
176
     1
290
     0
176
     1
 40
1.0
176
     1
 40
1.0
176
     1
  0
VISUALSTYLE
  5
34
102
{ACAD_REACTORS
330
2A
102
}
330
2A
100
AcDbVisualStyle
  2
Conceptual
 70
     9
177
     3
291
     0
 70
    58
 90
        3
176
     1
 90
        2
176
     1
 90
        0
176
     1
 90
        0
176
     1
 40
0.6
176
     1
 40
30.0
176
     1
 62
     7
420
 16777215
176
     1
 90
        2
176
     1
 90
        2
176
     1
 62
     7
176
     1
 62
   257
176
     1
 90
        1
176
     1
 90
        1
176
     1
 40
179.0
176
     1
 90
        8
176
     1
 62
     7
176
     1
 40
1.0
176
     1
 90
        1
176
     1
 90
        6
176
     1
 90
        2
176
     1
 62
     7
176
     1
 90
        3
176
     1
 90
        0
176
     1
 90
        0
176
     1
290
     0
176
     1
 90
        1
176
     1
 40
0.0
176
     1
 90
        0
176
     1
290
     0
176
     1
290
     1
176
     1
290
     1
176
     1
290
     0
176
     1
290
     0
176
     1
290
     0
176
     1
290
     0
176
     1
290
     0
176
     1
290
     0
176
     1
 90
       50
176
     1
 40
0.0
176
     1
 40
1.0
176
     1
 90
        0
176
     1
 62
    18
420
        0
176
     1
 90
       50
176
     1
 90
        3
176
     1
 62
     5
420
      255
176
     1
290
     0
176
     1
 90
       50
176
     1
 90
       50
176
     1
 90
       50
176
     1
290
     0
176
     1
 90
       50
176
     1
 62
   256
176
     0
 40
1.0
176
     0
 90
        2
176
     1
  1
strokes_ogs.tif
176
     1
290
     0
176
     1
 40
1.0
176
     1
 40
1.0
176
     1
  0
VISUALSTYLE
  5
35
102
{ACAD_REACTORS
330
2A
102
}
330
2A
100
AcDbVisualStyle
  2
Dim
 70
    11
177
     3
291
     1
 70
    58
 90
        2
176
     1
 90
        2
176
     1
 90
        0
176
     1
 90
        0
176
     1
 40
0.6
176
     1
 40
30.0
176
     1
 62
     7
420
 16777215
176
     1
 90
        1
176
     1
 90
        4
176
     1
 62
     7
176
     1
 62
   257
176
     1
 90
        1
176
     1
 90
        1
176
     1
 40
1.0
176
     1
 90
        8
176
     1
 62
     7
176
     1
 40
1.0
176
     1
 90
        1
176
     1
 90
        6
176
     1
 90
        2
176
     1
 62
     7
176
     1
 90
        5
176
     1
 90
        0
176
     1
 90
        0
176
     1
290
     0
176
     1
 90
        1
176
     1
 40
-50.0
176
     1
 90
        0
176
     1
290
     0
176
     1
290
     1
176
     1
290
     1
176
     1
290
     0
176
     1
290
     0
176
     1
290
     0
176
     1
290
     0
176
     1
290
     0
176
     1
290
     0
176
     1
 90
       50
176
     1
 40
0.0
176
     1
 40
1.0
176
     1
 90
        0
176
     1
 62
    18
420
        0
176
     1
 90
       50
176
     1
 90
        3
176
     1
 62
     5
420
      255
176
     1
290
     0
176
     1
 90
       50
176
     1
 90
       50
176
     1
 90
       50
176
     1
290
     0
176
     1
 90
       50
176
     1
 62
   256
176
     0
 40
1.0
176
     0
 90
        2
176
     1
  1
strokes_ogs.tif
176
     1
290
     0
176
     1
 40
1.0
176
     1
 40
1.0
176
     1
  0
VISUALSTYLE
  5
3D
102
{ACAD_REACTORS
330
2A
102
}
330
2A
100
AcDbVisualStyle
  2
EdgeColorOff
 70
    22
177
     3
291
     1
 70
    58
 90
        2
176
     0
 90
        2
176
     0
 90
        0
176
     0
 90
        0
176
     0
 40
0.6
176
     0
 40
30.0
176
     0
 62
     7
420
 16777215
176
     0
 90
        1
176
     0
 90
        4
176
     0
 62
     7
176
     0
 62
   257
176
     0
 90
        1
176
     0
 90
        1
176
     0
 40
1.0
176
     0
 90
        8
176
     2
 62
     7
176
     0
 40
1.0
176
     0
 90
        1
176
     0
 90
        6
176
     0
 90
        2
176
     0
 62
     7
176
     0
 90
        5
176
     0
 90
        0
176
     0
 90
        0
176
     0
290
     0
176
     0
 90
        1
176
     0
 40
0.0
176
     0
 90
        0
176
     0
290
     0
176
     0
290
     1
176
     0
290
     1
176
     0
290
     0
176
     0
290
     0
176
     0
290
     0
176
     0
290
     0
176
     0
290
     0
176
     0
290
     0
176
     0
 90
       50
176
     0
 40
0.0
176
     0
 40
1.0
176
     0
 90
        0
176
     0
 62
    18
420
        0
176
     0
 90
       50
176
     0
 90
        3
176
     0
 62
     5
420
      255
176
     0
290
     0
176
     0
 90
       50
176
     0
 90
       50
176
     0
 90
       50
176
     0
290
     0
176
     0
 90
       50
176
     0
 62
   256
176
     0
 40
1.0
176
     0
 90
        2
176
     0
  1
strokes_ogs.tif
176
     0
290
     0
176
     0
 40
1.0
176
     0
 40
1.0
176
     0
  0
VISUALSTYLE
  5
39
102
{ACAD_REACTORS
330
2A
102
}
330
2A
100
AcDbVisualStyle
  2
Facepattern
 70
    15
177
     3
291
     1
 70
    58
 90
        2
176
     1
 90
        2
176
     1
 90
        0
176
     1
 90
        0
176
     1
 40
0.6
176
     1
 40
30.0
176
     1
 62
     7
420
 16777215
176
     1
 90
        1
176
     1
 90
        4
176
     1
 62
     7
176
     1
 62
   257
176
     1
 90
        1
176
     1
 90
        1
176
     1
 40
1.0
176
     1
 90
        8
176
     1
 62
     7
176
     1
 40
1.0
176
     1
 90
        1
176
     1
 90
        6
176
     1
 90
        2
176
     1
 62
     7
176
     1
 90
        5
176
     1
 90
        0
176
     1
 90
        0
176
     1
290
     0
176
     1
 90
        1
176
     1
 40
0.0
176
     1
 90
        0
176
     1
290
     0
176
     1
290
     1
176
     1
290
     1
176
     1
290
     0
176
     1
290
     0
176
     1
290
     0
176
     1
290
     0
176
     1
290
     0
176
     1
290
     0
176
     1
 90
       50
176
     1
 40
0.0
176
     1
 40
1.0
176
     1
 90
        0
176
     1
 62
    18
420
        0
176
     1
 90
       50
176
     1
 90
        3
176
     1
 62
     5
420
      255
176
     1
290
     0
176
     1
 90
       50
176
     1
 90
       50
176
     1
 90
       50
176
     1
290
     0
176
     1
 90
       50
176
     1
 62
   256
176
     0
 40
1.0
176
     0
 90
        2
176
     1
  1
strokes_ogs.tif
176
     1
290
     0
176
     1
 40
1.0
176
     1
 40
1.0
176
     1
  0
VISUALSTYLE
  5
2B
102
{ACAD_REACTORS
330
2A
102
}
330
2A
100
AcDbVisualStyle
  2
Flat
 70
     0
177
     3
291
     1
 70
    58
 90
        2
176
     1
 90
        1
176
     1
 90
        1
176
     1
 90
        2
176
     1
 40
0.6
176
     1
 40
30.0
176
     1
 62
     7
420
 16777215
176
     1
 90
        0
176
     1
 90
        0
176
     1
 62
     7
176
     1
 62
   257
176
     1
 90
        1
176
     1
 90
        1
176
     1
 40
1.0
176
     1
 90
        8
176
     1
 62
     7
176
     1
 40
1.0
176
     1
 90
        1
176
     1
 90
        6
176
     1
 90
        2
176
     1
 62
     7
176
     1
 90
        5
176
     1
 90
        0
176
     1
 90
        0
176
     1
290
     0
176
     1
 90
       13
176
     1
 40
0.0
176
     1
 90
        0
176
     1
290
     0
176
     1
290
     1
176
     1
290
     1
176
     1
290
     0
176
     1
290
     0
176
     1
290
     0
176
     1
290
     0
176
     1
290
     0
176
     1
290
     0
176
     1
 90
       50
176
     1
 40
0.0
176
     1
 40
1.0
176
     1
 90
        0
176
     1
 62
    18
420
        0
176
     1
 90
       50
176
     1
 90
        3
176
     1
 62
     5
420
      255
176
     1
290
     0
176
     1
 90
       50
176
     1
 90
       50
176
     1
 90
       50
176
     1
290
     0
176
     1
 90
       50
176
     1
 62
   256
176
     0
 40
1.0
176
     0
 90
        2
176
     1
  1
strokes_ogs.tif
176
     1
290
     0
176
     1
 40
1.0
176
     1
 40
1.0
176
     1
  0
VISUALSTYLE
  5
2C
102
{ACAD_REACTORS
330
2A
102
}
330
2A
100
AcDbVisualStyle
  2
FlatWithEdges
 70
     1
177
     3
291
     1
 70
    58
 90
        2
176
     1
 90
        1
176
     1
 90
        1
176
     1
 90
        2
176
     1
 40
0.6
176
     1
 40
30.0
176
     1
 62
     7
420
 16777215
176
     1
 90
        1
176
     1
 90
        0
176
     1
 62
     7
176
     1
 62
   257
176
     1
 90
        1
176
     1
 90
        1
176
     1
 40
1.0
176
     1
 90
        0
176
     1
 62
   257
176
     1
 40
1.0
176
     1
 90
        1
176
     1
 90
        6
176
     1
 90
        2
176
     1
 62
     7
176
     1
 90
        5
176
     1
 90
        0
176
     1
 90
        0
176
     1
290
     0
176
     1
 90
       13
176
     1
 40
0.0
176
     1
 90
        0
176
     1
290
     0
176
     1
290
     1
176
     1
290
     1
176
     1
290
     0
176
     1
290
     0
176
     1
290
     0
176
     1
290
     0
176
     1
290
     0
176
     1
290
     0
176
     1
 90
       50
176
     1
 40
0.0
176
     1
 40
1.0
176
     1
 90
        0
176
     1
 62
    18
420
        0
176
     1
 90
       50
176
     1
 90
        3
176
     1
 62
     5
420
      255
176
     1
290
     0
176
     1
 90
       50
176
     1
 90
       50
176
     1
 90
       50
176
     1
290
     0
176
     1
 90
       50
176
     1
 62
   256
176
     0
 40
1.0
176
     0
 90
        2
176
     1
  1
strokes_ogs.tif
176
     1
290
     0
176
     1
 40
1.0
176
     1
 40
1.0
176
     1
  0
VISUALSTYLE
  5
2D
102
{ACAD_REACTORS
330
2A
102
}
330
2A
100
AcDbVisualStyle
  2
Gouraud
 70
     2
177
     3
291
     1
 70
    58
 90
        2
176
     1
 90
        2
176
     1
 90
        1
176
     1
 90
        2
176
     1
 40
0.6
176
     1
 40
30.0
176
     1
 62
     7
420
 16777215
176
     1
 90
        0
176
     1
 90
        0
176
     1
 62
     7
176
     1
 62
   257
176
     1
 90
        1
176
     1
 90
        1
176
     1
 40
1.0
176
     1
 90
        0
176
     1
 62
     7
176
     1
 40
1.0
176
     1
 90
        1
176
     1
 90
        6
176
     1
 90
        2
176
     1
 62
     7
176
     1
 90
        5
176
     1
 90
        0
176
     1
 90
        0
176
     1
290
     0
176
     1
 90
       13
176
     1
 40
0.0
176
     1
 90
        0
176
     1
290
     0
176
     1
290
     1
176
     1
290
     1
176
     1
290
     0
176
     1
290
     0
176
     1
290
     0
176
     1
290
     0
176
     1
290
     0
176
     1
290
     0
176
     1
 90
       50
176
     1
 40
0.0
176
     1
 40
1.0
176
     1
 90
        0
176
     1
 62
    18
420
        0
176
     1
 90
       50
176
     1
 90
        3
176
     1
 62
     5
420
      255
176
     1
290
     0
176
     1
 90
       50
176
     1
 90
       50
176
     1
 90
       50
176
     1
290
     0
176
     1
 90
       50
176
     1
 62
   256
176
     0
 40
1.0
176
     0
 90
        2
176
     1
  1
strokes_ogs.tif
176
     1
290
     0
176
     1
 40
1.0
176
     1
 40
1.0
176
     1
  0
VISUALSTYLE
  5
2E
102
{ACAD_REACTORS
330
2A
102
}
330
2A
100
AcDbVisualStyle
  2
GouraudWithEdges
 70
     3
177
     3
291
     1
 70
    58
 90
        2
176
     1
 90
        2
176
     1
 90
        1
176
     1
 90
        2
176
     1
 40
0.6
176
     1
 40
30.0
176
     1
 62
     7
420
 16777215
176
     1
 90
        1
176
     1
 90
        0
176
     1
 62
     7
176
     1
 62
   257
176
     1
 90
        1
176
     1
 90
        1
176
     1
 40
1.0
176
     1
 90
        0
176
     1
 62
   257
176
     1
 40
1.0
176
     1
 90
        1
176
     1
 90
        6
176
     1
 90
        2
176
     1
 62
     7
176
     1
 90
        5
176
     1
 90
        0
176
     1
 90
        0
176
     1
290
     0
176
     1
 90
       13
176
     1
 40
0.0
176
     1
 90
        0
176
     1
290
     0
176
     1
290
     1
176
     1
290
     1
176
     1
290
     0
176
     1
290
     0
176
     1
290
     0
176
     1
290
     0
176
     1
290
     0
176
     1
290
     0
176
     1
 90
       50
176
     1
 40
0.0
176
     1
 40
1.0
176
     1
 90
        0
176
     1
 62
    18
420
        0
176
     1
 90
       50
176
     1
 90
        3
176
     1
 62
     5
420
      255
176
     1
290
     0
176
     1
 90
       50
176
     1
 90
       50
176
     1
 90
       50
176
     1
290
     0
176
     1
 90
       50
176
     1
 62
   256
176
     0
 40
1.0
176
     0
 90
        2
176
     1
  1
strokes_ogs.tif
176
     1
290
     0
176
     1
 40
1.0
176
     1
 40
1.0
176
     1
  0
VISUALSTYLE
  5
31
102
{ACAD_REACTORS
330
2A
102
}
330
2A
100
AcDbVisualStyle
  2
Hidden
 70
     6
177
     3
291
     0
 70
    58
 90
        1
176
     1
 90
        2
176
     1
 90
        2
176
     1
 90
        0
176
     1
 40
0.6
176
     1
 40
30.0
176
     1
 62
     7
420
 16777215
176
     1
 90
        2
176
     1
 90
        2
176
     1
 62
     7
176
     1
 62
   257
176
     1
 90
        2
176
     1
 90
        1
176
     1
 40
40.0
176
     1
 90
        0
176
     1
 62
   257
176
     1
 40
1.0
176
     1
 90
        1
176
     1
 90
        6
176
     1
 90
        2
176
     1
 62
     7
176
     1
 90
        3
176
     1
 90
        0
176
     1
 90
        0
176
     1
290
     0
176
     1
 90
        1
176
     1
 40
0.0
176
     1
 90
        0
176
     1
290
     0
176
     1
290
     1
176
     1
290
     1
176
     1
290
     0
176
     1
290
     0
176
     1
290
     0
176
     1
290
     0
176
     1
290
     0
176
     1
290
     0
176
     1
 90
       50
176
     1
 40
0.0
176
     1
 40
1.0
176
     1
 90
        0
176
     1
 62
    18
420
        0
176
     1
 90
       50
176
     1
 90
        3
176
     1
 62
     5
420
      255
176
     1
290
     0
176
     1
 90
       50
176
     1
 90
       50
176
     1
 90
       50
176
     1
290
     0
176
     1
 90
       50
176
     1
 62
   256
176
     0
 40
1.0
176
     0
 90
        2
176
     1
  1
strokes_ogs.tif
176
     1
290
     0
176
     1
 40
1.0
176
     1
 40
1.0
176
     1
  0
VISUALSTYLE
  5
3B
102
{ACAD_REACTORS
330
2A
102
}
330
2A
100
AcDbVisualStyle
  2
JitterOff
 70
    20
177
     3
291
     1
 70
    58
 90
        2
176
     0
 90
        2
176
     0
 90
        0
176
     0
 90
        0
176
     0
 40
0.6
176
     0
 40
30.0
176
     0
 62
     7
420
 16777215
176
     0
 90
        1
176
     0
 90
        4
176
     0
 62
     7
176
     0
 62
   257
176
     0
 90
        1
176
     0
 90
        1
176
     0
 40
1.0
176
     0
 90
       10
176
     2
 62
     7
176
     0
 40
1.0
176
     0
 90
        1
176
     0
 90
        6
176
     0
 90
        2
176
     0
 62
     7
176
     0
 90
        5
176
     0
 90
        0
176
     0
 90
        0
176
     0
290
     0
176
     0
 90
        1
176
     0
 40
0.0
176
     0
 90
        0
176
     0
290
     0
176
     0
290
     1
176
     0
290
     1
176
     0
290
     0
176
     0
290
     0
176
     0
290
     0
176
     0
290
     0
176
     0
290
     0
176
     0
290
     0
176
     0
 90
       50
176
     0
 40
0.0
176
     0
 40
1.0
176
     0
 90
        0
176
     0
 62
    18
420
        0
176
     0
 90
       50
176
     0
 90
        3
176
     0
 62
     5
420
      255
176
     0
290
     0
176
     0
 90
       50
176
     0
 90
       50
176
     0
 90
       50
176
     0
290
     0
176
     0
 90
       50
176
     0
 62
   256
176
     0
 40
1.0
176
     0
 90
        2
176
     0
  1
strokes_ogs.tif
176
     0
290
     0
176
     0
 40
1.0
176
     0
 40
1.0
176
     0
  0
VISUALSTYLE
  5
38
102
{ACAD_REACTORS
330
2A
102
}
330
2A
100
AcDbVisualStyle
  2
Linepattern
 70
    14
177
     3
291
     1
 70
    58
 90
        2
176
     1
 90
        2
176
     1
 90
        0
176
     1
 90
        0
176
     1
 40
0.6
176
     1
 40
30.0
176
     1
 62
     7
420
 16777215
176
     1
 90
        1
176
     1
 90
        4
176
     1
 62
     7
176
     1
 62
   257
176
     1
 90
        7
176
     1
 90
        7
176
     1
 40
1.0
176
     1
 90
        8
176
     1
 62
     7
176
     1
 40
1.0
176
     1
 90
        1
176
     1
 90
        6
176
     1
 90
        2
176
     1
 62
     7
176
     1
 90
        5
176
     1
 90
        0
176
     1
 90
        0
176
     1
290
     0
176
     1
 90
        1
176
     1
 40
0.0
176
     1
 90
        0
176
     1
290
     0
176
     1
290
     1
176
     1
290
     1
176
     1
290
     0
176
     1
290
     0
176
     1
290
     0
176
     1
290
     0
176
     1
290
     0
176
     1
290
     0
176
     1
 90
       50
176
     1
 40
0.0
176
     1
 40
1.0
176
     1
 90
        0
176
     1
 62
    18
420
        0
176
     1
 90
       50
176
     1
 90
        3
176
     1
 62
     5
420
      255
176
     1
290
     0
176
     1
 90
       50
176
     1
 90
       50
176
     1
 90
       50
176
     1
290
     0
176
     1
 90
       50
176
     1
 62
   256
176
     0
 40
1.0
176
     0
 90
        2
176
     1
  1
strokes_ogs.tif
176
     1
290
     0
176
     1
 40
1.0
176
     1
 40
1.0
176
     1
  0
VISUALSTYLE
  5
3C
102
{ACAD_REACTORS
330
2A
102
}
330
2A
100
AcDbVisualStyle
  2
OverhangOff
 70
    21
177
     3
291
     1
 70
    58
 90
        2
176
     0
 90
        2
176
     0
 90
        0
176
     0
 90
        0
176
     0
 40
0.6
176
     0
 40
30.0
176
     0
 62
     7
420
 16777215
176
     0
 90
        1
176
     0
 90
        4
176
     0
 62
     7
176
     0
 62
   257
176
     0
 90
        1
176
     0
 90
        1
176
     0
 40
1.0
176
     0
 90
        9
176
     2
 62
     7
176
     0
 40
1.0
176
     0
 90
        1
176
     0
 90
        6
176
     0
 90
        2
176
     0
 62
     7
176
     0
 90
        5
176
     0
 90
        0
176
     0
 90
        0
176
     0
290
     0
176
     0
 90
        1
176
     0
 40
0.0
176
     0
 90
        0
176
     0
290
     0
176
     0
290
     1
176
     0
290
     1
176
     0
290
     0
176
     0
290
     0
176
     0
290
     0
176
     0
290
     0
176
     0
290
     0
176
     0
290
     0
176
     0
 90
       50
176
     0
 40
0.0
176
     0
 40
1.0
176
     0
 90
        0
176
     0
 62
    18
420
        0
176
     0
 90
       50
176
     0
 90
        3
176
     0
 62
     5
420
      255
176
     0
290
     0
176
     0
 90
       50
176
     0
 90
       50
176
     0
 90
       50
176
     0
290
     0
176
     0
 90
       50
176
     0
 62
   256
176
     0
 40
1.0
176
     0
 90
        2
176
     0
  1
strokes_ogs.tif
176
     0
290
     0
176
     0
 40
1.0
176
     0
 40
1.0
176
     0
  0
VISUALSTYLE
  5
33
102
{ACAD_REACTORS
330
2A
102
}
330
2A
100
AcDbVisualStyle
  2
Realistic
 70
     8
177
     3
291
     0
 70
    58
 90
        2
176
     1
 90
        3
176
     1
 90
        0
176
     1
 90
        2
176
     1
 40
0.6
176
     1
 40
30.0
176
     1
 62
     7
420
 16777215
176
     1
 90
        0
176
     1
 90
        0
176
     1
 62
     7
176
     1
 62
   257
176
     1
 90
        1
176
     1
 90
        1
176
     1
 40
1.0
176
     1
 90
        8
176
     1
 62
   257
176
     1
 40
1.0
176
     1
 90
        1
176
     1
 90
        6
176
     1
 90
        2
176
     1
 62
     7
176
     1
 90
        3
176
     1
 90
        0
176
     1
 90
        0
176
     1
290
     0
176
     1
 90
       13
176
     1
 40
0.0
176
     1
 90
        0
176
     1
290
     0
176
     1
290
     1
176
     1
290
     1
176
     1
290
     0
176
     1
290
     0
176
     1
290
     0
176
     1
290
     0
176
     1
290
     0
176
     1
290
     0
176
     1
 90
       50
176
     1
 40
0.0
176
     1
 40
1.0
176
     1
 90
        0
176
     1
 62
    18
420
        0
176
     1
 90
       50
176
     1
 90
        3
176
     1
 62
     5
420
      255
176
     1
290
     0
176
     1
 90
       50
176
     1
 90
       50
176
     1
 90
       50
176
     1
290
     0
176
     1
 90
       50
176
     1
 62
   256
176
     0
 40
1.0
176
     0
 90
        2
176
     1
  1
strokes_ogs.tif
176
     1
290
     0
176
     1
 40
1.0
176
     1
 40
1.0
176
     1
  0
VISUALSTYLE
  5
42
102
{ACAD_REACTORS
330
2A
102
}
330
2A
100
AcDbVisualStyle
  2
Shaded
 70
    27
177
     3
291
     0
 70
    58
 90
        2
176
     1
 90
        2
176
     1
 90
        1
176
     1
 90
        2
176
     1
 40
0.6
176
     1
 40
30.0
176
     1
 62
     7
420
 16777215
176
     1
 90
        0
176
     1
 90
        4
176
     1
 62
     7
176
     1
 62
   257
176
     1
 90
        1
176
     1
 90
        1
176
     1
 40
1.0
176
     1
 90
        8
176
     1
 62
   257
176
     1
 40
1.0
176
     1
 90
        1
176
     1
 90
        6
176
     1
 90
        2
176
     1
 62
     8
420
  7895160
176
     1
 90
        3
176
     1
 90
        0
176
     1
 90
        0
176
     1
290
     0
176
     1
 90
        5
176
     1
 40
0.0
176
     1
 90
        0
176
     1
290
     0
176
     1
290
     1
176
     1
290
     1
176
     1
290
     0
176
     1
290
     0
176
     1
290
     0
176
     1
290
     0
176
     1
290
     0
176
     1
290
     0
176
     1
 90
       50
176
     1
 40
0.0
176
     1
 40
1.0
176
     1
 90
        0
176
     1
 62
    18
420
        0
176
     1
 90
       50
176
     1
 90
        3
176
     1
 62
     5
420
      255
176
     1
290
     0
176
     1
 90
       50
176
     1
 90
       50
176
     1
 90
       50
176
     1
290
     0
176
     1
 90
       50
176
     1
 62
   256
176
     0
 40
1.0
176
     0
 90
        2
176
     1
  1
strokes_ogs.tif
176
     1
290
     0
176
     1
 40
1.0
176
     1
 40
1.0
176
     1
  0
VISUALSTYLE
  5
41
102
{ACAD_REACTORS
330
2A
102
}
330
2A
100
AcDbVisualStyle
  2
Shaded with edges
 70
    26
177
     3
291
     0
 70
    58
 90
        2
176
     1
 90
        2
176
     1
 90
        1
176
     1
 90
        2
176
     1
 40
0.6
176
     1
 40
30.0
176
     1
 62
     7
420
 16777215
176
     1
 90
        1
176
     1
 90
       10
176
     1
 62
     7
176
     1
 62
   257
176
     1
 90
        2
176
     1
 90
        1
176
     1
 40
1.0
176
     1
 90
        8
176
     1
 62
   257
176
     1
 40
1.0
176
     1
 90
        1
176
     1
 90
        6
176
     1
 90
        2
176
     1
 62
     7
176
     1
 90
        3
176
     1
 90
        0
176
     1
 90
        0
176
     1
290
     0
176
     1
 90
        5
176
     1
 40
0.0
176
     1
 90
        0
176
     1
290
     0
176
     1
290
     1
176
     1
290
     1
176
     1
290
     0
176
     1
290
     0
176
     1
290
     0
176
     1
290
     0
176
     1
290
     0
176
     1
290
     0
176
     1
 90
       50
176
     1
 40
0.0
176
     1
 40
1.0
176
     1
 90
        0
176
     1
 62
    18
420
        0
176
     1
 90
       50
176
     1
 90
        3
176
     1
 62
     5
420
      255
176
     1
290
     0
176
     1
 90
       50
176
     1
 90
       50
176
     1
 90
       50
176
     1
290
     0
176
     1
 90
       50
176
     1
 62
   256
176
     0
 40
1.0
176
     0
 90
        2
176
     1
  1
strokes_ogs.tif
176
     1
290
     0
176
     1
 40
1.0
176
     1
 40
1.0
176
     1
  0
VISUALSTYLE
  5
3E
102
{ACAD_REACTORS
330
2A
102
}
330
2A
100
AcDbVisualStyle
  2
Shades of Gray
 70
    23
177
     3
291
     0
 70
    58
 90
        2
176
     1
 90
        2
176
     1
 90
        3
176
     1
 90
        0
176
     1
 40
0.6
176
     1
 40
30.0
176
     1
 62
     7
420
 16777215
176
     1
 90
        2
176
     1
 90
        2
176
     1
 62
     7
176
     1
 62
     7
176
     1
 90
        1
176
     1
 90
        1
176
     1
 40
40.0
176
     1
 90
        8
176
     1
 62
     7
176
     1
 40
1.0
176
     1
 90
        1
176
     1
 90
        6
176
     1
 90
        2
176
     1
 62
     7
176
     1
 90
        3
176
     1
 90
        0
176
     1
 90
        0
176
     1
290
     0
176
     1
 90
        1
176
     1
 40
0.0
176
     1
 90
        0
176
     1
290
     0
176
     1
290
     1
176
     1
290
     1
176
     1
290
     0
176
     1
290
     0
176
     1
290
     0
176
     1
290
     0
176
     1
290
     0
176
     1
290
     0
176
     1
 90
       50
176
     1
 40
0.0
176
     1
 40
1.0
176
     1
 90
        0
176
     1
 62
    18
420
        0
176
     1
 90
       50
176
     1
 90
        3
176
     1
 62
     5
420
      255
176
     1
290
     0
176
     1
 90
       50
176
     1
 90
       50
176
     1
 90
       50
176
     1
290
     0
176
     1
 90
       50
176
     1
 62
   256
176
     0
 40
1.0
176
     0
 90
        2
176
     1
  1
strokes_ogs.tif
176
     1
290
     0
176
     1
 40
1.0
176
     1
 40
1.0
176
     1
  0
VISUALSTYLE
  5
3F
102
{ACAD_REACTORS
330
2A
102
}
330
2A
100
AcDbVisualStyle
  2
Sketchy
 70
    24
177
     3
291
     0
 70
    58
 90
        1
176
     1
 90
        2
176
     1
 90
        2
176
     1
 90
        0
176
     1
 40
0.6
176
     1
 40
30.0
176
     1
 62
     7
420
 16777215
176
     1
 90
        2
176
     1
 90
        2
176
     1
 62
     7
176
     1
 62
     7
176
     1
 90
        1
176
     1
 90
        1
176
     1
 40
40.0
176
     1
 90
       11
176
     1
 62
     7
176
     1
 40
1.0
176
     1
 90
        1
176
     1
 90
        6
176
     1
 90
        2
176
     1
 62
     7
176
     1
 90
        6
176
     1
 90
        0
176
     1
 90
        0
176
     1
290
     0
176
     1
 90
        1
176
     1
 40
0.0
176
     1
 90
        0
176
     1
290
     0
176
     1
290
     1
176
     1
290
     1
176
     1
290
     0
176
     1
290
     0
176
     1
290
     0
176
     1
290
     0
176
     1
290
     0
176
     1
290
     0
176
     1
 90
       50
176
     1
 40
0.0
176
     1
 40
1.0
176
     1
 90
        0
176
     1
 62
    18
420
        0
176
     1
 90
       50
176
     1
 90
        3
176
     1
 62
     5
420
      255
176
     1
290
     0
176
     1
 90
       50
176
     1
 90
       50
176
     1
 90
       50
176
     1
290
     0
176
     1
 90
       50
176
     1
 62
   256
176
     0
 40
1.0
176
     0
 90
        2
176
     1
  1
strokes_ogs.tif
176
     1
290
     0
176
     1
 40
1.0
176
     1
 40
1.0
176
     1
  0
VISUALSTYLE
  5
37
102
{ACAD_REACTORS
330
2A
102
}
330
2A
100
AcDbVisualStyle
  2
Thicken
 70
    13
177
     3
291
     1
 70
    58
 90
        2
176
     1
 90
        2
176
     1
 90
        0
176
     1
 90
        0
176
     1
 40
0.6
176
     1
 40
30.0
176
     1
 62
     7
420
 16777215
176
     1
 90
        1
176
     1
 90
        4
176
     1
 62
     7
176
     1
 62
   257
176
     1
 90
        1
176
     1
 90
        1
176
     1
 40
1.0
176
     1
 90
       12
176
     1
 62
     7
176
     1
 40
1.0
176
     1
 90
        1
176
     1
 90
        6
176
     1
 90
        2
176
     1
 62
     7
176
     1
 90
        5
176
     1
 90
        0
176
     1
 90
        0
176
     1
290
     0
176
     1
 90
        1
176
     1
 40
0.0
176
     1
 90
        0
176
     1
290
     0
176
     1
290
     1
176
     1
290
     1
176
     1
290
     0
176
     1
290
     0
176
     1
290
     0
176
     1
290
     0
176
     1
290
     0
176
     1
290
     0
176
     1
 90
       50
176
     1
 40
0.0
176
     1
 40
1.0
176
     1
 90
        0
176
     1
 62
    18
420
        0
176
     1
 90
       50
176
     1
 90
        3
176
     1
 62
     5
420
      255
176
     1
290
     0
176
     1
 90
       50
176
     1
 90
       50
176
     1
 90
       50
176
     1
290
     0
176
     1
 90
       50
176
     1
 62
   256
176
     0
 40
1.0
176
     0
 90
        2
176
     1
  1
strokes_ogs.tif
176
     1
290
     0
176
     1
 40
1.0
176
     1
 40
1.0
176
     1
  0
VISUALSTYLE
  5
30
102
{ACAD_REACTORS
330
2A
102
}
330
2A
100
AcDbVisualStyle
  2
Wireframe
 70
     5
177
     3
291
     0
 70
    58
 90
        0
176
     1
 90
        2
176
     1
 90
        0
176
     1
 90
        0
176
     1
 40
0.6
176
     1
 40
30.0
176
     1
 62
     7
420
 16777215
176
     1
 90
        1
176
     1
 90
        4
176
     1
 62
     7
176
     1
 62
   257
176
     1
 90
        1
176
     1
 90
        1
176
     1
 40
1.0
176
     1
 90
        0
176
     1
 62
   257
176
     1
 40
1.0
176
     1
 90
        1
176
     1
 90
        6
176
     1
 90
        2
176
     1
 62
     7
176
     1
 90
        3
176
     1
 90
        0
176
     1
 90
        0
176
     1
290
     0
176
     1
 90
        1
176
     1
 40
0.0
176
     1
 90
        0
176
     1
290
     0
176
     1
290
     1
176
     1
290
     1
176
     1
290
     0
176
     1
290
     0
176
     1
290
     0
176
     1
290
     0
176
     1
290
     0
176
     1
290
     0
176
     1
 90
       50
176
     1
 40
0.0
176
     1
 40
1.0
176
     1
 90
        0
176
     1
 62
    18
420
        0
176
     1
 90
       50
176
     1
 90
        3
176
     1
 62
     5
420
      255
176
     1
290
     0
176
     1
 90
       50
176
     1
 90
       50
176
     1
 90
       50
176
     1
290
     0
176
     1
 90
       50
176
     1
 62
   256
176
     0
 40
1.0
176
     0
 90
        2
176
     1
  1
strokes_ogs.tif
176
     1
290
     0
176
     1
 40
1.0
176
     1
 40
1.0
176
     1
  0
VISUALSTYLE
  5
40
102
{ACAD_REACTORS
330
2A
102
}
330
2A
100
AcDbVisualStyle
  2
X-Ray
 70
    25
177
     3
291
     0
 70
    58
 90
        2
176
     1
 90
        2
176
     1
 90
        1
176
     1
 90
        1
176
     1
 40
0.5
176
     1
 40
30.0
176
     1
 62
     7
420
 16777215
176
     1
 90
        1
176
     1
 90
        0
176
     1
 62
     7
176
     1
 62
   257
176
     1
 90
        1
176
     1
 90
        1
176
     1
 40
1.0
176
     1
 90
        8
176
     1
 62
     7
176
     1
 40
1.0
176
     1
 90
        1
176
     1
 90
        6
176
     1
 90
        2
176
     1
 62
     7
176
     1
 90
        3
176
     1
 90
        0
176
     1
 90
        0
176
     1
290
     0
176
     1
 90
       13
176
     1
 40
0.0
176
     1
 90
        0
176
     1
290
     0
176
     1
290
     1
176
     1
290
     1
176
     1
290
     0
176
     1
290
     0
176
     1
290
     0
176
     1
290
     0
176
     1
290
     0
176
     1
290
     0
176
     1
 90
       50
176
     1
 40
0.0
176
     1
 40
1.0
176
     1
 90
        0
176
     1
 62
    18
420
        0
176
     1
 90
       50
176
     1
 90
        3
176
     1
 62
     5
420
      255
176
     1
290
     0
176
     1
 90
       50
176
     1
 90
       50
176
     1
 90
       50
176
     1
290
     0
176
     1
 90
       50
176
     1
 62
   256
176
     0
 40
1.0
176
     0
 90
        2
176
     1
  1
strokes_ogs.tif
176
     1
290
     0
176
     1
 40
1.0
176
     1
 40
1.0
176
     1
  0
DICTIONARYVAR
  5
348
102
{ACAD_REACTORS
330
347
102
}
330
347
100
DictionaryVariables
280
     0
  1
1:1
  0
ENDSEC
  0
EOF
