  0
SECTION
  2
HEADER
  9
$ACADVER
  1
AC1027
  9
$ACADMAINTVER
 70
     8
  9
$DWGCODEPAGE
  3
ANSI_932
  9
$REQUIREDVERSIONS
160
                 0
  9
$INSBASE
 10
0.0
 20
0.0
 30
0.0
  9
$EXTMIN
 10
40.99999999999999
 20
24.03366790327755
 30
0.0
  9
$EXTMAX
 10
403.0
 20
570.0336679032775
 30
0.0
  9
$LIMMIN
 10
0.0
 20
0.0
  9
$LIMMAX
 10
210.0
 20
297.0
  9
$ORTHOMODE
 70
     0
  9
$REGENMODE
 70
     1
  9
$FILLMODE
 70
     1
  9
$QTEXTMODE
 70
     0
  9
$MIRRTEXT
 70
     1
  9
$LTSCALE
 40
0.5
  9
$ATTMODE
 70
     1
  9
$TEXTSIZE
 40
6.6
  9
$TRACEWID
 40
0.05
  9
$TEXTSTYLE
  7
Standard
  9
$CLAYER
  8
0
  9
$CELTYPE
  6
ByLayer
  9
$CECOLOR
 62
   256
  9
$CELTSCALE
 40
1.0
  9
$DISPSILH
 70
     0
  9
$DIMSCALE
 40
1.0
  9
$DIMASZ
 40
2.3
  9
$DIMEXO
 40
1.0
  9
$DIMDLI
 40
10.0
  9
$DIMRND
 40
0.0
  9
$DIMDLE
 40
0.0
  9
$DIMEXE
 40
1.0
  9
$DIMTP
 40
0.0
  9
$DIMTM
 40
0.0
  9
$DIMTXT
 40
3.3
  9
$DIMCEN
 40
0.09
  9
$DIMTSZ
 40
0.0
  9
$DIMTOL
 70
     0
  9
$DIMLIM
 70
     0
  9
$DIMTIH
 70
     0
  9
$DIMTOH
 70
     0
  9
$DIMSE1
 70
     0
  9
$DIMSE2
 70
     0
  9
$DIMTAD
 70
     3
  9
$DIMZIN
 70
     8
  9
$DIMBLK
  1

  9
$DIMASO
 70
     1
  9
$DIMSHO
 70
     1
  9
$DIMPOST
  1

  9
$DIMAPOST
  1

  9
$DIMALT
 70
     0
  9
$DIMALTD
 70
     2
  9
$DIMALTF
 40
25.4
  9
$DIMLFAC
 40
1.0
  9
$DIMTOFL
 70
     1
  9
$DIMTVP
 40
0.7
  9
$DIMTIX
 70
     0
  9
$DIMSOXD
 70
     0
  9
$DIMSAH
 70
     0
  9
$DIMBLK1
  1

  9
$DIMBLK2
  1

  9
$DIMSTYLE
  2
Standard
  9
$DIMCLRD
 70
     0
  9
$DIMCLRE
 70
     0
  9
$DIMCLRT
 70
     0
  9
$DIMTFAC
 40
0.5
  9
$DIMGAP
 40
0.09
  9
$DIMJUST
 70
     0
  9
$DIMSD1
 70
     0
  9
$DIMSD2
 70
     0
  9
$DIMTOLJ
 70
     1
  9
$DIMTZIN
 70
     8
  9
$DIMALTZ
 70
     0
  9
$DIMALTTZ
 70
     0
  9
$DIMUPT
 70
     1
  9
$DIMDEC
 70
     1
  9
$DIMTDEC
 70
     4
  9
$DIMALTU
 70
     2
  9
$DIMALTTD
 70
     2
  9
$DIMTXSTY
  7
Standard
  9
$DIMAUNIT
 70
     0
  9
$DIMADEC
 70
     0
  9
$DIMALTRND
 40
0.0
  9
$DIMAZIN
 70
     0
  9
$DIMDSEP
 70
    46
  9
$DIMATFIT
 70
     2
  9
$DIMFRAC
 70
     0
  9
$DIMLDRBLK
  1

  9
$DIMLUNIT
 70
     2
  9
$DIMLWD
 70
    -2
  9
$DIMLWE
 70
    -2
  9
$DIMTMOVE
 70
     2
  9
$DIMFXL
 40
1.0
  9
$DIMFXLON
 70
     0
  9
$DIMJOGANG
 40
0.7853981633974483
  9
$DIMTFILL
 70
     0
  9
$DIMTFILLCLR
 70
     0
  9
$DIMARCSYM
 70
     0
  9
$DIMLTYPE
  6

  9
$DIMLTEX1
  6

  9
$DIMLTEX2
  6

  9
$DIMTXTDIRECTION
 70
     0
  9
$LUNITS
 70
     2
  9
$LUPREC
 70
     4
  9
$SKETCHINC
 40
0.1
  9
$FILLETRAD
 40
0.5
  9
$AUNITS
 70
     0
  9
$AUPREC
 70
     0
  9
$MENU
  1
.
  9
$ELEVATION
 40
0.0
  9
$PELEVATION
 40
0.0
  9
$THICKNESS
 40
0.0
  9
$LIMCHECK
 70
     0
  9
$CHAMFERA
 40
0.0
  9
$CHAMFERB
 40
0.0
  9
$CHAMFERC
 40
0.0
  9
$CHAMFERD
 40
0.0
  9
$SKPOLY
 70
     0
  9
$TDCREATE
 40
2458653.080428241
  9
$TDUCREATE
 40
2458652.705428241
  9
$TDUPDATE
 40
2458652.705437697
  9
$TDUUPDATE
 40
2458652.330437697
  9
$TDINDWG
 40
0.0000000116
  9
$TDUSRTIMER
 40
0.0000000116
  9
$USRTIMER
 70
     1
  9
$ANGBASE
 50
0.0
  9
$ANGDIR
 70
     0
  9
$PDMODE
 70
     0
  9
$PDSIZE
 40
0.0
  9
$PLINEWID
 40
0.0
  9
$SPLFRAME
 70
     0
  9
$SPLINETYPE
 70
     6
  9
$SPLINESEGS
 70
     8
  9
$HANDSEED
  5
412
  9
$SURFTAB1
 70
     6
  9
$SURFTAB2
 70
     6
  9
$SURFTYPE
 70
     6
  9
$SURFU
 70
     6
  9
$SURFV
 70
     6
  9
$UCSBASE
  2

  9
$UCSNAME
  2

  9
$UCSORG
 10
0.0
 20
0.0
 30
0.0
  9
$UCSXDIR
 10
1.0
 20
0.0
 30
0.0
  9
$UCSYDIR
 10
0.0
 20
1.0
 30
0.0
  9
$UCSORTHOREF
  2

  9
$UCSORTHOVIEW
 70
     0
  9
$UCSORGTOP
 10
0.0
 20
0.0
 30
0.0
  9
$UCSORGBOTTOM
 10
0.0
 20
0.0
 30
0.0
  9
$UCSORGLEFT
 10
0.0
 20
0.0
 30
0.0
  9
$UCSORGRIGHT
 10
0.0
 20
0.0
 30
0.0
  9
$UCSORGFRONT
 10
0.0
 20
0.0
 30
0.0
  9
$UCSORGBACK
 10
0.0
 20
0.0
 30
0.0
  9
$PUCSBASE
  2

  9
$PUCSNAME
  2

  9
$PUCSORG
 10
0.0
 20
0.0
 30
0.0
  9
$PUCSXDIR
 10
1.0
 20
0.0
 30
0.0
  9
$PUCSYDIR
 10
0.0
 20
1.0
 30
0.0
  9
$PUCSORTHOREF
  2

  9
$PUCSORTHOVIEW
 70
     0
  9
$PUCSORGTOP
 10
0.0
 20
0.0
 30
0.0
  9
$PUCSORGBOTTOM
 10
0.0
 20
0.0
 30
0.0
  9
$PUCSORGLEFT
 10
0.0
 20
0.0
 30
0.0
  9
$PUCSORGRIGHT
 10
0.0
 20
0.0
 30
0.0
  9
$PUCSORGFRONT
 10
0.0
 20
0.0
 30
0.0
  9
$PUCSORGBACK
 10
0.0
 20
0.0
 30
0.0
  9
$USERI1
 70
     0
  9
$USERI2
 70
     0
  9
$USERI3
 70
     0
  9
$USERI4
 70
     0
  9
$USERI5
 70
     0
  9
$USERR1
 40
0.0
  9
$USERR2
 40
0.0
  9
$USERR3
 40
0.0
  9
$USERR4
 40
0.0
  9
$USERR5
 40
0.0
  9
$WORLDVIEW
 70
     1
  9
$SHADEDGE
 70
     3
  9
$SHADEDIF
 70
    70
  9
$TILEMODE
 70
     1
  9
$MAXACTVP
 70
    64
  9
$PINSBASE
 10
0.0
 20
0.0
 30
0.0
  9
$PLIMCHECK
 70
     0
  9
$PEXTMIN
 10
0.0
 20
0.0
 30
0.0
  9
$PEXTMAX
 10
210.0
 20
297.0
 30
0.0
  9
$PLIMMIN
 10
0.0
 20
0.0
  9
$PLIMMAX
 10
210.0
 20
297.0
  9
$UNITMODE
 70
     0
  9
$VISRETAIN
 70
     1
  9
$PLINEGEN
 70
     0
  9
$PSLTSCALE
 70
     1
  9
$TREEDEPTH
 70
  3020
  9
$CMLSTYLE
  2
Standard
  9
$CMLJUST
 70
     0
  9
$CMLSCALE
 40
1.0
  9
$PROXYGRAPHICS
 70
     1
  9
$MEASUREMENT
 70
     1
  9
$CELWEIGHT
370
    -1
  9
$ENDCAPS
280
     0
  9
$JOINSTYLE
280
     0
  9
$LWDISPLAY
290
     0
  9
$INSUNITS
 70
     4
  9
$HYPERLINKBASE
  1

  9
$STYLESHEET
  1

  9
$XEDIT
290
     1
  9
$CEPSNTYPE
380
     0
  9
$PSTYLEMODE
290
     1
  9
$FINGERPRINTGUID
  2
{FAB3B74D-474B-4EB8-B2F4-29BDFAB506A8}
  9
$VERSIONGUID
  2
{FAEB1C32-E019-11D5-929B-00C0DF256EC4}
  9
$EXTNAMES
290
     1
  9
$PSVPSCALE
 40
0.0
  9
$OLESTARTUP
290
     0
  9
$SORTENTS
280
   127
  9
$INDEXCTL
280
     0
  9
$HIDETEXT
280
     1
  9
$XCLIPFRAME
280
     2
  9
$HALOGAP
280
     0
  9
$OBSCOLOR
 70
   257
  9
$OBSLTYPE
280
     0
  9
$INTERSECTIONDISPLAY
280
     0
  9
$INTERSECTIONCOLOR
 70
   257
  9
$DIMASSOC
280
     1
  9
$PROJECTNAME
  1

  9
$CAMERADISPLAY
290
     0
  9
$LENSLENGTH
 40
50.0
  9
$CAMERAHEIGHT
 40
0.0
  9
$STEPSPERSEC
 40
2.0
  9
$STEPSIZE
 40
6.0
  9
$3DDWFPREC
 40
2.0
  9
$PSOLWIDTH
 40
0.25
  9
$PSOLHEIGHT
 40
4.0
  9
$LOFTANG1
 40
1.570796326794897
  9
$LOFTANG2
 40
1.570796326794897
  9
$LOFTMAG1
 40
0.0
  9
$LOFTMAG2
 40
0.0
  9
$LOFTPARAM
 70
     7
  9
$LOFTNORMALS
280
     1
  9
$LATITUDE
 40
37.795
  9
$LONGITUDE
 40
-122.394
  9
$NORTHDIRECTION
 40
0.0
  9
$TIMEZONE
 70
 -8000
  9
$LIGHTGLYPHDISPLAY
280
     1
  9
$TILEMODELIGHTSYNCH
280
     1
  9
$CMATERIAL
347
44
  9
$SOLIDHIST
280
     1
  9
$SHOWHIST
280
     1
  9
$DWFFRAME
280
     2
  9
$DGNFRAME
280
     2
  9
$REALWORLDSCALE
290
     1
  9
$INTERFERECOLOR
 62
   256
  9
$CSHADOW
280
     0
  9
$SHADOWPLANELOCATION
 40
0.0
  0
ENDSEC
  0
SECTION
  2
CLASSES
  0
CLASS
  1
ACDBDICTIONARYWDFLT
  2
AcDbDictionaryWithDefault
  3
ObjectDBX Classes
 90
        0
 91
        4
280
     0
281
     0
  0
CLASS
  1
VISUALSTYLE
  2
AcDbVisualStyle
  3
ObjectDBX Classes
 90
     4095
 91
        4
280
     0
281
     0
  0
CLASS
  1
MATERIAL
  2
AcDbMaterial
  3
ObjectDBX Classes
 90
     1153
 91
        4
280
     0
281
     0
  0
CLASS
  1
SCALE
  2
AcDbScale
  3
ObjectDBX Classes
 90
     1153
 91
        4
280
     0
281
     0
  0
CLASS
  1
SUN
  2
AcDbSun
  3
SCENEOE
 90
     1153
 91
        4
280
     0
281
     0
  0
CLASS
  1
DICTIONARYVAR
  2
AcDbDictionaryVar
  3
ObjectDBX Classes
 90
        0
 91
        4
280
     0
281
     0
  0
ENDSEC
  0
SECTION
  2
TABLES
  0
TABLE
  2
VPORT
  5
8
330
0
100
AcDbSymbolTable
 70
     1
  0
VPORT
  5
29
330
8
100
AcDbSymbolTableRecord
100
AcDbViewportTableRecord
  2
*Active
 70
     0
 10
0.0
 20
0.0
 11
1.0
 21
1.0
 12
10.42990654205607
 22
4.5
 13
0.0
 23
0.0
 14
0.5
 24
0.5
 15
0.5
 25
0.5
 16
0.0
 26
0.0
 36
1.0
 17
0.0
 27
0.0
 37
0.0
 40
9.0
 41
1.972972972850329
 42
50.0
 43
0.0
 44
0.0
 50
0.0
 51
0.0
 71
     0
 72
   100
 73
     1
 74
     3
 75
     0
 76
     0
 77
     0
 78
     0
281
     0
 65
     1
110
0.0
120
0.0
130
0.0
111
1.0
121
0.0
131
0.0
112
0.0
122
1.0
132
0.0
 79
     0
146
0.0
 60
     3
 61
     5
292
     1
282
     1
141
0.0
142
0.0
 63
   250
361
69
  0
ENDTAB
  0
TABLE
  2
LTYPE
  5
5
330
0
100
AcDbSymbolTable
 70
     9
  0
LTYPE
  5
14
330
5
100
AcDbSymbolTableRecord
100
AcDbLinetypeTableRecord
  2
ByBlock
 70
     0
  3

 72
    65
 73
     0
 40
0.0
  0
LTYPE
  5
15
330
5
100
AcDbSymbolTableRecord
100
AcDbLinetypeTableRecord
  2
ByLayer
 70
     0
  3

 72
    65
 73
     0
 40
0.0
  0
LTYPE
  5
16
330
5
100
AcDbSymbolTableRecord
100
AcDbLinetypeTableRecord
  2
Continuous
 70
     0
  3
Solid line
 72
    65
 73
     0
 40
0.0
  0
LTYPE
  5
B9
330
5
100
AcDbSymbolTableRecord
100
AcDbLinetypeTableRecord
  2
DOT
 70
     0
  3
DOT
 72
    65
 73
     2
 40
4.0
 49
6.0
 74
     0
 49
-2.0
 74
     0
  0
LTYPE
  5
BA
330
5
100
AcDbSymbolTableRecord
100
AcDbLinetypeTableRecord
  2
HIDDEN
 70
     0
  3
HIDDEN
 72
    65
 73
     2
 40
4.2
 49
8.4
 74
     0
 49
-4.2
 74
     0
  0
LTYPE
  5
BB
330
5
100
AcDbSymbolTableRecord
100
AcDbLinetypeTableRecord
  2
DASHDOT
 70
     0
  3
DASHDOT
 72
    65
 73
     4
 40
14.5
 49
30.0
 74
     0
 49
-9.0
 74
     0
 49
2.5
 74
     0
 49
-9.0
 74
     0
  0
LTYPE
  5
BC
330
5
100
AcDbSymbolTableRecord
100
AcDbLinetypeTableRecord
  2
PHANTOM
 70
     0
  3
PHANTOM
 72
    65
 73
     6
 40
12.0
 49
30.0
 74
     0
 49
-9.0
 74
     0
 49
2.5
 74
     0
 49
-5.0
 74
     0
 49
2.5
 74
     0
 49
-9.0
 74
     0
  0
LTYPE
  5
BD
330
5
100
AcDbSymbolTableRecord
100
AcDbLinetypeTableRecord
  2
ACAD_ISO14W100
 70
     0
  3
ACAD_ISO14W100
 72
    65
 73
     8
 40
1.5
 49
12.0
 74
     0
 49
-3.0
 74
     0
 49
0.5
 74
     0
 49
-3.0
 74
     0
 49
0.5
 74
     0
 49
-3.0
 74
     0
 49
0.5
 74
     0
 49
-3.0
 74
     0
  0
LTYPE
  5
BE
330
5
100
AcDbSymbolTableRecord
100
AcDbLinetypeTableRecord
  2
ACAD_ISO06W100
 70
     0
  3
ACAD_ISO06W100
 72
    65
 73
     8
 40
13.5
 49
24.0
 74
     0
 49
-3.0
 74
     0
 49
0.5
 74
     0
 49
-3.0
 74
     0
 49
0.5
 74
     0
 49
-3.0
 74
     0
 49
0.5
 74
     0
 49
-3.0
 74
     0
  0
LTYPE
  5
BF
330
5
100
AcDbSymbolTableRecord
100
AcDbLinetypeTableRecord
  2
ACAD_ISO11W100
 70
     0
  3
ACAD_ISO11W100
 72
    65
 73
     6
 40
15.5
 49
12.0
 74
     0
 49
-3.0
 74
     0
 49
12.0
 74
     0
 49
-3.0
 74
     0
 49
0.5
 74
     0
 49
-3.0
 74
     0
  0
LTYPE
  5
C0
330
5
100
AcDbSymbolTableRecord
100
AcDbLinetypeTableRecord
  2
ACAD_ISO13W100
 70
     0
  3
ACAD_ISO13W100
 72
    65
 73
     8
 40
13.0
 49
12.0
 74
     0
 49
-3.0
 74
     0
 49
12.0
 74
     0
 49
-3.0
 74
     0
 49
0.5
 74
     0
 49
-3.0
 74
     0
 49
0.5
 74
     0
 49
-3.0
 74
     0
  0
ENDTAB
  0
TABLE
  2
LAYER
  5
2
330
0
100
AcDbSymbolTable
 70
    35
  0
LAYER
  5
10
330
2
100
AcDbSymbolTableRecord
100
AcDbLayerTableRecord
  2
0
 70
     0
 62
     7
  6
Continuous
370
    -3
390
F
347
46
348
0
  0
LAYER
  5
C1
330
2
100
AcDbSymbolTableRecord
100
AcDbLayerTableRecord
  2
1
 70
     0
 62
     6
  6
Continuous
370
    53
390
F
347
46
348
0
  0
LAYER
  5
C2
330
2
100
AcDbSymbolTableRecord
100
AcDbLayerTableRecord
  2
2
 70
     0
 62
     2
  6
HIDDEN
370
    25
390
F
347
46
348
0
  0
LAYER
  5
C3
330
2
100
AcDbSymbolTableRecord
100
AcDbLayerTableRecord
  2
3
 70
     0
 62
     1
  6
DASHDOT
370
    25
390
F
347
46
348
0
  0
LAYER
  5
C4
330
2
100
AcDbSymbolTableRecord
100
AcDbLayerTableRecord
  2
4
 70
     0
 62
     2
  6
PHANTOM
370
    25
390
F
347
46
348
0
  0
LAYER
  5
C5
330
2
100
AcDbSymbolTableRecord
100
AcDbLayerTableRecord
  2
5
 70
     0
 62
     4
  6
Continuous
370
    25
390
F
347
46
348
0
  0
LAYER
  5
C6
330
2
100
AcDbSymbolTableRecord
100
AcDbLayerTableRecord
  2
6
 70
     0
 62
     3
  6
Continuous
370
    25
390
F
347
46
348
0
  0
LAYER
  5
C7
330
2
100
AcDbSymbolTableRecord
100
AcDbLayerTableRecord
  2
7
 70
     0
 62
     3
  6
Continuous
370
    25
390
F
347
46
348
0
  0
LAYER
  5
C8
330
2
100
AcDbSymbolTableRecord
100
AcDbLayerTableRecord
  2
8
 70
     0
 62
     4
  6
Continuous
370
    25
390
F
347
46
348
0
  0
LAYER
  5
C9
330
2
100
AcDbSymbolTableRecord
100
AcDbLayerTableRecord
  2
9
 70
     0
 62
     7
  6
Continuous
370
    35
390
F
347
46
348
0
  0
LAYER
  5
CA
330
2
100
AcDbSymbolTableRecord
100
AcDbLayerTableRecord
  2
10
 70
     0
 62
     6
  6
Continuous
370
    53
390
F
347
46
348
0
  0
LAYER
  5
CB
330
2
100
AcDbSymbolTableRecord
100
AcDbLayerTableRecord
  2
11
 70
     0
 62
     2
  6
HIDDEN
370
    25
390
F
347
46
348
0
  0
LAYER
  5
CC
330
2
100
AcDbSymbolTableRecord
100
AcDbLayerTableRecord
  2
12
 70
     0
 62
     5
  6
Continuous
370
    53
390
F
347
46
348
0
  0
LAYER
  5
CD
330
2
100
AcDbSymbolTableRecord
100
AcDbLayerTableRecord
  2
13
 70
     0
 62
     7
  6
Continuous
370
     9
390
F
347
46
348
0
  0
LAYER
  5
CE
330
2
100
AcDbSymbolTableRecord
100
AcDbLayerTableRecord
  2
14
 70
     0
 62
     7
  6
Continuous
370
     9
390
F
347
46
348
0
  0
LAYER
  5
CF
330
2
100
AcDbSymbolTableRecord
100
AcDbLayerTableRecord
  2
15
 70
     0
 62
     7
  6
Continuous
370
    35
390
F
347
46
348
0
  0
LAYER
  5
D0
330
2
100
AcDbSymbolTableRecord
100
AcDbLayerTableRecord
  2
16
 70
     0
 62
     7
  6
HIDDEN
370
     9
390
F
347
46
348
0
  0
LAYER
  5
D1
330
2
100
AcDbSymbolTableRecord
100
AcDbLayerTableRecord
  2
17
 70
     0
 62
     7
  6
Continuous
370
     9
390
F
347
46
348
0
  0
LAYER
  5
D2
330
2
100
AcDbSymbolTableRecord
100
AcDbLayerTableRecord
  2
18
 70
     0
 62
     4
  6
Continuous
370
     9
390
F
347
46
348
0
  0
LAYER
  5
D3
330
2
100
AcDbSymbolTableRecord
100
AcDbLayerTableRecord
  2
19
 70
     0
 62
     7
  6
Continuous
370
     9
390
F
347
46
348
0
  0
LAYER
  5
D4
330
2
100
AcDbSymbolTableRecord
100
AcDbLayerTableRecord
  2
20
 70
     0
 62
     6
  6
PHANTOM
370
     9
390
F
347
46
348
0
  0
LAYER
  5
D5
330
2
100
AcDbSymbolTableRecord
100
AcDbLayerTableRecord
  2
21
 70
     0
 62
     1
  6
Continuous
370
     9
390
F
347
46
348
0
  0
LAYER
  5
D6
330
2
100
AcDbSymbolTableRecord
100
AcDbLayerTableRecord
  2
22
 70
     0
 62
     7
  6
Continuous
370
     9
390
F
347
46
348
0
  0
LAYER
  5
D7
330
2
100
AcDbSymbolTableRecord
100
AcDbLayerTableRecord
  2
23
 70
     0
 62
     4
  6
Continuous
370
     9
390
F
347
46
348
0
  0
LAYER
  5
D8
330
2
100
AcDbSymbolTableRecord
100
AcDbLayerTableRecord
  2
24
 70
     0
 62
     1
  6
DASHDOT
370
     9
390
F
347
46
348
0
  0
LAYER
  5
D9
330
2
100
AcDbSymbolTableRecord
100
AcDbLayerTableRecord
  2
25
 70
     0
 62
     1
  6
HIDDEN
370
     9
390
F
347
46
348
0
  0
LAYER
  5
DA
330
2
100
AcDbSymbolTableRecord
100
AcDbLayerTableRecord
  2
26
 70
     0
 62
     2
  6
Continuous
370
     9
390
F
347
46
348
0
  0
LAYER
  5
DB
330
2
100
AcDbSymbolTableRecord
100
AcDbLayerTableRecord
  2
27
 70
     0
 62
     5
  6
HIDDEN
370
     9
390
F
347
46
348
0
  0
LAYER
  5
DC
330
2
100
AcDbSymbolTableRecord
100
AcDbLayerTableRecord
  2
28
 70
     0
 62
     3
  6
Continuous
370
     9
390
F
347
46
348
0
  0
LAYER
  5
DD
330
2
100
AcDbSymbolTableRecord
100
AcDbLayerTableRecord
  2
29
 70
     0
 62
     7
  6
HIDDEN
370
    50
390
F
347
46
348
0
  0
LAYER
  5
DE
330
2
100
AcDbSymbolTableRecord
100
AcDbLayerTableRecord
  2
30
 70
     0
 62
     7
  6
DASHDOT
370
    50
390
F
347
46
348
0
  0
LAYER
  5
DF
330
2
100
AcDbSymbolTableRecord
100
AcDbLayerTableRecord
  2
31
 70
     0
 62
     7
  6
Continuous
370
     9
390
F
347
46
348
0
  0
LAYER
  5
E0
330
2
100
AcDbSymbolTableRecord
100
AcDbLayerTableRecord
  2
32
 70
     0
 62
     7
  6
Continuous
370
     9
390
F
347
46
348
0
  0
LAYER
  5
E1
330
2
100
AcDbSymbolTableRecord
100
AcDbLayerTableRecord
  2
33
 70
     0
 62
     1
  6
DASHDOT
370
     9
390
F
347
46
348
0
  0
LAYER
  5
E2
330
2
100
AcDbSymbolTableRecord
100
AcDbLayerTableRecord
  2
34
 70
     0
 62
     7
  6
Continuous
370
     9
390
F
347
46
348
0
  0
ENDTAB
  0
TABLE
  2
STYLE
  5
3
330
0
100
AcDbSymbolTable
 70
     3
  0
STYLE
  5
11
330
3
100
AcDbSymbolTableRecord
100
AcDbTextStyleTableRecord
  2
Standard
 70
     0
 40
0.0
 41
1.0
 50
0.0
 71
     0
 42
6.6
  3
txt
  4
bigfont
  0
STYLE
  5
6C
330
3
100
AcDbSymbolTableRecord
100
AcDbTextStyleTableRecord
  2
T_STANDARD
 70
     4
 40
10.0
 41
1.0
 50
0.0
 71
     0
 42
6.6
  3
txt
  4
bigfont
1001
ACAD
1000

1071
      256
  0
STYLE
  5
3C1
330
3
100
AcDbSymbolTableRecord
100
AcDbTextStyleTableRecord
  2
ＭＳ Ｐゴシック
 70
     0
 40
0.0
 41
1.0
 50
0.0
 71
     0
 42
6.6
  3

  4

1001
ACAD
1000
ＭＳ Ｐゴシック
1071
      256
  0
ENDTAB
  0
TABLE
  2
VIEW
  5
6
330
0
100
AcDbSymbolTable
 70
     0
  0
ENDTAB
  0
TABLE
  2
UCS
  5
7
330
0
100
AcDbSymbolTable
 70
     0
  0
ENDTAB
  0
TABLE
  2
APPID
  5
9
330
0
100
AcDbSymbolTable
 70
     2
  0
APPID
  5
12
330
9
100
AcDbSymbolTableRecord
100
AcDbRegAppTableRecord
  2
ACAD
 70
     0
  0
APPID
  5
6B
330
9
100
AcDbSymbolTableRecord
100
AcDbRegAppTableRecord
  2
ODA
 70
     0
  0
ENDTAB
  0
TABLE
  2
DIMSTYLE
  5
A
330
0
100
AcDbSymbolTable
 70
     1
100
AcDbDimStyleTable
  0
DIMSTYLE
105
27
102
{ACAD_REACTORS
330
3CB
330
3DF
330
3E9
330
3FE
102
}
330
A
100
AcDbSymbolTableRecord
100
AcDbDimStyleTableRecord
  2
Standard
 70
     0
178
     0
340
11
  0
ENDTAB
  0
TABLE
  2
BLOCK_RECORD
  5
1
330
0
100
AcDbSymbolTable
 70
    24
  0
BLOCK_RECORD
  5
1F
330
1
100
AcDbSymbolTableRecord
100
AcDbBlockTableRecord
  2
*Model_Space
340
22
 70
     0
280
     1
281
     0
  0
BLOCK_RECORD
  5
1B
330
1
100
AcDbSymbolTableRecord
100
AcDbBlockTableRecord
  2
*Paper_Space
340
1E
 70
     0
280
     1
281
     0
  0
BLOCK_RECORD
  5
23
330
1
100
AcDbSymbolTableRecord
100
AcDbBlockTableRecord
  2
*Paper_Space0
340
26
 70
     0
280
     1
281
     0
  0
BLOCK_RECORD
  5
6D
330
1
100
AcDbSymbolTableRecord
100
AcDbBlockTableRecord
  2
_ORIGIN
340
0
 70
     0
280
     1
281
     0
  0
BLOCK_RECORD
  5
72
330
1
100
AcDbSymbolTableRecord
100
AcDbBlockTableRecord
  2
_DOTBLANK
340
0
 70
     0
280
     1
281
     0
  0
BLOCK_RECORD
  5
77
330
1
100
AcDbSymbolTableRecord
100
AcDbBlockTableRecord
  2
_DOT
340
0
 70
     0
280
     1
281
     0
  0
BLOCK_RECORD
  5
7C
330
1
100
AcDbSymbolTableRecord
100
AcDbBlockTableRecord
  2
_OPEN
340
0
102
{BLKREFS
331
3C9
331
3CA
331
3DD
331
3DE
331
3E7
331
3E8
331
3FC
331
3FD
102
}
 70
     0
280
     1
281
     0
  0
BLOCK_RECORD
  5
82
330
1
100
AcDbSymbolTableRecord
100
AcDbBlockTableRecord
  2
_CLOSED
340
0
 70
     0
280
     1
281
     0
  0
BLOCK_RECORD
  5
89
330
1
100
AcDbSymbolTableRecord
100
AcDbBlockTableRecord
  2
_CLOSEDBLANK
340
0
 70
     0
280
     1
281
     0
  0
BLOCK_RECORD
  5
8F
330
1
100
AcDbSymbolTableRecord
100
AcDbBlockTableRecord
  2
_ARROWFILLED
340
0
 70
     0
280
     1
281
     0
  0
BLOCK_RECORD
  5
93
330
1
100
AcDbSymbolTableRecord
100
AcDbBlockTableRecord
  2
_BOXBLANK
340
0
 70
     0
280
     1
281
     0
  0
BLOCK_RECORD
  5
9B
330
1
100
AcDbSymbolTableRecord
100
AcDbBlockTableRecord
  2
_BOXFILLED
340
0
 70
     0
280
     1
281
     0
  0
BLOCK_RECORD
  5
A0
330
1
100
AcDbSymbolTableRecord
100
AcDbBlockTableRecord
  2
_INTEGRAL
340
0
 70
     0
280
     1
281
     0
  0
BLOCK_RECORD
  5
A5
330
1
100
AcDbSymbolTableRecord
100
AcDbBlockTableRecord
  2
_OBLIQUE
340
0
 70
     0
280
     1
281
     0
  0
BLOCK_RECORD
  5
A9
330
1
100
AcDbSymbolTableRecord
100
AcDbBlockTableRecord
  2
_NONE
340
0
 70
     0
280
     1
281
     0
  0
BLOCK_RECORD
  5
AC
330
1
100
AcDbSymbolTableRecord
100
AcDbBlockTableRecord
  2
MARK_OPEN
340
0
 70
     0
280
     1
281
     0
  0
BLOCK_RECORD
  5
B1
330
1
100
AcDbSymbolTableRecord
100
AcDbBlockTableRecord
  2
MARK_ORIGIN
340
0
 70
     0
280
     1
281
     0
  0
BLOCK_RECORD
  5
B5
330
1
100
AcDbSymbolTableRecord
100
AcDbBlockTableRecord
  2
MARK_DOT
340
0
 70
     0
280
     1
281
     0
  0
BLOCK_RECORD
  5
15E
330
1
100
AcDbSymbolTableRecord
100
AcDbBlockTableRecord
  2
*G16
340
0
102
{BLKREFS
331
163
102
}
 70
     0
280
     1
281
     0
  0
BLOCK_RECORD
  5
164
330
1
100
AcDbSymbolTableRecord
100
AcDbBlockTableRecord
  2
*G17
340
0
102
{BLKREFS
331
169
102
}
 70
     0
280
     1
281
     0
  0
BLOCK_RECORD
  5
331
330
1
100
AcDbSymbolTableRecord
100
AcDbBlockTableRecord
  2
*G18
340
0
102
{BLKREFS
331
339
102
}
 70
     0
280
     1
281
     0
  0
BLOCK_RECORD
  5
35E
330
1
100
AcDbSymbolTableRecord
100
AcDbBlockTableRecord
  2
*G19
340
0
102
{BLKREFS
331
366
102
}
 70
     0
280
     1
281
     0
  0
BLOCK_RECORD
  5
3C2
330
1
100
AcDbSymbolTableRecord
100
AcDbBlockTableRecord
  2
Dim1
340
0
 70
     0
280
     1
281
     0
  0
BLOCK_RECORD
  5
3D6
330
1
100
AcDbSymbolTableRecord
100
AcDbBlockTableRecord
  2
Dim2
340
0
 70
     0
280
     1
281
     0
  0
BLOCK_RECORD
  5
3E0
330
1
100
AcDbSymbolTableRecord
100
AcDbBlockTableRecord
  2
Dim3
340
0
 70
     0
280
     1
281
     0
  0
BLOCK_RECORD
  5
3F5
330
1
100
AcDbSymbolTableRecord
100
AcDbBlockTableRecord
  2
Dim4
340
0
 70
     0
280
     1
281
     0
  0
ENDTAB
  0
ENDSEC
  0
SECTION
  2
BLOCKS
  0
BLOCK
  5
20
330
1F
100
AcDbEntity
  8
0
100
AcDbBlockBegin
  2
*Model_Space
 70
     0
 10
0.0
 20
0.0
 30
0.0
  3
*Model_Space
  1
*Model_Space
  0
ENDBLK
  5
21
330
1F
100
AcDbEntity
  8
0
100
AcDbBlockEnd
  0
BLOCK
  5
1C
330
1B
100
AcDbEntity
 67
     1
  8
0
100
AcDbBlockBegin
  2
*Paper_Space
 70
     0
 10
0.0
 20
0.0
 30
0.0
  3
*Paper_Space
  1
*Paper_Space
  0
ENDBLK
  5
1D
330
1B
100
AcDbEntity
 67
     1
  8
0
100
AcDbBlockEnd
  0
BLOCK
  5
24
330
23
100
AcDbEntity
  8
0
100
AcDbBlockBegin
  2
*Paper_Space0
 70
     0
 10
0.0
 20
0.0
 30
0.0
  3
*Paper_Space0
  1
*Paper_Space0
  0
ENDBLK
  5
25
330
23
100
AcDbEntity
  8
0
100
AcDbBlockEnd
  0
BLOCK
  5
70
330
6D
100
AcDbEntity
  8
0
100
AcDbBlockBegin
  2
_ORIGIN
 70
     0
 10
0.0
 20
0.0
 30
0.0
  3
_ORIGIN
  1
_ORIGIN
  0
CIRCLE
  5
6E
330
6D
100
AcDbEntity
  8
0
 62
     0
100
AcDbCircle
 10
0.0
 20
0.0
 30
0.0
 40
0.5
  0
LINE
  5
6F
330
6D
100
AcDbEntity
  8
0
 62
     0
100
AcDbLine
 10
0.0
 20
0.0
 30
0.0
 11
-1.0
 21
0.0
 31
0.0
  0
ENDBLK
  5
71
330
6D
100
AcDbEntity
  8
0
100
AcDbBlockEnd
  0
BLOCK
  5
75
330
72
100
AcDbEntity
  8
0
100
AcDbBlockBegin
  2
_DOTBLANK
 70
     0
 10
0.0
 20
0.0
 30
0.0
  3
_DOTBLANK
  1
_DOTBLANK
  0
CIRCLE
  5
73
330
72
100
AcDbEntity
  8
0
 62
     0
100
AcDbCircle
 10
0.0
 20
0.0
 30
0.0
 40
0.5
  0
LINE
  5
74
330
72
100
AcDbEntity
  8
0
 62
     0
100
AcDbLine
 10
-0.5
 20
0.0
 30
0.0
 11
-1.0
 21
0.0
 31
0.0
  0
ENDBLK
  5
76
330
72
100
AcDbEntity
  8
0
100
AcDbBlockEnd
  0
BLOCK
  5
7A
330
77
100
AcDbEntity
  8
0
100
AcDbBlockBegin
  2
_DOT
 70
     0
 10
0.0
 20
0.0
 30
0.0
  3
_DOT
  1
_DOT
  0
LWPOLYLINE
  5
78
330
77
100
AcDbEntity
  8
0
 62
     0
100
AcDbPolyline
 90
        2
 70
     1
 43
0.5
 10
-0.25
 20
0.0
 42
1.0
 10
0.25
 20
0.0
 42
1.0
  0
LINE
  5
79
330
77
100
AcDbEntity
  8
0
 62
     0
100
AcDbLine
 10
-0.5
 20
0.0
 30
0.0
 11
-1.0
 21
0.0
 31
0.0
  0
ENDBLK
  5
7B
330
77
100
AcDbEntity
  8
0
100
AcDbBlockEnd
  0
BLOCK
  5
80
330
7C
100
AcDbEntity
  8
0
100
AcDbBlockBegin
  2
_OPEN
 70
     0
 10
0.0
 20
0.0
 30
0.0
  3
_OPEN
  1
_OPEN
  0
LINE
  5
7D
330
7C
100
AcDbEntity
  8
0
 62
     0
100
AcDbLine
 10
0.0
 20
0.0
 30
0.0
 11
-1.0
 21
0.1666666666666667
 31
0.0
  0
LINE
  5
7E
330
7C
100
AcDbEntity
  8
0
 62
     0
100
AcDbLine
 10
0.0
 20
0.0
 30
0.0
 11
-1.0
 21
-0.1666666666666667
 31
0.0
  0
LINE
  5
7F
330
7C
100
AcDbEntity
  8
0
 62
     0
100
AcDbLine
 10
0.0
 20
0.0
 30
0.0
 11
-1.0
 21
0.0
 31
0.0
  0
ENDBLK
  5
81
330
7C
100
AcDbEntity
  8
0
100
AcDbBlockEnd
  0
BLOCK
  5
87
330
82
100
AcDbEntity
  8
0
100
AcDbBlockBegin
  2
_CLOSED
 70
     0
 10
0.0
 20
0.0
 30
0.0
  3
_CLOSED
  1
_CLOSED
  0
LINE
  5
83
330
82
100
AcDbEntity
  8
0
 62
     0
100
AcDbLine
 10
0.0
 20
0.0
 30
0.0
 11
-1.0
 21
0.1666666666666667
 31
0.0
  0
LINE
  5
84
330
82
100
AcDbEntity
  8
0
 62
     0
100
AcDbLine
 10
0.0
 20
0.0
 30
0.0
 11
-1.0
 21
-0.1666666666666667
 31
0.0
  0
LINE
  5
85
330
82
100
AcDbEntity
  8
0
 62
     0
100
AcDbLine
 10
-1.0
 20
0.1666666666666667
 30
0.0
 11
-1.0
 21
-0.1666666666666667
 31
0.0
  0
LINE
  5
86
330
82
100
AcDbEntity
  8
0
 62
     0
100
AcDbLine
 10
0.0
 20
0.0
 30
0.0
 11
-1.0
 21
0.0
 31
0.0
  0
ENDBLK
  5
88
330
82
100
AcDbEntity
  8
0
100
AcDbBlockEnd
  0
BLOCK
  5
8D
330
89
100
AcDbEntity
  8
0
100
AcDbBlockBegin
  2
_CLOSEDBLANK
 70
     0
 10
0.0
 20
0.0
 30
0.0
  3
_CLOSEDBLANK
  1
_CLOSEDBLANK
  0
LINE
  5
8A
330
89
100
AcDbEntity
  8
0
 62
     0
100
AcDbLine
 10
0.0
 20
0.0
 30
0.0
 11
-1.0
 21
0.1666666666666667
 31
0.0
  0
LINE
  5
8B
330
89
100
AcDbEntity
  8
0
 62
     0
100
AcDbLine
 10
0.0
 20
0.0
 30
0.0
 11
-1.0
 21
-0.1666666666666667
 31
0.0
  0
LINE
  5
8C
330
89
100
AcDbEntity
  8
0
 62
     0
100
AcDbLine
 10
-1.0
 20
0.1666666666666667
 30
0.0
 11
-1.0
 21
-0.1666666666666667
 31
0.0
  0
ENDBLK
  5
8E
330
89
100
AcDbEntity
  8
0
100
AcDbBlockEnd
  0
BLOCK
  5
91
330
8F
100
AcDbEntity
  8
0
100
AcDbBlockBegin
  2
_ARROWFILLED
 70
     0
 10
0.0
 20
0.0
 30
0.0
  3
_ARROWFILLED
  1
_ARROWFILLED
  0
SOLID
  5
90
330
8F
100
AcDbEntity
  8
0
 62
     0
100
AcDbTrace
 10
0.0
 20
0.0
 30
0.0
 11
-1.0
 21
-0.1666666666666667
 31
0.0
 12
-1.0
 22
0.1666666666666667
 32
0.0
 13
0.0
 23
0.0
 33
0.0
  0
ENDBLK
  5
92
330
8F
100
AcDbEntity
  8
0
100
AcDbBlockEnd
  0
BLOCK
  5
99
330
93
100
AcDbEntity
  8
0
100
AcDbBlockBegin
  2
_BOXBLANK
 70
     0
 10
0.0
 20
0.0
 30
0.0
  3
_BOXBLANK
  1
_BOXBLANK
  0
LINE
  5
94
330
93
100
AcDbEntity
  8
0
 62
     0
100
AcDbLine
 10
-0.5
 20
-0.5
 30
0.0
 11
0.5
 21
-0.5
 31
0.0
  0
LINE
  5
95
330
93
100
AcDbEntity
  8
0
 62
     0
100
AcDbLine
 10
0.5
 20
-0.5
 30
0.0
 11
0.5
 21
0.5
 31
0.0
  0
LINE
  5
96
330
93
100
AcDbEntity
  8
0
 62
     0
100
AcDbLine
 10
0.5
 20
0.5
 30
0.0
 11
-0.5
 21
0.5
 31
0.0
  0
LINE
  5
97
330
93
100
AcDbEntity
  8
0
 62
     0
100
AcDbLine
 10
-0.5
 20
0.5
 30
0.0
 11
-0.5
 21
-0.5
 31
0.0
  0
LINE
  5
98
330
93
100
AcDbEntity
  8
0
 62
     0
100
AcDbLine
 10
-0.5
 20
0.0
 30
0.0
 11
-1.0
 21
0.0
 31
0.0
  0
ENDBLK
  5
9A
330
93
100
AcDbEntity
  8
0
100
AcDbBlockEnd
  0
BLOCK
  5
9E
330
9B
100
AcDbEntity
  8
0
100
AcDbBlockBegin
  2
_BOXFILLED
 70
     0
 10
0.0
 20
0.0
 30
0.0
  3
_BOXFILLED
  1
_BOXFILLED
  0
SOLID
  5
9C
330
9B
100
AcDbEntity
  8
0
 62
     0
100
AcDbTrace
 10
-0.5
 20
0.5
 30
0.0
 11
0.5
 21
0.5
 31
0.0
 12
-0.5
 22
-0.5
 32
0.0
 13
0.5
 23
-0.5
 33
0.0
  0
LINE
  5
9D
330
9B
100
AcDbEntity
  8
0
 62
     0
100
AcDbLine
 10
-0.5
 20
0.0
 30
0.0
 11
-1.0
 21
0.0
 31
0.0
  0
ENDBLK
  5
9F
330
9B
100
AcDbEntity
  8
0
100
AcDbBlockEnd
  0
BLOCK
  5
A3
330
A0
100
AcDbEntity
  8
0
100
AcDbBlockBegin
  2
_INTEGRAL
 70
     0
 10
0.0
 20
0.0
 30
0.0
  3
_INTEGRAL
  1
_INTEGRAL
  0
ARC
  5
A1
330
A0
100
AcDbEntity
  8
0
 62
     0
100
AcDbCircle
 10
0.444888
 20
-0.0913346
 30
0.0
 40
0.4541666
100
AcDbArc
 50
101.9999999999999
 51
167.9999999999998
  0
ARC
  5
A2
330
A0
100
AcDbEntity
  8
0
 62
     0
100
AcDbCircle
 10
-0.444888
 20
0.0913346
 30
0.0
 40
0.4541666
100
AcDbArc
 50
281.9999999999997
 51
347.9999999999997
  0
ENDBLK
  5
A4
330
A0
100
AcDbEntity
  8
0
100
AcDbBlockEnd
  0
BLOCK
  5
A7
330
A5
100
AcDbEntity
  8
0
100
AcDbBlockBegin
  2
_OBLIQUE
 70
     0
 10
0.0
 20
0.0
 30
0.0
  3
_OBLIQUE
  1
_OBLIQUE
  0
LINE
  5
A6
330
A5
100
AcDbEntity
  8
0
 62
     0
100
AcDbLine
 10
-0.5
 20
-0.5
 30
0.0
 11
0.5
 21
0.5
 31
0.0
  0
ENDBLK
  5
A8
330
A5
100
AcDbEntity
  8
0
100
AcDbBlockEnd
  0
BLOCK
  5
AA
330
A9
100
AcDbEntity
  8
0
100
AcDbBlockBegin
  2
_NONE
 70
     0
 10
0.0
 20
0.0
 30
0.0
  3
_NONE
  1
_NONE
  0
ENDBLK
  5
AB
330
A9
100
AcDbEntity
  8
0
100
AcDbBlockEnd
  0
BLOCK
  5
AF
330
AC
100
AcDbEntity
  8
0
100
AcDbBlockBegin
  2
MARK_OPEN
 70
     0
 10
0.0
 20
0.0
 30
0.0
  3
MARK_OPEN
  1
MARK_OPEN
  0
LINE
  5
AD
330
AC
100
AcDbEntity
  8
0
 62
     0
100
AcDbLine
 10
0.0
 20
0.0
 30
0.0
 11
-1.0
 21
0.1666666666666667
 31
0.0
  0
LINE
  5
AE
330
AC
100
AcDbEntity
  8
0
 62
     0
100
AcDbLine
 10
0.0
 20
0.0
 30
0.0
 11
-1.0
 21
-0.1666666666666667
 31
0.0
  0
ENDBLK
  5
B0
330
AC
100
AcDbEntity
  8
0
100
AcDbBlockEnd
  0
BLOCK
  5
B3
330
B1
100
AcDbEntity
  8
0
100
AcDbBlockBegin
  2
MARK_ORIGIN
 70
     0
 10
0.0
 20
0.0
 30
0.0
  3
MARK_ORIGIN
  1
MARK_ORIGIN
  0
CIRCLE
  5
B2
330
B1
100
AcDbEntity
  8
0
 62
     0
100
AcDbCircle
 10
0.0
 20
0.0
 30
0.0
 40
0.5
  0
ENDBLK
  5
B4
330
B1
100
AcDbEntity
  8
0
100
AcDbBlockEnd
  0
BLOCK
  5
B7
330
B5
100
AcDbEntity
  8
0
100
AcDbBlockBegin
  2
MARK_DOT
 70
     0
 10
0.0
 20
0.0
 30
0.0
  3
MARK_DOT
  1
MARK_DOT
  0
LWPOLYLINE
  5
B6
330
B5
100
AcDbEntity
  8
0
 62
     0
100
AcDbPolyline
 90
        2
 70
     1
 43
0.5
 10
-0.25
 20
0.0
 42
1.0
 10
0.25
 20
0.0
 42
1.0
  0
ENDBLK
  5
B8
330
B5
100
AcDbEntity
  8
0
100
AcDbBlockEnd
  0
BLOCK
  5
15F
330
15E
100
AcDbEntity
  8
0
100
AcDbBlockBegin
  2
*G16
 70
     1
 10
0.0
 20
0.0
 30
0.0
  3
*G16
  1
*G16
  0
LINE
  5
161
330
15E
100
AcDbEntity
  8
6
  6
Continuous
 62
     3
370
    25
100
AcDbLine
 10
260.3251914008185
 20
268.6060903541106
 30
0.0
 11
259.2245926278571
 21
264.0792187049608
 31
0.0
  0
LINE
  5
162
330
15E
100
AcDbEntity
  8
6
  6
Continuous
 62
     3
370
    25
100
AcDbLine
 10
260.3251914008185
 20
268.6060903541106
 30
0.0
 11
261.6354807286352
 21
264.1354051197945
 31
0.0
  0
ENDBLK
  5
160
330
15E
100
AcDbEntity
  8
0
100
AcDbBlockEnd
  0
BLOCK
  5
165
330
164
100
AcDbEntity
  8
0
100
AcDbBlockBegin
  2
*G17
 70
     1
 10
0.0
 20
0.0
 30
0.0
  3
*G17
  1
*G17
  0
LINE
  5
167
330
164
100
AcDbEntity
  8
6
  6
Continuous
 62
     3
370
    25
100
AcDbLine
 10
324.7057735844802
 20
204.2255081704489
 30
0.0
 11
320.2350883501643
 21
205.5357974982656
 31
0.0
  0
LINE
  5
168
330
164
100
AcDbEntity
  8
6
  6
Continuous
 62
     3
370
    25
100
AcDbLine
 10
324.7057735844802
 20
204.2255081704489
 30
0.0
 11
320.1789019353302
 21
203.1249093974876
 31
0.0
  0
ENDBLK
  5
166
330
164
100
AcDbEntity
  8
0
100
AcDbBlockEnd
  0
BLOCK
  5
332
330
331
100
AcDbEntity
  8
0
100
AcDbBlockBegin
  2
*G18
 70
     1
 10
0.0
 20
0.0
 30
0.0
  3
*G18
  1
*G18
  0
LINE
  5
334
330
331
100
AcDbEntity
  8
9
  6
Continuous
 62
     7
370
    35
100
AcDbLine
 10
323.653426361643
 20
251.8961989796045
 30
0.0
 11
323.653426361643
 21
252.7033845623704
 31
0.0
  0
LINE
  5
335
330
331
100
AcDbEntity
  8
9
  6
Continuous
 62
     7
370
    35
100
AcDbLine
 10
323.853426361643
 20
252.1700126044574
 30
0.0
 11
323.853426361643
 21
252.6818508417047
 31
0.0
  0
LINE
  5
336
330
331
100
AcDbEntity
  8
9
  6
Continuous
 62
     7
370
    35
100
AcDbLine
 10
324.0534263616431
 20
252.4438262293104
 30
0.0
 11
324.0534263616431
 21
252.6603171210389
 31
0.0
  0
LINE
  5
337
330
331
100
AcDbEntity
  8
9
  6
Continuous
 62
     7
370
    35
100
AcDbLine
 10
323.453426361643
 20
252.1915278674375
 30
0.0
 11
323.453426361643
 21
252.7249182830363
 31
0.0
  0
LINE
  5
338
330
331
100
AcDbEntity
  8
9
  6
Continuous
 62
     7
370
    35
100
AcDbLine
 10
323.2534263616431
 20
252.6438182480588
 30
0.0
 11
323.2534263616431
 21
252.746452003702
 31
0.0
  0
ENDBLK
  5
333
330
331
100
AcDbEntity
  8
0
100
AcDbBlockEnd
  0
BLOCK
  5
35F
330
35E
100
AcDbEntity
  8
0
100
AcDbBlockBegin
  2
*G19
 70
     1
 10
0.0
 20
0.0
 30
0.0
  3
*G19
  1
*G19
  0
LINE
  5
361
330
35E
100
AcDbEntity
  8
9
  6
Continuous
 62
     7
370
    35
100
AcDbLine
 10
323.653426361643
 20
285.3159817286164
 30
0.0
 11
323.653426361643
 21
284.5087961458504
 31
0.0
  0
LINE
  5
362
330
35E
100
AcDbEntity
  8
9
  6
Continuous
 62
     7
370
    35
100
AcDbLine
 10
323.853426361643
 20
285.0421681037635
 30
0.0
 11
323.853426361643
 21
284.5303298665162
 31
0.0
  0
LINE
  5
363
330
35E
100
AcDbEntity
  8
9
  6
Continuous
 62
     7
370
    35
100
AcDbLine
 10
324.053426361643
 20
284.7683544789105
 30
0.0
 11
324.053426361643
 21
284.551863587182
 31
0.0
  0
LINE
  5
364
330
35E
100
AcDbEntity
  8
9
  6
Continuous
 62
     7
370
    35
100
AcDbLine
 10
323.453426361643
 20
285.0206528407834
 30
0.0
 11
323.453426361643
 21
284.4872624251846
 31
0.0
  0
LINE
  5
365
330
35E
100
AcDbEntity
  8
9
  6
Continuous
 62
     7
370
    35
100
AcDbLine
 10
323.253426361643
 20
284.568362460162
 30
0.0
 11
323.253426361643
 21
284.4657287045189
 31
0.0
  0
ENDBLK
  5
360
330
35E
100
AcDbEntity
  8
0
100
AcDbBlockEnd
  0
BLOCK
  5
3C3
330
3C2
100
AcDbEntity
  8
0
100
AcDbBlockBegin
  2
Dim1
 70
     0
 10
0.0
 20
0.0
 30
0.0
  3
Dim1
  1
Dim1
  0
LINE
  5
3C5
330
3C2
100
AcDbEntity
  8
6
  6
Continuous
 62
     3
370
     9
100
AcDbLine
 10
324.7057735844804
 20
186.0904237645867
 30
0.0
 11
324.7057735844804
 21
177.6070276363943
 31
0.0
  0
LINE
  5
3C6
330
3C2
100
AcDbEntity
  8
6
  6
Continuous
 62
     3
370
     9
100
AcDbLine
 10
357.2057735844821
 20
262.6060903541104
 30
0.0
 11
357.2057735844817
 21
177.6070276363943
 31
0.0
  0
LINE
  5
3C7
330
3C2
100
AcDbEntity
  8
6
  6
Continuous
 62
     3
370
     9
100
AcDbLine
 10
324.7057735844804
 20
179.6070276363943
 30
0.0
 11
357.2057735844817
 21
179.6070276363943
 31
0.0
  0
MTEXT
  5
3C8
330
3C2
100
AcDbEntity
  8
6
  6
Continuous
 62
     3
370
     9
100
AcDbMText
 10
340.9557735844811
 20
181.2070276363943
 30
0.0
 40
6.6
 41
143.748
 46
6.6
 71
     8
 72
     1
  1
(32.5)
  7
ＭＳ Ｐゴシック
 73
     1
 44
1.0
1001
ACAD
1000
ACAD_MTEXT_DEFINED_HEIGHT_BEGIN
1070
    46
1040
6.6
1000
ACAD_MTEXT_DEFINED_HEIGHT_END
  0
INSERT
  5
3C9
330
3C2
100
AcDbEntity
  8
6
  6
Continuous
 62
     3
370
     9
100
AcDbBlockReference
  2
_OPEN
 10
324.7057735844804
 20
179.6070276363943
 30
0.0
 41
4.6
 42
4.6
 43
4.6
 50
179.9999999999998
  0
INSERT
  5
3CA
330
3C2
100
AcDbEntity
  8
6
  6
Continuous
 62
     3
370
     9
100
AcDbBlockReference
  2
_OPEN
 10
357.2057735844817
 20
179.6070276363943
 30
0.0
 41
4.6
 42
4.6
 43
4.6
 50
359.9999999999997
  0
ENDBLK
  5
3C4
330
3C2
100
AcDbEntity
  8
0
100
AcDbBlockEnd
  0
BLOCK
  5
3D7
330
3D6
100
AcDbEntity
  8
0
100
AcDbBlockBegin
  2
Dim2
 70
     0
 10
0.0
 20
0.0
 30
0.0
  3
Dim2
  1
Dim2
  0
LINE
  5
3D9
330
3D6
100
AcDbEntity
  8
6
  6
Continuous
 62
     3
370
     9
100
AcDbLine
 10
177.9126227539006
 20
235.1060903541107
 30
0.0
 11
177.9126227539002
 21
177.6070275489301
 31
0.0
  0
LINE
  5
3DA
330
3D6
100
AcDbEntity
  8
6
  6
Continuous
 62
     3
370
     9
100
AcDbLine
 10
137.9151736509103
 20
186.0904237645867
 30
0.0
 11
137.9151736509103
 21
177.6070275489301
 31
0.0
  0
LINE
  5
3DB
330
3D6
100
AcDbEntity
  8
6
  6
Continuous
 62
     3
370
     9
100
AcDbLine
 10
177.9126227539002
 20
179.6070275489301
 30
0.0
 11
137.9151736509103
 21
179.6070275489301
 31
0.0
  0
MTEXT
  5
3DC
330
3D6
100
AcDbEntity
  8
6
  6
Continuous
 62
     3
370
     9
100
AcDbMText
 10
157.9138982024052
 20
181.2070275489301
 30
0.0
 40
6.6
 41
94.24799999999999
 46
6.6
 71
     8
 72
     1
  1
(40)
  7
ＭＳ Ｐゴシック
 73
     1
 44
1.0
1001
ACAD
1000
ACAD_MTEXT_DEFINED_HEIGHT_BEGIN
1070
    46
1040
6.6
1000
ACAD_MTEXT_DEFINED_HEIGHT_END
  0
INSERT
  5
3DD
330
3D6
100
AcDbEntity
  8
6
  6
Continuous
 62
     3
370
     9
100
AcDbBlockReference
  2
_OPEN
 10
177.9126227539002
 20
179.6070275489301
 30
0.0
 41
4.6
 42
4.6
 43
4.6
 50
359.9999999999997
  0
INSERT
  5
3DE
330
3D6
100
AcDbEntity
  8
6
  6
Continuous
 62
     3
370
     9
100
AcDbBlockReference
  2
_OPEN
 10
137.9151736509103
 20
179.6070275489301
 30
0.0
 41
4.6
 42
4.6
 43
4.6
 50
179.9999999999998
  0
ENDBLK
  5
3D8
330
3D6
100
AcDbEntity
  8
0
100
AcDbBlockEnd
  0
BLOCK
  5
3E1
330
3E0
100
AcDbEntity
  8
0
100
AcDbBlockBegin
  2
Dim3
 70
     0
 10
0.0
 20
0.0
 30
0.0
  3
Dim3
  1
Dim3
  0
LINE
  5
3E3
330
3E0
100
AcDbEntity
  8
6
  6
Continuous
 62
     3
370
     9
100
AcDbLine
 10
137.9099014456939
 20
426.7719097063529
 30
0.0
 11
137.9099014456939
 21
450.7381070297096
 31
0.0
  0
LINE
  5
3E4
330
3E0
100
AcDbEntity
  8
6
  6
Continuous
 62
     3
370
     9
100
AcDbLine
 10
228.7410284380828
 20
357.5460903541119
 30
0.0
 11
228.7410284380829
 21
450.7381070297096
 31
0.0
  0
LINE
  5
3E5
330
3E0
100
AcDbEntity
  8
6
  6
Continuous
 62
     3
370
     9
100
AcDbLine
 10
137.9099014456939
 20
448.7381070297096
 30
0.0
 11
228.7410284380829
 21
448.7381070297096
 31
0.0
  0
MTEXT
  5
3E6
330
3E0
100
AcDbEntity
  8
6
  6
Continuous
 62
     3
370
     9
100
AcDbMText
 10
183.3254649418884
 20
450.3381070297096
 30
0.0
 40
6.6
 41
88.737
 46
6.6
 71
     8
 72
     1
  1
(91)
  7
ＭＳ Ｐゴシック
 73
     1
 44
1.0
1001
ACAD
1000
ACAD_MTEXT_DEFINED_HEIGHT_BEGIN
1070
    46
1040
6.6
1000
ACAD_MTEXT_DEFINED_HEIGHT_END
  0
INSERT
  5
3E7
330
3E0
100
AcDbEntity
  8
6
  6
Continuous
 62
     3
370
     9
100
AcDbBlockReference
  2
_OPEN
 10
137.9099014456939
 20
448.7381070297096
 30
0.0
 41
4.6
 42
4.6
 43
4.6
 50
179.9999999999998
  0
INSERT
  5
3E8
330
3E0
100
AcDbEntity
  8
6
  6
Continuous
 62
     3
370
     9
100
AcDbBlockReference
  2
_OPEN
 10
228.7410284380829
 20
448.7381070297096
 30
0.0
 41
4.6
 42
4.6
 43
4.6
 50
359.9999999999997
  0
ENDBLK
  5
3E2
330
3E0
100
AcDbEntity
  8
0
100
AcDbBlockEnd
  0
BLOCK
  5
3F6
330
3F5
100
AcDbEntity
  8
0
100
AcDbBlockBegin
  2
Dim4
 70
     0
 10
0.0
 20
0.0
 30
0.0
  3
Dim4
  1
Dim4
  0
LINE
  5
3F8
330
3F5
100
AcDbEntity
  8
6
  6
Continuous
 62
     3
370
     9
100
AcDbLine
 10
117.9145362218097
 20
212.6060903541103
 30
0.0
 11
101.0188458322024
 21
212.6060903541103
 31
0.0
  0
LINE
  5
3F9
330
3F5
100
AcDbEntity
  8
6
  6
Continuous
 62
     3
370
     9
100
AcDbLine
 10
197.8910284380837
 20
431.6460903541118
 30
0.0
 11
101.0188458322024
 21
431.6460903541121
 31
0.0
  0
LINE
  5
3FA
330
3F5
100
AcDbEntity
  8
6
  6
Continuous
 62
     3
370
     9
100
AcDbLine
 10
103.0188458322024
 20
212.6060903541103
 30
0.0
 11
103.0188458322024
 21
431.6460903541121
 31
0.0
  0
MTEXT
  5
3FB
330
3F5
100
AcDbEntity
  8
6
  6
Continuous
 62
     3
370
     9
100
AcDbMText
 10
102.4188458322024
 20
322.1260903541112
 30
0.0
 40
6.6
 41
121.737
 46
6.6
 71
     8
 72
     1
  1
(219)
  7
ＭＳ Ｐゴシック
 11
1.615544574432587E-15
 21
1.0
 31
0.0
 73
     1
 44
1.0
1001
ACAD
1000
ACAD_MTEXT_DEFINED_HEIGHT_BEGIN
1070
    46
1040
6.6
1000
ACAD_MTEXT_DEFINED_HEIGHT_END
  0
INSERT
  5
3FC
330
3F5
100
AcDbEntity
  8
6
  6
Continuous
 62
     3
370
     9
100
AcDbBlockReference
  2
_OPEN
 10
103.0188458322024
 20
212.6060903541103
 30
0.0
 41
4.6
 42
4.6
 43
4.6
 50
269.9999999999998
  0
INSERT
  5
3FD
330
3F5
100
AcDbEntity
  8
6
  6
Continuous
 62
     3
370
     9
100
AcDbBlockReference
  2
_OPEN
 10
103.0188458322024
 20
431.6460903541121
 30
0.0
 41
4.6
 42
4.6
 43
4.6
 50
89.99999999999991
  0
ENDBLK
  5
3F7
330
3F5
100
AcDbEntity
  8
0
100
AcDbBlockEnd
  0
ENDSEC
  0
SECTION
  2
ENTITIES
  0
POLYLINE
  5
E3
330
1F
100
AcDbEntity
  8
12
  6
Continuous
 62
     5
370
    53
100
AcDb2dPolyline
 66
     1
 10
0.0
 20
0.0
 30
0.0
  0
VERTEX
  5
E4
330
E3
100
AcDbEntity
  8
12
  6
Continuous
 62
     5
370
    53
100
AcDbVertex
100
AcDb2dVertex
 10
40.99999999999999
 20
24.03366790327755
 30
0.0
  0
VERTEX
  5
E5
330
E3
100
AcDbEntity
  8
12
  6
Continuous
 62
     5
370
    53
100
AcDbVertex
100
AcDb2dVertex
 10
403.0
 20
24.03366790327755
 30
0.0
  0
VERTEX
  5
E6
330
E3
100
AcDbEntity
  8
12
  6
Continuous
 62
     5
370
    53
100
AcDbVertex
100
AcDb2dVertex
 10
403.0
 20
570.0336679032775
 30
0.0
  0
VERTEX
  5
E7
330
E3
100
AcDbEntity
  8
12
  6
Continuous
 62
     5
370
    53
100
AcDbVertex
100
AcDb2dVertex
 10
40.99999999999999
 20
570.0336679032775
 30
0.0
  0
VERTEX
  5
E8
330
E3
100
AcDbEntity
  8
12
  6
Continuous
 62
     5
370
    53
100
AcDbVertex
100
AcDb2dVertex
 10
40.99999999999999
 20
24.03366790327755
 30
0.0
  0
SEQEND
  5
E9
330
E3
100
AcDbEntity
  8
12
  6
Continuous
 62
     5
370
    53
  0
ARC
  5
EA
330
1F
100
AcDbEntity
  8
9
  6
Continuous
 62
     7
370
    35
100
AcDbCircle
 10
331.7057735844804
 20
234.8676611714134
 30
0.0
 40
16.2615708173031
100
AcDbArc
 50
244.5030709240425
 51
295.4969290759568
  0
ARC
  5
EB
330
1F
100
AcDbEntity
  8
9
  6
Continuous
 62
     7
370
    35
100
AcDbCircle
 10
317.7057735844803
 20
234.8676611714134
 30
0.0
 40
16.2615708173031
100
AcDbArc
 50
244.5030709240425
 51
295.4969290759568
  0
ARC
  5
EC
330
1F
100
AcDbEntity
  8
9
  6
Continuous
 62
     7
370
    35
100
AcDbCircle
 10
331.7057735844804
 20
212.3445195368072
 30
0.0
 40
16.2615708173031
100
AcDbArc
 50
64.50307092404285
 51
115.4969290759572
  0
LINE
  5
ED
330
1F
100
AcDbEntity
  8
8
  6
Continuous
 62
     4
370
    25
100
AcDbLine
 10
338.06908608448
 20
230.5060903541104
 30
0.0
 11
311.3424610844806
 21
230.5060903541101
 31
0.0
  0
ARC
  5
EE
330
1F
100
AcDbEntity
  8
9
  6
Continuous
 62
     7
370
    35
100
AcDbCircle
 10
317.7057735844803
 20
212.3445195368072
 30
0.0
 40
16.2615708173031
100
AcDbArc
 50
64.50307092404285
 51
115.4969290759572
  0
LINE
  5
EF
330
1F
100
AcDbEntity
  8
8
  6
Continuous
 62
     4
370
    25
100
AcDbLine
 10
312.50446108448
 20
230.5060903541104
 30
0.0
 11
311.3039137701801
 21
229.2725762965071
 31
0.0
  0
LINE
  5
F0
330
1F
100
AcDbEntity
  8
9
  6
Continuous
 62
     7
370
    35
100
AcDbLine
 10
311.4705860844799
 20
234.6060903541103
 30
0.0
 11
311.2830860844799
 21
228.6060903541103
 31
0.0
  0
LINE
  5
F1
330
1F
100
AcDbEntity
  8
8
  6
Continuous
 62
     4
370
    25
100
AcDbLine
 10
312.6325860844802
 20
234.6060903541103
 30
0.0
 11
312.50446108448
 21
230.5060903541104
 31
0.0
  0
LINE
  5
F2
330
1F
100
AcDbEntity
  8
9
  6
Continuous
 62
     7
370
    35
100
AcDbLine
 10
338.1284610844798
 20
228.6060903541103
 30
0.0
 11
337.9409610844798
 21
234.6060903541103
 31
0.0
  0
LINE
  5
F3
330
1F
100
AcDbEntity
  8
8
  6
Continuous
 62
     4
370
    25
100
AcDbLine
 10
336.7789610844804
 20
234.6060903541103
 30
0.0
 11
336.9070860844806
 21
230.5060903541104
 31
0.0
  0
LINE
  5
F4
330
1F
100
AcDbEntity
  8
8
  6
Continuous
 62
     4
370
    25
100
AcDbLine
 10
336.9070860844806
 20
230.5060903541104
 30
0.0
 11
338.1076333987805
 21
229.2725762965071
 31
0.0
  0
LINE
  5
F5
330
1F
100
AcDbEntity
  8
3
  6
DASHDOT
 62
     1
370
    25
100
AcDbLine
 10
258.3251914008185
 20
268.6060903541106
 30
0.0
 11
359.451571273913
 21
268.6060903541106
 31
0.0
  0
ARC
  5
F6
330
1F
100
AcDbEntity
  8
4
  6
PHANTOM
 62
     2
370
    25
100
AcDbCircle
 10
294.2057735844817
 20
272.6060903541104
 30
0.0
 40
2.0
100
AcDbArc
 50
89.99999999999991
 51
179.9999999999998
  0
ARC
  5
F7
330
1F
100
AcDbEntity
  8
4
  6
PHANTOM
 62
     2
370
    25
100
AcDbCircle
 10
294.2057735844817
 20
264.6060903541104
 30
0.0
 40
2.0
100
AcDbArc
 50
179.9999999999998
 51
269.9999999999998
  0
LINE
  5
F8
330
1F
100
AcDbEntity
  8
8
  6
Continuous
 62
     4
370
    25
100
AcDbLine
 10
311.3440235844805
 20
307.6060903541115
 30
0.0
 11
338.0675235844803
 21
307.6060903541115
 31
0.0
  0
LINE
  5
F9
330
1F
100
AcDbEntity
  8
8
  6
Continuous
 62
     4
370
    25
100
AcDbLine
 10
312.6242882903625
 20
307.6060903541115
 30
0.0
 11
311.2707618149554
 21
309.9504669789064
 31
0.0
  0
LINE
  5
FA
330
1F
100
AcDbEntity
  8
9
  6
Continuous
 62
     7
370
    35
100
AcDbLine
 10
311.2355860844805
 20
311.0760903541116
 30
0.0
 11
311.5002735844805
 21
302.6060903541116
 31
0.0
  0
LINE
  5
FB
330
1F
100
AcDbEntity
  8
8
  6
Continuous
 62
     4
370
    25
100
AcDbLine
 10
312.7805382903628
 20
302.6060903541116
 30
0.0
 11
312.6242882903625
 21
307.6060903541115
 31
0.0
  0
LINE
  5
FC
330
1F
100
AcDbEntity
  8
9
  6
Continuous
 62
     7
370
    35
100
AcDbLine
 10
337.9112735844803
 20
302.6060903541116
 30
0.0
 11
338.1759610844804
 21
311.0760903541116
 31
0.0
  0
LINE
  5
FD
330
1F
100
AcDbEntity
  8
8
  6
Continuous
 62
     4
370
    25
100
AcDbLine
 10
336.7872588785981
 20
307.6060903541115
 30
0.0
 11
336.6310088785983
 21
302.6060903541116
 31
0.0
  0
LINE
  5
FE
330
1F
100
AcDbEntity
  8
8
  6
Continuous
 62
     4
370
    25
100
AcDbLine
 10
338.1407853540052
 20
309.9504669789064
 30
0.0
 11
336.7872588785981
 21
307.6060903541115
 31
0.0
  0
LINE
  5
FF
330
1F
100
AcDbEntity
  8
9
  6
Continuous
 62
     7
370
    35
100
AcDbLine
 10
324.7057735844803
 20
352.0460903541119
 30
0.0
 11
323.2057735844803
 21
353.5460903541119
 31
0.0
  0
LINE
  5
100
330
1F
100
AcDbEntity
  8
9
  6
Continuous
 62
     7
370
    35
100
AcDbLine
 10
324.7057735844803
 20
352.0460903541119
 30
0.0
 11
326.2057735844803
 21
353.5460903541119
 31
0.0
  0
ARC
  5
101
330
1F
100
AcDbEntity
  8
9
  6
Continuous
 62
     7
370
    35
100
AcDbCircle
 10
324.7057735844803
 20
355.546090354112
 30
0.0
 40
6.0
100
AcDbArc
 50
324.2495596439048
 51
215.7504403560944
  0
CIRCLE
  5
102
330
1F
100
AcDbEntity
  8
9
  6
Continuous
 62
     7
370
    35
100
AcDbCircle
 10
324.7057735844803
 20
355.546090354112
 30
0.0
 40
5.0
  0
ARC
  5
103
330
1F
100
AcDbEntity
  8
9
  6
Continuous
 62
     7
370
    35
100
AcDbCircle
 10
324.7057735844803
 20
355.546090354112
 30
0.0
 40
8.0
100
AcDbArc
 50
299.1895169091065
 51
240.8104830908927
  0
LINE
  5
104
330
1F
100
AcDbEntity
  8
9
  6
Continuous
 62
     7
370
    35
100
AcDbLine
 10
316.2057735844801
 20
365.9017527868144
 30
0.0
 11
316.2057735844803
 21
345.6904279214101
 31
0.0
  0
LINE
  5
105
330
1F
100
AcDbEntity
  8
9
  6
Continuous
 62
     7
370
    35
100
AcDbLine
 10
333.2057735844803
 20
365.9017527868144
 30
0.0
 11
333.2057735844803
 21
345.6904279214094
 31
0.0
  0
LINE
  5
106
330
1F
100
AcDbEntity
  8
9
  6
Continuous
 62
     7
370
    35
100
AcDbLine
 10
342.7057735844805
 20
330.5460903541116
 30
0.0
 11
342.7057735844808
 21
355.5460903541119
 31
0.0
  0
LINE
  5
107
330
1F
100
AcDbEntity
  8
9
  6
Continuous
 62
     7
370
    35
100
AcDbLine
 10
306.7057735844803
 20
355.5460903541118
 30
0.0
 11
306.7057735844803
 21
330.5460903541116
 31
0.0
  0
LINE
  5
108
330
1F
100
AcDbEntity
  8
9
  6
Continuous
 62
     7
370
    35
100
AcDbLine
 10
306.7057735844803
 20
330.5460903541116
 30
0.0
 11
342.7057735844805
 21
330.5460903541116
 31
0.0
  0
LINE
  5
109
330
1F
100
AcDbEntity
  8
9
  6
Continuous
 62
     7
370
    35
100
AcDbLine
 10
321.6493142698071
 20
331.987376063163
 30
0.0
 11
320.7746772997652
 21
349.314989723122
 31
0.0
  0
LINE
  5
10A
330
1F
100
AcDbEntity
  8
9
  6
Continuous
 62
     7
370
    35
100
AcDbLine
 10
327.7622328991536
 20
331.987376063163
 30
0.0
 11
328.6368698691954
 21
349.314989723122
 31
0.0
  0
ARC
  5
10B
330
1F
100
AcDbEntity
  8
9
  6
Continuous
 62
     7
370
    35
100
AcDbCircle
 10
326.2633824623058
 20
332.046090354112
 30
0.0
 40
1.5
100
AcDbArc
 50
269.9999999999998
 51
357.7567061899668
  0
LINE
  5
10C
330
1F
100
AcDbEntity
  8
8
  6
Continuous
 62
     4
370
    25
100
AcDbLine
 10
338.0675235844803
 20
325.5460903541116
 30
0.0
 11
311.3440235844805
 21
325.5460903541116
 31
0.0
  0
LINE
  5
10D
330
1F
100
AcDbEntity
  8
9
  6
Continuous
 62
     7
370
    35
100
AcDbLine
 10
323.1481647066548
 20
330.5460903541119
 30
0.0
 11
324.7057735844803
 21
330.5460903541119
 31
0.0
  0
LINE
  5
10E
330
1F
100
AcDbEntity
  8
9
  6
Continuous
 62
     7
370
    35
100
AcDbLine
 10
326.2633824623058
 20
330.5460903541119
 30
0.0
 11
324.7057735844803
 21
330.5460903541119
 31
0.0
  0
ARC
  5
10F
330
1F
100
AcDbEntity
  8
9
  6
Continuous
 62
     7
370
    35
100
AcDbCircle
 10
323.1481647066548
 20
332.046090354112
 30
0.0
 40
1.5
100
AcDbArc
 50
182.2432938100325
 51
269.9999999999998
  0
LINE
  5
110
330
1F
100
AcDbEntity
  8
8
  6
Continuous
 62
     4
370
    25
100
AcDbLine
 10
311.2707618149554
 20
323.2017137293167
 30
0.0
 11
312.6242882903625
 21
325.5460903541116
 31
0.0
  0
LINE
  5
111
330
1F
100
AcDbEntity
  8
9
  6
Continuous
 62
     7
370
    35
100
AcDbLine
 10
311.5002735844807
 20
330.5460903541116
 30
0.0
 11
311.2355860844805
 21
322.0760903541116
 31
0.0
  0
LINE
  5
112
330
1F
100
AcDbEntity
  8
8
  6
Continuous
 62
     4
370
    25
100
AcDbLine
 10
312.6242882903625
 20
325.5460903541116
 30
0.0
 11
312.7805382903628
 21
330.5460903541116
 31
0.0
  0
LINE
  5
113
330
1F
100
AcDbEntity
  8
9
  6
Continuous
 62
     7
370
    35
100
AcDbLine
 10
338.1759610844804
 20
322.0760903541116
 30
0.0
 11
337.9112735844803
 21
330.5460903541116
 31
0.0
  0
LINE
  5
114
330
1F
100
AcDbEntity
  8
8
  6
Continuous
 62
     4
370
    25
100
AcDbLine
 10
336.6310088785981
 20
330.5460903541116
 30
0.0
 11
336.7872588785981
 21
325.5460903541116
 31
0.0
  0
LINE
  5
115
330
1F
100
AcDbEntity
  8
8
  6
Continuous
 62
     4
370
    25
100
AcDbLine
 10
336.7872588785981
 20
325.5460903541116
 30
0.0
 11
338.1407853540052
 21
323.2017137293167
 31
0.0
  0
ARC
  5
116
330
1F
100
AcDbEntity
  8
9
  6
Continuous
 62
     7
370
    35
100
AcDbCircle
 10
315.7785091769397
 20
349.1192754199585
 30
0.0
 40
5.0
100
AcDbArc
 50
2.24329381003288
 51
35.75044035609468
  0
LINE
  5
117
330
1F
100
AcDbEntity
  8
9
  6
Continuous
 62
     7
370
    35
100
AcDbLine
 10
320.9649180789743
 20
345.5460903541119
 30
0.0
 11
316.4557735844817
 21
345.5460903541119
 31
0.0
  0
ARC
  5
118
330
1F
100
AcDbEntity
  8
9
  6
Continuous
 62
     7
370
    35
100
AcDbCircle
 10
320.4557735844803
 20
357.8865712750055
 30
0.0
 40
12.19614335359597
100
AcDbArc
 50
254.9843776576959
 51
272.3558821336543
  0
LINE
  5
119
330
1F
100
AcDbEntity
  8
9
  6
Continuous
 62
     7
370
    35
100
AcDbLine
 10
316.4557735844803
 20
345.5460903541126
 30
0.0
 11
316.2057735844801
 21
345.6904279214101
 31
0.0
  0
LINE
  5
11A
330
1F
100
AcDbEntity
  8
9
  6
Continuous
 62
     7
370
    35
100
AcDbLine
 10
316.2057735844803
 20
346.1068625476445
 30
0.0
 11
317.2959674195386
 21
346.1068625476445
 31
0.0
  0
LINE
  5
11B
330
1F
100
AcDbEntity
  8
9
  6
Continuous
 62
     7
370
    35
100
AcDbLine
 10
317.2959674195386
 20
352.5303362862227
 30
0.0
 11
317.2959674195386
 21
346.1068625476445
 31
0.0
  0
ARC
  5
11C
330
1F
100
AcDbEntity
  8
9
  6
Continuous
 62
     7
370
    35
100
AcDbCircle
 10
333.6330379920207
 20
349.1192754199585
 30
0.0
 40
5.0
100
AcDbArc
 50
144.2495596439053
 51
177.7567061899671
  0
LINE
  5
11D
330
1F
100
AcDbEntity
  8
9
  6
Continuous
 62
     7
370
    35
100
AcDbLine
 10
332.9557735844803
 20
345.5460903541119
 30
0.0
 11
333.2057735844803
 21
345.6904279214094
 31
0.0
  0
LINE
  5
11E
330
1F
100
AcDbEntity
  8
9
  6
Continuous
 62
     7
370
    35
100
AcDbLine
 10
333.2057735844803
 20
346.1068625476445
 30
0.0
 11
332.1155797494221
 21
346.1068625476445
 31
0.0
  0
ARC
  5
11F
330
1F
100
AcDbEntity
  8
9
  6
Continuous
 62
     7
370
    35
100
AcDbCircle
 10
328.9557735844803
 20
357.8865712750055
 30
0.0
 40
12.19614335359597
100
AcDbArc
 50
267.6441178663446
 51
285.0156223423033
  0
LINE
  5
120
330
1F
100
AcDbEntity
  8
9
  6
Continuous
 62
     7
370
    35
100
AcDbLine
 10
332.9557735844803
 20
345.5460903541119
 30
0.0
 11
328.4466290899863
 21
345.5460903541119
 31
0.0
  0
LINE
  5
121
330
1F
100
AcDbEntity
  8
9
  6
Continuous
 62
     7
370
    35
100
AcDbLine
 10
332.1155797494221
 20
352.5303362862229
 30
0.0
 11
332.1155797494221
 21
346.1068625476445
 31
0.0
  0
LINE
  5
122
330
1F
100
AcDbEntity
  8
9
  6
Continuous
 62
     7
370
    35
100
AcDbLine
 10
306.7057735844803
 20
380.5460903541118
 30
0.0
 11
306.7057735844803
 21
355.5460903541118
 31
0.0
  0
LINE
  5
123
330
1F
100
AcDbEntity
  8
9
  6
Continuous
 62
     7
370
    35
100
AcDbLine
 10
332.9557735844803
 20
370.0460903541119
 30
0.0
 11
332.9557735844803
 21
378.0460903541118
 31
0.0
  0
LINE
  5
124
330
1F
100
AcDbEntity
  8
9
  6
Continuous
 62
     7
370
    35
100
AcDbLine
 10
316.4557735844801
 20
370.0460903541119
 30
0.0
 11
316.4557735844801
 21
378.0460903541117
 31
0.0
  0
LINE
  5
125
330
1F
100
AcDbEntity
  8
9
  6
Continuous
 62
     7
370
    35
100
AcDbLine
 10
342.7057735844805
 20
355.5460903541119
 30
0.0
 11
342.7057735844805
 21
380.5460903541118
 31
0.0
  0
LINE
  5
126
330
1F
100
AcDbEntity
  8
9
  6
Continuous
 62
     7
370
    35
100
AcDbLine
 10
332.9557735844803
 20
370.0460903541119
 30
0.0
 11
324.7057735844803
 21
370.0460903541119
 31
0.0
  0
LINE
  5
127
330
1F
100
AcDbEntity
  8
9
  6
Continuous
 62
     7
370
    35
100
AcDbLine
 10
332.9557735844803
 20
366.0460903541119
 30
0.0
 11
324.7057735844803
 21
366.0460903541119
 31
0.0
  0
ARC
  5
128
330
1F
100
AcDbEntity
  8
9
  6
Continuous
 62
     7
370
    35
100
AcDbCircle
 10
328.9557735844805
 20
362.2518617200516
 30
0.0
 40
7.794228634060289
100
AcDbArc
 50
70.81186354628392
 51
109.1881364537161
  0
ARC
  5
129
330
1F
100
AcDbEntity
  8
9
  6
Continuous
 62
     7
370
    35
100
AcDbCircle
 10
328.9557735844803
 20
373.8403189881691
 30
0.0
 40
7.794228634057504
100
AcDbArc
 50
250.8118635462694
 51
289.1881364537228
  0
ARC
  5
12A
330
1F
100
AcDbEntity
  8
9
  6
Continuous
 62
     7
370
    35
100
AcDbCircle
 10
328.9557735844803
 20
353.7056451453947
 30
0.0
 40
12.19610764141987
100
AcDbArc
 50
74.98433265447657
 51
105.0156673455234
  0
ARC
  5
12B
330
1F
100
AcDbEntity
  8
9
  6
Continuous
 62
     7
370
    35
100
AcDbCircle
 10
320.4557735844799
 20
362.2518617200516
 30
0.0
 40
7.794228634060289
100
AcDbArc
 50
70.81186354628392
 51
109.1881364537161
  0
LINE
  5
12C
330
1F
100
AcDbEntity
  8
9
  6
Continuous
 62
     7
370
    35
100
AcDbLine
 10
316.4557735844801
 20
370.0460903541119
 30
0.0
 11
324.7057735844803
 21
370.0460903541119
 31
0.0
  0
LINE
  5
12D
330
1F
100
AcDbEntity
  8
9
  6
Continuous
 62
     7
370
    35
100
AcDbLine
 10
316.4557735844801
 20
370.0460903541119
 30
0.0
 11
316.2057735844801
 21
369.9017527868144
 31
0.0
  0
LINE
  5
12E
330
1F
100
AcDbEntity
  8
9
  6
Continuous
 62
     7
370
    35
100
AcDbLine
 10
316.2057735844801
 20
369.6130776522197
 30
0.0
 11
317.8940358929897
 21
369.6130776522197
 31
0.0
  0
LINE
  5
12F
330
1F
100
AcDbEntity
  8
9
  6
Continuous
 62
     7
370
    35
100
AcDbLine
 10
323.0175112759694
 20
369.6130776522199
 30
0.0
 11
324.7057735844803
 21
369.6130776522199
 31
0.0
  0
LINE
  5
130
330
1F
100
AcDbEntity
  8
9
  6
Continuous
 62
     7
370
    35
100
AcDbLine
 10
326.3940358929913
 20
369.6130776522199
 30
0.0
 11
324.7057735844803
 21
369.6130776522199
 31
0.0
  0
LINE
  5
131
330
1F
100
AcDbEntity
  8
9
  6
Continuous
 62
     7
370
    35
100
AcDbLine
 10
323.9557735844803
 20
353.5460903541119
 30
0.0
 11
323.9557735844803
 21
355.5460903541119
 31
0.0
  0
LINE
  5
132
330
1F
100
AcDbEntity
  8
9
  6
Continuous
 62
     7
370
    35
100
AcDbLine
 10
325.4557735844803
 20
353.5460903541119
 30
0.0
 11
325.4557735844803
 21
355.5460903541119
 31
0.0
  0
ARC
  5
133
330
1F
100
AcDbEntity
  8
9
  6
Continuous
 62
     7
370
    35
100
AcDbCircle
 10
320.4557735844801
 20
373.8403189881691
 30
0.0
 40
7.794228634057504
100
AcDbArc
 50
250.8118635462764
 51
289.1881364537299
  0
ARC
  5
134
330
1F
100
AcDbEntity
  8
9
  6
Continuous
 62
     7
370
    35
100
AcDbCircle
 10
320.4557735844803
 20
353.7056451453947
 30
0.0
 40
12.19610764141987
100
AcDbArc
 50
74.98433265447657
 51
105.0156673455234
  0
LINE
  5
135
330
1F
100
AcDbEntity
  8
9
  6
Continuous
 62
     7
370
    35
100
AcDbLine
 10
316.4557735844803
 20
366.0460903541119
 30
0.0
 11
324.7057735844803
 21
366.0460903541119
 31
0.0
  0
LINE
  5
136
330
1F
100
AcDbEntity
  8
9
  6
Continuous
 62
     7
370
    35
100
AcDbLine
 10
317.2959674195383
 20
365.4853168980834
 30
0.0
 11
317.2959674195386
 21
358.5618444220012
 31
0.0
  0
POINT
  5
137
330
1F
100
AcDbEntity
  8
9
  6
Continuous
 62
     7
370
    35
100
AcDbPoint
 10
316.2057735844801
 20
365.9017527868144
 30
0.0
  0
LINE
  5
138
330
1F
100
AcDbEntity
  8
9
  6
Continuous
 62
     7
370
    35
100
AcDbLine
 10
316.4557735844803
 20
366.0460903541119
 30
0.0
 11
316.2057735844803
 21
366.1904279214092
 31
0.0
  0
LINE
  5
139
330
1F
100
AcDbEntity
  8
9
  6
Continuous
 62
     7
370
    35
100
AcDbLine
 10
316.2057735844803
 20
365.4853168980834
 30
0.0
 11
317.2959674195386
 21
365.4853168980834
 31
0.0
  0
LINE
  5
13A
330
1F
100
AcDbEntity
  8
9
  6
Continuous
 62
     7
370
    35
100
AcDbLine
 10
316.4557735844803
 20
366.0460903541119
 30
0.0
 11
316.2057735844803
 21
365.9017527868144
 31
0.0
  0
LINE
  5
13B
330
1F
100
AcDbEntity
  8
9
  6
Continuous
 62
     7
370
    35
100
AcDbLine
 10
316.2057735844801
 20
366.479103056004
 30
0.0
 11
317.8940358929901
 21
366.479103056004
 31
0.0
  0
LINE
  5
13C
330
1F
100
AcDbEntity
  8
9
  6
Continuous
 62
     7
370
    35
100
AcDbLine
 10
323.6155797494221
 20
365.4853168980834
 30
0.0
 11
324.7057735844803
 21
365.4853168980834
 31
0.0
  0
LINE
  5
13D
330
1F
100
AcDbEntity
  8
9
  6
Continuous
 62
     7
370
    35
100
AcDbLine
 10
323.0175112759703
 20
366.4791030560042
 30
0.0
 11
324.7057735844803
 21
366.4791030560042
 31
0.0
  0
LINE
  5
13E
330
1F
100
AcDbEntity
  8
9
  6
Continuous
 62
     7
370
    35
100
AcDbLine
 10
323.6155797494214
 20
365.4853168980834
 30
0.0
 11
323.6155797494214
 21
363.4714595822301
 31
0.0
  0
LINE
  5
13F
330
1F
100
AcDbEntity
  8
9
  6
Continuous
 62
     7
370
    35
100
AcDbLine
 10
326.3940358929904
 20
366.4791030560042
 30
0.0
 11
324.7057735844803
 21
366.4791030560042
 31
0.0
  0
LINE
  5
140
330
1F
100
AcDbEntity
  8
9
  6
Continuous
 62
     7
370
    35
100
AcDbLine
 10
325.7959674195386
 20
365.4853168980834
 30
0.0
 11
324.7057735844803
 21
365.4853168980834
 31
0.0
  0
LINE
  5
141
330
1F
100
AcDbEntity
  8
9
  6
Continuous
 62
     7
370
    35
100
AcDbLine
 10
325.7959674195386
 20
365.4853168980834
 30
0.0
 11
325.7959674195386
 21
363.4714595822301
 31
0.0
  0
LINE
  5
142
330
1F
100
AcDbEntity
  8
9
  6
Continuous
 62
     7
370
    35
100
AcDbLine
 10
324.7057735844803
 20
359.0460903541119
 30
0.0
 11
323.2057735844803
 21
357.5460903541119
 31
0.0
  0
LINE
  5
143
330
1F
100
AcDbEntity
  8
9
  6
Continuous
 62
     7
370
    35
100
AcDbLine
 10
323.9557735844803
 20
357.5460903541119
 30
0.0
 11
323.2057735844803
 21
357.5460903541119
 31
0.0
  0
LINE
  5
144
330
1F
100
AcDbEntity
  8
9
  6
Continuous
 62
     7
370
    35
100
AcDbLine
 10
324.7057735844803
 20
359.0460903541119
 30
0.0
 11
326.2057735844803
 21
357.5460903541119
 31
0.0
  0
LINE
  5
145
330
1F
100
AcDbEntity
  8
9
  6
Continuous
 62
     7
370
    35
100
AcDbLine
 10
325.4557735844803
 20
357.5460903541119
 30
0.0
 11
326.2057735844803
 21
357.5460903541119
 31
0.0
  0
LINE
  5
146
330
1F
100
AcDbEntity
  8
9
  6
Continuous
 62
     7
370
    35
100
AcDbLine
 10
323.9557735844803
 20
357.5460903541119
 30
0.0
 11
323.9557735844803
 21
355.5460903541119
 31
0.0
  0
LINE
  5
147
330
1F
100
AcDbEntity
  8
9
  6
Continuous
 62
     7
370
    35
100
AcDbLine
 10
325.4557735844803
 20
357.5460903541119
 30
0.0
 11
325.4557735844803
 21
355.5460903541119
 31
0.0
  0
LINE
  5
148
330
1F
100
AcDbEntity
  8
9
  6
Continuous
 62
     7
370
    35
100
AcDbLine
 10
323.9557735844803
 20
353.5460903541119
 30
0.0
 11
323.2057735844803
 21
353.5460903541119
 31
0.0
  0
LINE
  5
149
330
1F
100
AcDbEntity
  8
9
  6
Continuous
 62
     7
370
    35
100
AcDbLine
 10
325.4557735844803
 20
353.5460903541119
 30
0.0
 11
326.2057735844803
 21
353.5460903541119
 31
0.0
  0
LINE
  5
14A
330
1F
100
AcDbEntity
  8
9
  6
Continuous
 62
     7
370
    35
100
AcDbLine
 10
317.8940358929904
 20
369.6130776522199
 30
0.0
 11
317.8940358929904
 21
366.479103056004
 31
0.0
  0
LINE
  5
14B
330
1F
100
AcDbEntity
  8
9
  6
Continuous
 62
     7
370
    35
100
AcDbLine
 10
316.2057735844801
 20
369.9017527868144
 30
0.0
 11
316.2057735844801
 21
366.1904279214092
 31
0.0
  0
LINE
  5
14C
330
1F
100
AcDbEntity
  8
9
  6
Continuous
 62
     7
370
    35
100
AcDbLine
 10
323.0175112759694
 20
369.6130776522199
 30
0.0
 11
323.0175112759694
 21
366.4791030560042
 31
0.0
  0
LINE
  5
14D
330
1F
100
AcDbEntity
  8
9
  6
Continuous
 62
     7
370
    35
100
AcDbLine
 10
326.3940358929913
 20
369.6130776522199
 30
0.0
 11
326.3940358929913
 21
366.4791030560042
 31
0.0
  0
LINE
  5
14E
330
1F
100
AcDbEntity
  8
9
  6
Continuous
 62
     7
370
    35
100
AcDbLine
 10
332.9557735844803
 20
370.0460903541119
 30
0.0
 11
333.2057735844801
 21
369.9017527868144
 31
0.0
  0
LINE
  5
14F
330
1F
100
AcDbEntity
  8
9
  6
Continuous
 62
     7
370
    35
100
AcDbLine
 10
333.2057735844803
 20
369.6130776522197
 30
0.0
 11
331.5175112759709
 21
369.6130776522197
 31
0.0
  0
LINE
  5
150
330
1F
100
AcDbEntity
  8
9
  6
Continuous
 62
     7
370
    35
100
AcDbLine
 10
332.1155797494221
 20
365.4853168980834
 30
0.0
 11
332.1155797494221
 21
358.5618444220009
 31
0.0
  0
POINT
  5
151
330
1F
100
AcDbEntity
  8
9
  6
Continuous
 62
     7
370
    35
100
AcDbPoint
 10
333.2057735844803
 20
365.9017527868144
 30
0.0
  0
LINE
  5
152
330
1F
100
AcDbEntity
  8
9
  6
Continuous
 62
     7
370
    35
100
AcDbLine
 10
333.2057735844803
 20
365.4853168980834
 30
0.0
 11
332.1155797494221
 21
365.4853168980834
 31
0.0
  0
LINE
  5
153
330
1F
100
AcDbEntity
  8
9
  6
Continuous
 62
     7
370
    35
100
AcDbLine
 10
332.9557735844803
 20
366.0460903541119
 30
0.0
 11
333.2057735844801
 21
366.1904279214092
 31
0.0
  0
LINE
  5
154
330
1F
100
AcDbEntity
  8
9
  6
Continuous
 62
     7
370
    35
100
AcDbLine
 10
333.2057735844801
 20
366.4791030560042
 30
0.0
 11
331.5175112759705
 21
366.4791030560042
 31
0.0
  0
LINE
  5
155
330
1F
100
AcDbEntity
  8
9
  6
Continuous
 62
     7
370
    35
100
AcDbLine
 10
332.9557735844803
 20
366.0460903541119
 30
0.0
 11
333.2057735844803
 21
365.9017527868144
 31
0.0
  0
LINE
  5
156
330
1F
100
AcDbEntity
  8
9
  6
Continuous
 62
     7
370
    35
100
AcDbLine
 10
331.51751127597
 20
369.6130776522199
 30
0.0
 11
331.51751127597
 21
366.479103056004
 31
0.0
  0
LINE
  5
157
330
1F
100
AcDbEntity
  8
9
  6
Continuous
 62
     7
370
    35
100
AcDbLine
 10
333.2057735844801
 20
369.9017527868144
 30
0.0
 11
333.2057735844801
 21
366.1904279214092
 31
0.0
  0
LINE
  5
158
330
1F
100
AcDbEntity
  8
9
  6
Continuous
 62
     7
370
    35
100
AcDbLine
 10
332.9557735844803
 20
378.0460903541118
 30
0.0
 11
324.7057735844803
 21
378.0460903541117
 31
0.0
  0
LINE
  5
159
330
1F
100
AcDbEntity
  8
9
  6
Continuous
 62
     7
370
    35
100
AcDbLine
 10
332.9557735844803
 20
378.0460903541118
 30
0.0
 11
324.7057735844803
 21
378.0460903541118
 31
0.0
  0
LINE
  5
15A
330
1F
100
AcDbEntity
  8
9
  6
Continuous
 62
     7
370
    35
100
AcDbLine
 10
316.4557735844803
 20
378.0460903541117
 30
0.0
 11
324.7057735844803
 21
378.0460903541117
 31
0.0
  0
LINE
  5
15B
330
1F
100
AcDbEntity
  8
9
  6
Continuous
 62
     7
370
    35
100
AcDbLine
 10
316.4557735844801
 20
378.0460903541117
 30
0.0
 11
324.7057735844803
 21
378.0460903541117
 31
0.0
  0
ARC
  5
15C
330
1F
100
AcDbEntity
  8
4
  6
PHANTOM
 62
     2
370
    25
100
AcDbCircle
 10
355.2057735844817
 20
272.6060903541104
 30
0.0
 40
2.0
100
AcDbArc
 50
0.0
 51
89.99999999999991
  0
ARC
  5
15D
330
1F
100
AcDbEntity
  8
4
  6
PHANTOM
 62
     2
370
    25
100
AcDbCircle
 10
355.2057735844817
 20
264.6060903541104
 30
0.0
 40
2.0
100
AcDbArc
 50
269.9999999999998
 51
0.0
  0
INSERT
  5
163
330
1F
100
AcDbEntity
  8
0
100
AcDbBlockReference
  2
*G16
 10
0.0
 20
0.0
 30
0.0
  0
INSERT
  5
169
330
1F
100
AcDbEntity
  8
0
100
AcDbBlockReference
  2
*G17
 10
0.0
 20
0.0
 30
0.0
  0
ARC
  5
16A
330
1F
100
AcDbEntity
  8
6
  6
Continuous
 62
     3
370
    25
100
AcDbCircle
 10
324.7057735844803
 20
268.6060903541106
 30
0.0
 40
64.38058218366166
100
AcDbArc
 50
179.9999999999998
 51
269.9999999999995
  0
ARC
  5
16B
330
1F
100
AcDbEntity
  8
9
  6
Continuous
 62
     7
370
    35
100
AcDbCircle
 10
324.7057735844803
 20
398.1585903541117
 30
0.0
 40
16.1125000000001
100
AcDbArc
 50
244.2499968807762
 51
295.7500031192231
  0
ARC
  5
16C
330
1F
100
AcDbEntity
  8
9
  6
Continuous
 62
     7
370
    35
100
AcDbCircle
 10
308.8057735844802
 20
390.1460903541116
 30
0.0
 40
1.600000000000023
100
AcDbArc
 50
179.9999999999998
 51
269.9999999999998
  0
ARC
  5
16D
330
1F
100
AcDbEntity
  8
9
  6
Continuous
 62
     7
370
    35
100
AcDbCircle
 10
308.8057735844802
 20
429.9460903541116
 30
0.0
 40
1.600000000000023
100
AcDbArc
 50
89.99999999999991
 51
179.9999999999998
  0
ARC
  5
16E
330
1F
100
AcDbEntity
  8
9
  6
Continuous
 62
     7
370
    35
100
AcDbCircle
 10
332.4057735844801
 20
430.4460903541116
 30
0.0
 40
0.799999999999983
100
AcDbArc
 50
0.0
 51
89.99999999999991
  0
ARC
  5
16F
330
1F
100
AcDbEntity
  8
9
  6
Continuous
 62
     7
370
    35
100
AcDbCircle
 10
332.4057735844801
 20
389.6460903541116
 30
0.0
 40
0.799999999999983
100
AcDbArc
 50
269.9999999999998
 51
0.0
  0
LINE
  5
170
330
1F
100
AcDbEntity
  8
9
  6
Continuous
 62
     7
370
    35
100
AcDbLine
 10
331.3755395741698
 20
378.0460903541117
 30
0.0
 11
331.4557735844803
 21
380.0460903541117
 31
0.0
  0
LINE
  5
171
330
1F
100
AcDbEntity
  8
9
  6
Continuous
 62
     7
370
    35
100
AcDbLine
 10
317.9557735844803
 20
380.0460903541117
 30
0.0
 11
318.0360075947906
 21
378.0460903541117
 31
0.0
  0
LINE
  5
172
330
1F
100
AcDbEntity
  8
9
  6
Continuous
 62
     7
370
    35
100
AcDbLine
 10
331.4557735844803
 20
380.0460903541117
 30
0.0
 11
331.4557735844803
 21
382.0460903541117
 31
0.0
  0
LINE
  5
173
330
1F
100
AcDbEntity
  8
9
  6
Continuous
 62
     7
370
    35
100
AcDbLine
 10
317.9557735844803
 20
380.0460903541117
 30
0.0
 11
331.4557735844803
 21
380.0460903541117
 31
0.0
  0
LINE
  5
174
330
1F
100
AcDbEntity
  8
9
  6
Continuous
 62
     7
370
    35
100
AcDbLine
 10
317.9557735844803
 20
382.0460903541117
 30
0.0
 11
317.9557735844803
 21
380.0460903541117
 31
0.0
  0
LINE
  5
175
330
1F
100
AcDbEntity
  8
9
  6
Continuous
 62
     7
370
    35
100
AcDbLine
 10
317.7057735844803
 20
382.0460903541117
 30
0.0
 11
331.7057735844803
 21
382.0460903541117
 31
0.0
  0
LINE
  5
176
330
1F
100
AcDbEntity
  8
9
  6
Continuous
 62
     7
370
    35
100
AcDbLine
 10
317.7057735844803
 20
389.1846426574631
 30
0.0
 11
317.7057735844803
 21
382.0460903541117
 31
0.0
  0
LINE
  5
177
330
1F
100
AcDbEntity
  8
9
  6
Continuous
 62
     7
370
    35
100
AcDbLine
 10
317.7057735844803
 20
382.0460903541117
 30
0.0
 11
331.7057735844803
 21
382.0460903541117
 31
0.0
  0
LINE
  5
178
330
1F
100
AcDbEntity
  8
9
  6
Continuous
 62
     7
370
    35
100
AcDbLine
 10
331.7057735844803
 20
382.0460903541117
 30
0.0
 11
331.7057735844803
 21
389.1846426574631
 31
0.0
  0
LINE
  5
179
330
1F
100
AcDbEntity
  8
9
  6
Continuous
 62
     7
370
    35
100
AcDbLine
 10
316.2057735844803
 20
431.5460903541117
 30
0.0
 11
308.8057735844802
 21
431.5460903541117
 31
0.0
  0
LINE
  5
17A
330
1F
100
AcDbEntity
  8
9
  6
Continuous
 62
     7
370
    35
100
AcDbLine
 10
307.2057735844803
 20
429.9460903541116
 30
0.0
 11
307.2057735844803
 21
390.1460903541116
 31
0.0
  0
LINE
  5
17B
330
1F
100
AcDbEntity
  8
9
  6
Continuous
 62
     7
370
    35
100
AcDbLine
 10
308.8057735844802
 20
388.5460903541117
 30
0.0
 11
316.2057735844803
 21
388.5460903541117
 31
0.0
  0
LINE
  5
17C
330
1F
100
AcDbEntity
  8
9
  6
Continuous
 62
     7
370
    35
100
AcDbLine
 10
316.2057735844803
 20
388.5460903541117
 30
0.0
 11
316.2057735844803
 21
431.5460903541117
 31
0.0
  0
LINE
  5
17D
330
1F
100
AcDbEntity
  8
9
  6
Continuous
 62
     7
370
    35
100
AcDbLine
 10
317.7057735844803
 20
389.1846426574631
 30
0.0
 11
331.7057735844803
 21
389.1846426574631
 31
0.0
  0
LINE
  5
17E
330
1F
100
AcDbEntity
  8
9
  6
Continuous
 62
     7
370
    35
100
AcDbLine
 10
316.2057735844803
 20
431.2460903541115
 30
0.0
 11
332.4057735844801
 21
431.2460903541115
 31
0.0
  0
LINE
  5
17F
330
1F
100
AcDbEntity
  8
9
  6
Continuous
 62
     7
370
    35
100
AcDbLine
 10
316.2057735844803
 20
388.8460903541117
 30
0.0
 11
317.7057735844803
 21
388.8460903541117
 31
0.0
  0
LINE
  5
180
330
1F
100
AcDbEntity
  8
9
  6
Continuous
 62
     7
370
    35
100
AcDbLine
 10
332.4057735844801
 20
388.8460903541117
 30
0.0
 11
331.7057735844803
 21
388.8460903541117
 31
0.0
  0
LINE
  5
181
330
1F
100
AcDbEntity
  8
9
  6
Continuous
 62
     7
370
    35
100
AcDbLine
 10
333.2057735844803
 20
430.4460903541116
 30
0.0
 11
333.2057735844803
 21
389.6460903541116
 31
0.0
  0
LINE
  5
182
330
1F
100
AcDbEntity
  8
8
  6
Continuous
 62
     4
370
    25
100
AcDbLine
 10
317.9557735844803
 20
381.2321987471349
 30
0.0
 11
318.6405735844803
 21
380.0460903541117
 31
0.0
  0
LINE
  5
183
330
1F
100
AcDbEntity
  8
8
  6
Continuous
 62
     4
370
    25
100
AcDbLine
 10
331.4557735844803
 20
381.2321987471349
 30
0.0
 11
330.7709735844803
 21
380.0460903541117
 31
0.0
  0
LINE
  5
184
330
1F
100
AcDbEntity
  8
8
  6
Continuous
 62
     4
370
    25
100
AcDbLine
 10
318.6405735844803
 20
380.0460903541117
 30
0.0
 11
318.723168902206
 21
378.0460903541117
 31
0.0
  0
LINE
  5
185
330
1F
100
AcDbEntity
  8
8
  6
Continuous
 62
     4
370
    25
100
AcDbLine
 10
330.7709735844803
 20
380.0460903541117
 30
0.0
 11
330.6883782667546
 21
378.0460903541117
 31
0.0
  0
LINE
  5
186
330
1F
100
AcDbEntity
  8
9
  6
Continuous
 62
     7
370
    35
100
AcDbLine
 10
317.9557735844803
 20
380.5460903541118
 30
0.0
 11
306.7057735844803
 21
380.5460903541118
 31
0.0
  0
LINE
  5
187
330
1F
100
AcDbEntity
  8
9
  6
Continuous
 62
     7
370
    35
100
AcDbLine
 10
342.7057735844805
 20
380.5460903541118
 30
0.0
 11
331.4557735844803
 21
380.5460903541118
 31
0.0
  0
LINE
  5
188
330
1F
100
AcDbEntity
  8
9
  6
Continuous
 62
     7
370
    35
100
AcDbLine
 10
316.9956686821065
 20
378.0460903541117
 30
0.0
 11
332.9557735844803
 21
378.0460903541117
 31
0.0
  0
LINE
  5
189
330
1F
100
AcDbEntity
  8
8
  6
Continuous
 62
     4
370
    25
100
AcDbLine
 10
311.3424610844797
 20
216.7060903541102
 30
0.0
 11
338.0690860844791
 21
216.7060903541102
 31
0.0
  0
LINE
  5
18A
330
1F
100
AcDbEntity
  8
8
  6
Continuous
 62
     4
370
    25
100
AcDbLine
 10
312.5044610844791
 20
216.7060903541102
 30
0.0
 11
311.3039137701792
 21
217.9396044117135
 31
0.0
  0
LINE
  5
18B
330
1F
100
AcDbEntity
  8
8
  6
Continuous
 62
     4
370
    25
100
AcDbLine
 10
336.9070860844797
 20
216.7060903541102
 30
0.0
 11
338.1076333987796
 21
217.9396044117135
 31
0.0
  0
LINE
  5
18C
330
1F
100
AcDbEntity
  8
9
  6
Continuous
 62
     7
370
    35
100
AcDbLine
 10
324.7057735844794
 20
228.6060903541103
 30
0.0
 11
338.1284610844789
 21
228.6060903541103
 31
0.0
  0
LINE
  5
18D
330
1F
100
AcDbEntity
  8
9
  6
Continuous
 62
     7
370
    35
100
AcDbLine
 10
311.2830860844799
 20
218.6060903541103
 30
0.0
 11
338.1284610844789
 21
218.6060903541103
 31
0.0
  0
LINE
  5
18E
330
1F
100
AcDbEntity
  8
9
  6
Continuous
 62
     7
370
    35
100
AcDbLine
 10
324.7057735844794
 20
228.6060903541103
 30
0.0
 11
311.2830860844816
 21
228.6060903541103
 31
0.0
  0
LINE
  5
18F
330
1F
100
AcDbEntity
  8
9
  6
Continuous
 62
     7
370
    35
100
AcDbLine
 10
338.1284610844789
 20
218.6060903541103
 30
0.0
 11
311.2830860844816
 21
218.6060903541103
 31
0.0
  0
LINE
  5
190
330
1F
100
AcDbEntity
  8
9
  6
Continuous
 62
     7
370
    35
100
AcDbLine
 10
338.7057735844796
 20
227.0223492621502
 30
0.0
 11
338.1284610844789
 21
228.6060903541103
 31
0.0
  0
LINE
  5
191
330
1F
100
AcDbEntity
  8
9
  6
Continuous
 62
     7
370
    35
100
AcDbLine
 10
338.1284610844789
 20
218.6060903541103
 30
0.0
 11
338.7057735844796
 21
220.1898314460703
 31
0.0
  0
LINE
  5
192
330
1F
100
AcDbEntity
  8
9
  6
Continuous
 62
     7
370
    35
100
AcDbLine
 10
310.705773584481
 20
227.0223492621502
 30
0.0
 11
311.2830860844816
 21
228.6060903541103
 31
0.0
  0
LINE
  5
193
330
1F
100
AcDbEntity
  8
9
  6
Continuous
 62
     7
370
    35
100
AcDbLine
 10
311.2830860844816
 20
218.6060903541103
 30
0.0
 11
310.7057735844809
 21
220.1898314460703
 31
0.0
  0
LINE
  5
194
330
1F
100
AcDbEntity
  8
9
  6
Continuous
 62
     7
370
    35
100
AcDbLine
 10
311.2830860844808
 20
218.6060903541103
 30
0.0
 11
338.1284610844789
 21
218.6060903541103
 31
0.0
  0
LINE
  5
195
330
1F
100
AcDbEntity
  8
9
  6
Continuous
 62
     7
370
    35
100
AcDbLine
 10
310.7057735844812
 20
227.0223492621506
 30
0.0
 11
310.7057735844812
 21
220.1898314460736
 31
0.0
  0
LINE
  5
196
330
1F
100
AcDbEntity
  8
9
  6
Continuous
 62
     7
370
    35
100
AcDbLine
 10
324.7057735844805
 20
227.0223492621503
 30
0.0
 11
324.7057735844804
 21
220.1898314460703
 31
0.0
  0
LINE
  5
197
330
1F
100
AcDbEntity
  8
9
  6
Continuous
 62
     7
370
    35
100
AcDbLine
 10
338.7057735844795
 20
227.0223492621507
 30
0.0
 11
338.7057735844814
 21
220.1898314460708
 31
0.0
  0
LINE
  5
198
330
1F
100
AcDbEntity
  8
3
  6
DASHDOT
 62
     1
370
    25
100
AcDbLine
 10
313.7057735844802
 20
355.5460903541119
 30
0.0
 11
335.7057735844803
 21
355.5460903541119
 31
0.0
  0
LINE
  5
199
330
1F
100
AcDbEntity
  8
9
  6
Continuous
 62
     7
370
    35
100
AcDbLine
 10
227.2410284380828
 20
360.5460903541119
 30
0.0
 11
227.8957879123095
 21
360.5460903541119
 31
0.0
  0
LINE
  5
19A
330
1F
100
AcDbEntity
  8
9
  6
Continuous
 62
     7
370
    35
100
AcDbLine
 10
227.2410284380828
 20
350.5460903541119
 30
0.0
 11
227.8957879123095
 21
350.5460903541119
 31
0.0
  0
LINE
  5
19B
330
1F
100
AcDbEntity
  8
9
  6
Continuous
 62
     7
370
    35
100
AcDbLine
 10
156.386237052151
 20
311.0760903541116
 30
0.0
 11
156.386237052151
 21
322.0760903541116
 31
0.0
  0
LINE
  5
19C
330
1F
100
AcDbEntity
  8
9
  6
Continuous
 62
     7
370
    35
100
AcDbLine
 10
119.4358198240149
 20
322.0760903541116
 30
0.0
 11
119.4358198240149
 21
311.0760903541116
 31
0.0
  0
LINE
  5
19D
330
1F
100
AcDbEntity
  8
9
  6
Continuous
 62
     7
370
    35
100
AcDbLine
 10
147.148632745117
 20
311.0760903541116
 30
0.0
 11
147.148632745117
 21
322.0760903541116
 31
0.0
  0
LINE
  5
19E
330
1F
100
AcDbEntity
  8
9
  6
Continuous
 62
     7
370
    35
100
AcDbLine
 10
128.6734241310489
 20
322.0760903541116
 30
0.0
 11
128.6734241310489
 21
311.0760903541116
 31
0.0
  0
LINE
  5
19F
330
1F
100
AcDbEntity
  8
8
  6
Continuous
 62
     4
370
    25
100
AcDbLine
 10
151.3460402076077
 20
309.9504669789064
 30
0.0
 11
149.9925137322006
 21
307.6060903541115
 31
0.0
  0
LINE
  5
1A0
330
1F
100
AcDbEntity
  8
8
  6
Continuous
 62
     4
370
    25
100
AcDbLine
 10
124.549278438083
 20
307.6060903541115
 30
0.0
 11
151.2727784380829
 21
307.6060903541115
 31
0.0
  0
LINE
  5
1A1
330
1F
100
AcDbEntity
  8
9
  6
Continuous
 62
     7
370
    35
100
AcDbLine
 10
119.4358198240149
 20
311.0760903541116
 30
0.0
 11
156.386237052151
 21
311.0760903541116
 31
0.0
  0
LINE
  5
1A2
330
1F
100
AcDbEntity
  8
8
  6
Continuous
 62
     4
370
    25
100
AcDbLine
 10
125.8295431439651
 20
307.6060903541115
 30
0.0
 11
124.476016668558
 21
309.9504669789064
 31
0.0
  0
LINE
  5
1A3
330
1F
100
AcDbEntity
  8
9
  6
Continuous
 62
     7
370
    35
100
AcDbLine
 10
124.440840938083
 20
311.0760903541116
 30
0.0
 11
124.7055284380829
 21
302.6060903541116
 31
0.0
  0
LINE
  5
1A4
330
1F
100
AcDbEntity
  8
8
  6
Continuous
 62
     4
370
    25
100
AcDbLine
 10
125.9857931439653
 20
302.6060903541116
 30
0.0
 11
125.8295431439651
 21
307.6060903541115
 31
0.0
  0
LINE
  5
1A5
330
1F
100
AcDbEntity
  8
8
  6
Continuous
 62
     4
370
    25
100
AcDbLine
 10
149.9925137322006
 20
307.6060903541115
 30
0.0
 11
149.8362637322007
 21
302.6060903541116
 31
0.0
  0
LINE
  5
1A6
330
1F
100
AcDbEntity
  8
9
  6
Continuous
 62
     7
370
    35
100
AcDbLine
 10
151.1165284380829
 20
302.6060903541116
 30
0.0
 11
151.3812159380829
 21
311.0760903541116
 31
0.0
  0
LINE
  5
1A7
330
1F
100
AcDbEntity
  8
9
  6
Continuous
 62
     7
370
    35
100
AcDbLine
 10
155.9110284380831
 20
380.5460903541118
 30
0.0
 11
119.9110284380828
 21
380.5460903541118
 31
0.0
  0
LINE
  5
1A8
330
1F
100
AcDbEntity
  8
9
  6
Continuous
 62
     7
370
    35
100
AcDbLine
 10
119.9110284380828
 20
330.5460903541116
 30
0.0
 11
155.9110284380831
 21
330.5460903541116
 31
0.0
  0
LINE
  5
1A9
330
1F
100
AcDbEntity
  8
8
  6
Continuous
 62
     4
370
    25
100
AcDbLine
 10
149.9925137322006
 20
325.5460903541116
 30
0.0
 11
151.3460402076077
 21
323.2017137293167
 31
0.0
  0
LINE
  5
1AA
330
1F
100
AcDbEntity
  8
8
  6
Continuous
 62
     4
370
    25
100
AcDbLine
 10
151.2727784380829
 20
325.5460903541116
 30
0.0
 11
124.549278438083
 21
325.5460903541116
 31
0.0
  0
LINE
  5
1AB
330
1F
100
AcDbEntity
  8
9
  6
Continuous
 62
     7
370
    35
100
AcDbLine
 10
156.386237052151
 20
322.0760903541116
 30
0.0
 11
119.4358198240149
 21
322.0760903541116
 31
0.0
  0
LINE
  5
1AC
330
1F
100
AcDbEntity
  8
9
  6
Continuous
 62
     7
370
    35
100
AcDbLine
 10
119.9110284380828
 20
355.5460903541118
 30
0.0
 11
119.9110284380828
 21
330.5460903541116
 31
0.0
  0
LINE
  5
1AD
330
1F
100
AcDbEntity
  8
8
  6
Continuous
 62
     4
370
    25
100
AcDbLine
 10
124.476016668558
 20
323.2017137293167
 30
0.0
 11
125.8295431439651
 21
325.5460903541116
 31
0.0
  0
LINE
  5
1AE
330
1F
100
AcDbEntity
  8
9
  6
Continuous
 62
     7
370
    35
100
AcDbLine
 10
124.7055284380831
 20
330.5460903541116
 30
0.0
 11
124.440840938083
 21
322.0760903541116
 31
0.0
  0
LINE
  5
1AF
330
1F
100
AcDbEntity
  8
8
  6
Continuous
 62
     4
370
    25
100
AcDbLine
 10
125.8295431439651
 20
325.5460903541116
 30
0.0
 11
125.9857931439652
 21
330.5460903541116
 31
0.0
  0
LINE
  5
1B0
330
1F
100
AcDbEntity
  8
8
  6
Continuous
 62
     4
370
    25
100
AcDbLine
 10
149.8362637322006
 20
330.5460903541116
 30
0.0
 11
149.9925137322006
 21
325.5460903541116
 31
0.0
  0
LINE
  5
1B1
330
1F
100
AcDbEntity
  8
9
  6
Continuous
 62
     7
370
    35
100
AcDbLine
 10
119.9110284380828
 20
380.5460903541118
 30
0.0
 11
119.9110284380828
 21
355.5460903541118
 31
0.0
  0
LINE
  5
1B2
330
1F
100
AcDbEntity
  8
9
  6
Continuous
 62
     7
370
    35
100
AcDbLine
 10
211.7410284380828
 20
348.0374389856698
 30
0.0
 11
211.7410284380828
 21
355.5460903541119
 31
0.0
  0
LINE
  5
1B3
330
1F
100
AcDbEntity
  8
9
  6
Continuous
 62
     7
370
    35
100
AcDbLine
 10
217.7407869503845
 20
348.7425146933161
 30
0.0
 11
217.7407869503845
 21
355.5460903541119
 31
0.0
  0
ARC
  5
1B4
330
1F
100
AcDbEntity
  8
9
  6
Continuous
 62
     7
370
    35
100
AcDbCircle
 10
213.8793390652349
 20
355.5460898820055
 30
0.0
 40
7.348782531471301
100
AcDbArc
 50
130.3577368868315
 51
228.6940159284603
  0
LINE
  5
1B5
330
1F
100
AcDbEntity
  8
9
  6
Continuous
 62
     7
370
    35
100
AcDbLine
 10
205.4279294303348
 20
365.4687400849222
 30
0.0
 11
205.4279294303348
 21
346.1234406233015
 31
0.0
  0
LINE
  5
1B6
330
1F
100
AcDbEntity
  8
9
  6
Continuous
 62
     7
370
    35
100
AcDbLine
 10
203.5396583179146
 20
365.4687400849222
 30
0.0
 11
203.5396583179146
 21
346.106863162605
 31
0.0
  0
LINE
  5
1B7
330
1F
100
AcDbEntity
  8
9
  6
Continuous
 62
     7
370
    35
100
AcDbLine
 10
178.8910284380829
 20
363.5460903541119
 30
0.0
 11
178.8910284380829
 21
347.5460903541119
 31
0.0
  0
LINE
  5
1B8
330
1F
100
AcDbEntity
  8
9
  6
Continuous
 62
     7
370
    35
100
AcDbLine
 10
179.3910284380829
 20
347.0460903541119
 30
0.0
 11
179.3910284380829
 21
355.5460903541119
 31
0.0
  0
LINE
  5
1B9
330
1F
100
AcDbEntity
  8
9
  6
Continuous
 62
     7
370
    35
100
AcDbLine
 10
190.8910284380829
 20
355.5460903541119
 30
0.0
 11
190.8910284380829
 21
351.5460903541119
 31
0.0
  0
LINE
  5
1BA
330
1F
100
AcDbEntity
  8
9
  6
Continuous
 62
     7
370
    35
100
AcDbLine
 10
227.241028438083
 20
331.7779035534071
 30
0.0
 11
227.2410284380828
 21
355.5460903541119
 31
0.0
  0
LINE
  5
1BB
330
1F
100
AcDbEntity
  8
8
  6
Continuous
 62
     4
370
    25
100
AcDbLine
 10
168.6110284380829
 20
362.2402153541119
 30
0.0
 11
168.6110284380829
 21
348.8519653541118
 31
0.0
  0
LINE
  5
1BC
330
1F
100
AcDbEntity
  8
8
  6
Continuous
 62
     4
370
    25
100
AcDbLine
 10
175.1910284380828
 20
348.8519653541118
 30
0.0
 11
175.1910284380828
 21
362.2402153541119
 31
0.0
  0
LINE
  5
1BD
330
1F
100
AcDbEntity
  8
9
  6
Continuous
 62
     7
370
    35
100
AcDbLine
 10
164.9110284380828
 20
363.2561952564859
 30
0.0
 11
164.9110284380828
 21
347.2561952564859
 31
0.0
  0
LINE
  5
1BE
330
1F
100
AcDbEntity
  8
9
  6
Continuous
 62
     7
370
    35
100
AcDbLine
 10
164.9110284380828
 20
366.5460903541118
 30
0.0
 11
164.9110284380828
 21
344.5460903541118
 31
0.0
  0
LINE
  5
1BF
330
1F
100
AcDbEntity
  8
9
  6
Continuous
 62
     7
370
    35
100
AcDbLine
 10
179.3910284380829
 20
347.0460903541119
 30
0.0
 11
190.6410284380829
 21
347.0460903541119
 31
0.0
  0
LINE
  5
1C0
330
1F
100
AcDbEntity
  8
9
  6
Continuous
 62
     7
370
    35
100
AcDbLine
 10
155.9110284380831
 20
330.5460903541116
 30
0.0
 11
155.9110284380832
 21
342.5460903541118
 31
0.0
  0
LINE
  5
1C1
330
1F
100
AcDbEntity
  8
9
  6
Continuous
 62
     7
370
    35
100
AcDbLine
 10
151.3812159380829
 20
322.0760903541116
 30
0.0
 11
151.1165284380829
 21
330.5460903541116
 31
0.0
  0
LINE
  5
1C2
330
1F
100
AcDbEntity
  8
9
  6
Continuous
 62
     7
370
    35
100
AcDbLine
 10
164.9110284380828
 20
348.9675903541119
 30
0.0
 11
171.9010284380828
 21
348.7491528541119
 31
0.0
  0
LINE
  5
1C3
330
1F
100
AcDbEntity
  8
8
  6
Continuous
 62
     4
370
    25
100
AcDbLine
 10
170.1785061492187
 20
348.8029816756389
 30
0.0
 11
168.6110284380829
 21
349.7079653541118
 31
0.0
  0
ARC
  5
1C4
330
1F
100
AcDbEntity
  8
9
  6
Continuous
 62
     7
370
    35
100
AcDbCircle
 10
157.9110284380832
 20
342.5460903541118
 30
0.0
 40
2.0
100
AcDbArc
 50
89.99999999999991
 51
179.9999999999998
  0
LINE
  5
1C5
330
1F
100
AcDbEntity
  8
8
  6
Continuous
 62
     4
370
    25
100
AcDbLine
 10
168.6110284380829
 20
349.7079653541118
 30
0.0
 11
164.9110284380828
 21
349.8235903541119
 31
0.0
  0
LINE
  5
1C6
330
1F
100
AcDbEntity
  8
9
  6
Continuous
 62
     7
370
    35
100
AcDbLine
 10
157.9110284380832
 20
344.5460903541118
 30
0.0
 11
164.9110284380828
 21
344.5460903541118
 31
0.0
  0
LINE
  5
1C7
330
1F
100
AcDbEntity
  8
9
  6
Continuous
 62
     7
370
    35
100
AcDbLine
 10
179.3910284380829
 20
347.0460903541119
 30
0.0
 11
178.8910284380829
 21
347.5460903541119
 31
0.0
  0
LINE
  5
1C8
330
1F
100
AcDbEntity
  8
8
  6
Continuous
 62
     4
370
    25
100
AcDbLine
 10
178.8910284380826
 20
349.8235903541118
 30
0.0
 11
175.1910284380828
 21
349.7079653541118
 31
0.0
  0
LINE
  5
1C9
330
1F
100
AcDbEntity
  8
8
  6
Continuous
 62
     4
370
    25
100
AcDbLine
 10
175.1910284380828
 20
349.7079653541118
 30
0.0
 11
173.623550726947
 21
348.8029816756389
 31
0.0
  0
LINE
  5
1CA
330
1F
100
AcDbEntity
  8
9
  6
Continuous
 62
     7
370
    35
100
AcDbLine
 10
171.9010284380828
 20
348.7491528541119
 30
0.0
 11
178.8910284380826
 21
348.9675903541119
 31
0.0
  0
LINE
  5
1CB
330
1F
100
AcDbEntity
  8
9
  6
Continuous
 62
     7
370
    35
100
AcDbLine
 10
215.7533776420366
 20
347.4760545382425
 30
0.0
 11
218.5930324739294
 21
331.3715717161389
 31
0.0
  0
ARC
  5
1CC
330
1F
100
AcDbEntity
  8
9
  6
Continuous
 62
     7
370
    35
100
AcDbCircle
 10
226.2410284380828
 20
331.7779035534071
 30
0.0
 40
1.0
100
AcDbArc
 50
272.0000000000032
 51
0.0
  0
ARC
  5
1CD
330
1F
100
AcDbEntity
  8
9
  6
Continuous
 62
     7
370
    35
100
AcDbCircle
 10
219.5778402269415
 20
331.5452198938059
 30
0.0
 40
1.0
100
AcDbArc
 50
189.9999999999982
 51
272.0000000000032
  0
LINE
  5
1CE
330
1F
100
AcDbEntity
  8
9
  6
Continuous
 62
     7
370
    35
100
AcDbLine
 10
219.6127397236441
 20
330.5458290667867
 30
0.0
 11
226.2759279347856
 21
330.7785127263882
 31
0.0
  0
ARC
  5
1CF
330
1F
100
AcDbEntity
  8
9
  6
Continuous
 62
     7
370
    35
100
AcDbCircle
 10
207.2844789342088
 20
349.8866904505475
 30
0.0
 40
4.196287087724158
100
AcDbArc
 50
243.7411822110678
 51
296.2588177889315
  0
LINE
  5
1D0
330
1F
100
AcDbEntity
  8
9
  6
Continuous
 62
     7
370
    35
100
AcDbLine
 10
208.1410284380829
 20
345.5460903541119
 30
0.0
 11
209.1410284380829
 21
346.1234406233017
 31
0.0
  0
LINE
  5
1D1
330
1F
100
AcDbEntity
  8
9
  6
Continuous
 62
     7
370
    35
100
AcDbLine
 10
208.1410284380829
 20
345.5460903541119
 30
0.0
 11
199.8910284380829
 21
345.5460903541119
 31
0.0
  0
LINE
  5
1D2
330
1F
100
AcDbEntity
  8
9
  6
Continuous
 62
     7
370
    35
100
AcDbLine
 10
205.4279294303348
 20
346.1234406233015
 30
0.0
 11
203.5396583179144
 21
346.1234406233015
 31
0.0
  0
LINE
  5
1D3
330
1F
100
AcDbEntity
  8
9
  6
Continuous
 62
     7
370
    35
100
AcDbLine
 10
196.2423985582513
 20
346.1234406233015
 30
0.0
 11
194.3541274458309
 21
346.1234406233015
 31
0.0
  0
LINE
  5
1D4
330
1F
100
AcDbEntity
  8
9
  6
Continuous
 62
     7
370
    35
100
AcDbLine
 10
191.6410284380829
 20
345.5460903541119
 30
0.0
 11
190.6410284380829
 21
346.1234406233017
 31
0.0
  0
LINE
  5
1D5
330
1F
100
AcDbEntity
  8
9
  6
Continuous
 62
     7
370
    35
100
AcDbLine
 10
190.6410284380829
 20
346.1234406233017
 30
0.0
 11
190.6410284380829
 21
347.0460903541122
 31
0.0
  0
ARC
  5
1D6
330
1F
100
AcDbEntity
  8
9
  6
Continuous
 62
     7
370
    35
100
AcDbCircle
 10
192.4975779419569
 20
349.8866904505475
 30
0.0
 40
4.196287087724158
100
AcDbArc
 50
243.7411822110747
 51
296.2588177889246
  0
ARC
  5
1D7
330
1F
100
AcDbEntity
  8
9
  6
Continuous
 62
     7
370
    35
100
AcDbCircle
 10
195.2423985582513
 20
349.5460903541119
 30
0.0
 40
1.0
100
AcDbArc
 50
0.0
 51
89.99999999999991
  0
ARC
  5
1D8
330
1F
100
AcDbEntity
  8
9
  6
Continuous
 62
     7
370
    35
100
AcDbCircle
 10
191.8910284380829
 20
351.5460903541119
 30
0.0
 40
1.0
100
AcDbArc
 50
179.9999999999998
 51
269.9999999999998
  0
LINE
  5
1D9
330
1F
100
AcDbEntity
  8
9
  6
Continuous
 62
     7
370
    35
100
AcDbLine
 10
191.8910284380829
 20
350.5460903541119
 30
0.0
 11
195.2423985582513
 21
350.5460903541119
 31
0.0
  0
LINE
  5
1DA
330
1F
100
AcDbEntity
  8
9
  6
Continuous
 62
     7
370
    35
100
AcDbLine
 10
196.2423985582513
 20
349.5460903541119
 30
0.0
 11
196.2423985582513
 21
346.106863162605
 31
0.0
  0
LINE
  5
1DB
330
1F
100
AcDbEntity
  8
9
  6
Continuous
 62
     7
370
    35
100
AcDbLine
 10
194.3541274458309
 20
346.1234406233015
 30
0.0
 11
194.3541274458309
 21
349.5076013885122
 31
0.0
  0
ARC
  5
1DC
330
1F
100
AcDbEntity
  8
9
  6
Continuous
 62
     7
370
    35
100
AcDbCircle
 10
186.9735250942767
 20
355.5460903541119
 30
0.0
 40
9.268873463974444
100
AcDbArc
 50
298.3761738439578
 51
323.7872627839054
  0
ARC
  5
1DD
330
1F
100
AcDbEntity
  8
9
  6
Continuous
 62
     7
370
    35
100
AcDbCircle
 10
199.8910284380829
 20
361.2788851895276
 30
0.0
 40
15.58845726811833
100
AcDbArc
 50
256.4637972626162
 51
283.5362027373831
  0
LINE
  5
1DE
330
1F
100
AcDbEntity
  8
9
  6
Continuous
 62
     7
370
    35
100
AcDbLine
 10
191.6410284380829
 20
345.5460903541119
 30
0.0
 11
199.8910284380829
 21
345.5460903541119
 31
0.0
  0
POLYLINE
  5
1DF
330
1F
100
AcDbEntity
  8
9
  6
Continuous
 62
     7
370
    35
100
AcDb2dPolyline
 66
     1
 10
0.0
 20
0.0
 30
0.0
  0
VERTEX
  5
1E0
330
1DF
100
AcDbEntity
  8
9
  6
Continuous
 62
     7
370
    35
100
AcDbVertex
100
AcDb2dVertex
 10
227.2410284380828
 20
351.0460915251575
 30
0.0
  0
VERTEX
  5
1E1
330
1DF
100
AcDbEntity
  8
9
  6
Continuous
 62
     7
370
    35
100
AcDbVertex
100
AcDb2dVertex
 10
227.2410284380828
 20
348.0460903541119
 30
0.0
  0
SEQEND
  5
1E2
330
1DF
100
AcDbEntity
  8
9
  6
Continuous
 62
     7
370
    35
  0
LINE
  5
1E3
330
1F
100
AcDbEntity
  8
9
  6
Continuous
 62
     7
370
    35
100
AcDbLine
 10
227.2410284380828
 20
351.0460903541119
 30
0.0
 11
227.2410284380828
 21
350.5460903541119
 31
0.0
  0
ARC
  5
1E4
330
1F
100
AcDbEntity
  8
9
  6
Continuous
 62
     7
370
    35
100
AcDbCircle
 10
226.2410284380828
 20
350.5460903541119
 30
0.0
 40
1.0
100
AcDbArc
 50
269.9999999999998
 51
315.3757911072032
  0
ARC
  5
1E5
330
1F
100
AcDbEntity
  8
9
  6
Continuous
 62
     7
370
    35
100
AcDbCircle
 10
216.553405592987
 20
348.9056529904684
 30
0.0
 40
1.198536020273423
100
AcDbArc
 50
265.8912338381595
 51
352.1769210358529
  0
LINE
  5
1E6
330
1F
100
AcDbEntity
  8
9
  6
Continuous
 62
     7
370
    35
100
AcDbLine
 10
217.7407869503847
 20
349.3977180870385
 30
0.0
 11
226.241028438083
 21
349.5460903541119
 31
0.0
  0
ARC
  5
1E7
330
1F
100
AcDbEntity
  8
9
  6
Continuous
 62
     7
370
    35
100
AcDbCircle
 10
210.6410284380829
 20
348.5460903541119
 30
0.0
 40
1.5
100
AcDbArc
 50
89.99999999999991
 51
179.9999999999998
  0
LINE
  5
1E8
330
1F
100
AcDbEntity
  8
9
  6
Continuous
 62
     7
370
    35
100
AcDbLine
 10
209.1410284380831
 20
346.1234406233017
 30
0.0
 11
209.1410284380831
 21
348.5460903541119
 31
0.0
  0
LINE
  5
1E9
330
1F
100
AcDbEntity
  8
9
  6
Continuous
 62
     7
370
    35
100
AcDbLine
 10
210.6410284380831
 20
350.0460903541119
 30
0.0
 11
211.741028438083
 21
350.0460903541119
 31
0.0
  0
ARC
  5
1EA
330
1F
100
AcDbEntity
  8
9
  6
Continuous
 62
     7
370
    35
100
AcDbCircle
 10
212.2410284380828
 20
348.0374389856698
 30
0.0
 40
0.5
100
AcDbArc
 50
179.9999999999998
 51
268.9999999999979
  0
LINE
  5
1EB
330
1F
100
AcDbEntity
  8
9
  6
Continuous
 62
     7
370
    35
100
AcDbLine
 10
212.2323022348641
 20
347.5375151380916
 30
0.0
 11
215.7533776420366
 21
347.4760545382425
 31
0.0
  0
LINE
  5
1EC
330
1F
100
AcDbEntity
  8
9
  6
Continuous
 62
     7
370
    35
100
AcDbLine
 10
179.3910284380829
 20
364.0460903541122
 30
0.0
 11
190.6410284380829
 21
364.0460903541119
 31
0.0
  0
ARC
  5
1ED
330
1F
100
AcDbEntity
  8
9
  6
Continuous
 62
     7
370
    35
100
AcDbCircle
 10
160.9110284380831
 20
371.5460903541118
 30
0.0
 40
5.0
100
AcDbArc
 50
179.9999999999998
 51
269.9999999999998
  0
LINE
  5
1EE
330
1F
100
AcDbEntity
  8
9
  6
Continuous
 62
     7
370
    35
100
AcDbLine
 10
171.9010284380828
 20
362.3430278541118
 30
0.0
 11
164.9110284380828
 21
362.1245903541118
 31
0.0
  0
LINE
  5
1EF
330
1F
100
AcDbEntity
  8
8
  6
Continuous
 62
     4
370
    25
100
AcDbLine
 10
168.6110284380829
 20
361.3842153541119
 30
0.0
 11
170.1785061492187
 21
362.2891990325849
 31
0.0
  0
LINE
  5
1F0
330
1F
100
AcDbEntity
  8
8
  6
Continuous
 62
     4
370
    25
100
AcDbLine
 10
164.9110284380828
 20
361.2685903541119
 30
0.0
 11
168.6110284380829
 21
361.3842153541119
 31
0.0
  0
LINE
  5
1F1
330
1F
100
AcDbEntity
  8
9
  6
Continuous
 62
     7
370
    35
100
AcDbLine
 10
160.9110284380831
 20
366.5460903541118
 30
0.0
 11
164.9110284380828
 21
366.5460903541118
 31
0.0
  0
LINE
  5
1F2
330
1F
100
AcDbEntity
  8
9
  6
Continuous
 62
     7
370
    35
100
AcDbLine
 10
179.3910284380829
 20
364.0460903541122
 30
0.0
 11
178.8910284380829
 21
363.5460903541119
 31
0.0
  0
LINE
  5
1F3
330
1F
100
AcDbEntity
  8
9
  6
Continuous
 62
     7
370
    35
100
AcDbLine
 10
179.3910284380829
 20
364.0460903541119
 30
0.0
 11
179.3910284380829
 21
355.5460903541119
 31
0.0
  0
LINE
  5
1F4
330
1F
100
AcDbEntity
  8
8
  6
Continuous
 62
     4
370
    25
100
AcDbLine
 10
175.1910284380828
 20
361.3842153541119
 30
0.0
 11
178.8910284380826
 21
361.2685903541119
 31
0.0
  0
LINE
  5
1F5
330
1F
100
AcDbEntity
  8
8
  6
Continuous
 62
     4
370
    25
100
AcDbLine
 10
173.623550726947
 20
362.2891990325849
 30
0.0
 11
175.1910284380828
 21
361.3842153541119
 31
0.0
  0
LINE
  5
1F6
330
1F
100
AcDbEntity
  8
9
  6
Continuous
 62
     7
370
    35
100
AcDbLine
 10
178.8910284380826
 20
362.1245903541118
 30
0.0
 11
171.9010284380828
 21
362.3430278541118
 31
0.0
  0
LINE
  5
1F7
330
1F
100
AcDbEntity
  8
9
  6
Continuous
 62
     7
370
    35
100
AcDbLine
 10
155.9110284380831
 20
371.5460903541118
 30
0.0
 11
155.9110284380831
 21
380.5460903541118
 31
0.0
  0
LINE
  5
1F8
330
1F
100
AcDbEntity
  8
9
  6
Continuous
 62
     7
370
    35
100
AcDbLine
 10
208.1410284380831
 20
370.0460903541119
 30
0.0
 11
208.1410284380829
 21
378.0460903541119
 31
0.0
  0
LINE
  5
1F9
330
1F
100
AcDbEntity
  8
9
  6
Continuous
 62
     7
370
    35
100
AcDbLine
 10
191.6410284380829
 20
370.0460903541119
 30
0.0
 11
191.6410284380829
 21
378.0460903541118
 31
0.0
  0
ARC
  5
1FA
330
1F
100
AcDbEntity
  8
9
  6
Continuous
 62
     7
370
    35
100
AcDbCircle
 10
207.3321264312794
 20
365.5592803047385
 30
0.0
 40
4.343207156153397
100
AcDbArc
 50
68.96557724462242
 51
111.0344227553776
  0
LINE
  5
1FB
330
1F
100
AcDbEntity
  8
9
  6
Continuous
 62
     7
370
    35
100
AcDbLine
 10
208.1410284380831
 20
370.0460903541119
 30
0.0
 11
208.8910284380829
 21
369.6130776522199
 31
0.0
  0
ARC
  5
1FC
330
1F
100
AcDbEntity
  8
9
  6
Continuous
 62
     7
370
    35
100
AcDbCircle
 10
207.3321264312794
 20
370.5329004034854
 30
0.0
 40
4.343207156153397
100
AcDbArc
 50
248.965577244622
 51
291.0344227553772
  0
ARC
  5
1FD
330
1F
100
AcDbEntity
  8
9
  6
Continuous
 62
     7
370
    35
100
AcDbCircle
 10
207.2844789342088
 20
361.7054902576764
 30
0.0
 40
4.196287087724158
100
AcDbArc
 50
63.74118221109693
 51
116.2588177889031
  0
LINE
  5
1FE
330
1F
100
AcDbEntity
  8
9
  6
Continuous
 62
     7
370
    35
100
AcDbLine
 10
208.1410284380831
 20
366.0460903541119
 30
0.0
 11
209.1410284380829
 21
365.4687400849224
 31
0.0
  0
LINE
  5
1FF
330
1F
100
AcDbEntity
  8
9
  6
Continuous
 62
     7
370
    35
100
AcDbLine
 10
208.1410284380831
 20
366.0460903541119
 30
0.0
 11
208.8910284380829
 21
366.4791030560042
 31
0.0
  0
LINE
  5
200
330
1F
100
AcDbEntity
  8
9
  6
Continuous
 62
     7
370
    35
100
AcDbLine
 10
205.7732244244757
 20
369.6130776522199
 30
0.0
 11
205.7732244244757
 21
366.4791030560042
 31
0.0
  0
LINE
  5
201
330
1F
100
AcDbEntity
  8
9
  6
Continuous
 62
     7
370
    35
100
AcDbLine
 10
202.8490683296329
 20
369.6130776522199
 30
0.0
 11
202.8490683296329
 21
366.4791030560042
 31
0.0
  0
ARC
  5
202
330
1F
100
AcDbEntity
  8
9
  6
Continuous
 62
     7
370
    35
100
AcDbCircle
 10
199.8910284380831
 20
354.6019706532908
 30
0.0
 40
15.29978213352393
100
AcDbArc
 50
78.85230898154303
 51
89.99999999999991
  0
LINE
  5
203
330
1F
100
AcDbEntity
  8
9
  6
Continuous
 62
     7
370
    35
100
AcDbLine
 10
208.1410284380831
 20
370.0460903541119
 30
0.0
 11
199.8910284380831
 21
370.0460903541119
 31
0.0
  0
LINE
  5
204
330
1F
100
AcDbEntity
  8
9
  6
Continuous
 62
     7
370
    35
100
AcDbLine
 10
205.7732244244757
 20
369.6130776522199
 30
0.0
 11
202.8490683296329
 21
369.6130776522199
 31
0.0
  0
ARC
  5
205
330
1F
100
AcDbEntity
  8
9
  6
Continuous
 62
     7
370
    35
100
AcDbCircle
 10
199.8910284380829
 20
381.4902100549333
 30
0.0
 40
15.29978213352393
100
AcDbArc
 50
269.9999999999998
 51
281.1476910184564
  0
LINE
  5
206
330
1F
100
AcDbEntity
  8
9
  6
Continuous
 62
     7
370
    35
100
AcDbLine
 10
208.1410284380831
 20
366.0460903541119
 30
0.0
 11
199.8910284380829
 21
366.0460903541119
 31
0.0
  0
LINE
  5
207
330
1F
100
AcDbEntity
  8
9
  6
Continuous
 62
     7
370
    35
100
AcDbLine
 10
205.7732244244759
 20
366.4791030560042
 30
0.0
 11
202.8490683296329
 21
366.4791030560042
 31
0.0
  0
LINE
  5
208
330
1F
100
AcDbEntity
  8
9
  6
Continuous
 62
     7
370
    35
100
AcDbLine
 10
205.4279294303348
 20
365.4687400849222
 30
0.0
 11
203.5396583179146
 21
365.4687400849222
 31
0.0
  0
LINE
  5
209
330
1F
100
AcDbEntity
  8
9
  6
Continuous
 62
     7
370
    35
100
AcDbLine
 10
194.00883245169
 20
369.6130776522199
 30
0.0
 11
194.00883245169
 21
366.4791030560042
 31
0.0
  0
LINE
  5
20A
330
1F
100
AcDbEntity
  8
9
  6
Continuous
 62
     7
370
    35
100
AcDbLine
 10
196.9329885465331
 20
369.6130776522199
 30
0.0
 11
196.9329885465331
 21
366.4791030560042
 31
0.0
  0
LINE
  5
20B
330
1F
100
AcDbEntity
  8
9
  6
Continuous
 62
     7
370
    35
100
AcDbLine
 10
190.8910284380829
 20
369.6130776522199
 30
0.0
 11
190.8910284380829
 21
366.4791030560042
 31
0.0
  0
LINE
  5
20C
330
1F
100
AcDbEntity
  8
9
  6
Continuous
 62
     7
370
    35
100
AcDbLine
 10
194.00883245169
 20
369.6130776522199
 30
0.0
 11
196.9329885465331
 21
369.6130776522199
 31
0.0
  0
LINE
  5
20D
330
1F
100
AcDbEntity
  8
9
  6
Continuous
 62
     7
370
    35
100
AcDbLine
 10
191.6410284380829
 20
370.0460903541119
 30
0.0
 11
190.8910284380829
 21
369.6130776522199
 31
0.0
  0
ARC
  5
20E
330
1F
100
AcDbEntity
  8
9
  6
Continuous
 62
     7
370
    35
100
AcDbCircle
 10
192.4499304448863
 20
365.5592803047385
 30
0.0
 40
4.343207156153397
100
AcDbArc
 50
68.96557724462242
 51
111.0344227553783
  0
ARC
  5
20F
330
1F
100
AcDbEntity
  8
9
  6
Continuous
 62
     7
370
    35
100
AcDbCircle
 10
195.2423985582511
 20
361.5460903541119
 30
0.0
 40
1.0
100
AcDbArc
 50
269.9999999999998
 51
0.0
  0
ARC
  5
210
330
1F
100
AcDbEntity
  8
9
  6
Continuous
 62
     7
370
    35
100
AcDbCircle
 10
191.8910284380829
 20
359.5460903541119
 30
0.0
 40
1.0
100
AcDbArc
 50
89.99999999999991
 51
179.9999999999998
  0
LINE
  5
211
330
1F
100
AcDbEntity
  8
9
  6
Continuous
 62
     7
370
    35
100
AcDbLine
 10
190.8910284380829
 20
355.5460903541119
 30
0.0
 11
190.8910284380829
 21
359.5460903541119
 31
0.0
  0
LINE
  5
212
330
1F
100
AcDbEntity
  8
9
  6
Continuous
 62
     7
370
    35
100
AcDbLine
 10
191.8910284380829
 20
360.5460903541119
 30
0.0
 11
195.2423985582511
 21
360.5460903541119
 31
0.0
  0
LINE
  5
213
330
1F
100
AcDbEntity
  8
9
  6
Continuous
 62
     7
370
    35
100
AcDbLine
 10
194.00883245169
 20
366.4791030560042
 30
0.0
 11
196.9329885465331
 21
366.4791030560042
 31
0.0
  0
LINE
  5
214
330
1F
100
AcDbEntity
  8
9
  6
Continuous
 62
     7
370
    35
100
AcDbLine
 10
194.3541274458309
 20
365.4687400849222
 30
0.0
 11
196.2423985582513
 21
365.4687400849222
 31
0.0
  0
LINE
  5
215
330
1F
100
AcDbEntity
  8
9
  6
Continuous
 62
     7
370
    35
100
AcDbLine
 10
191.6410284380829
 20
366.0460903541119
 30
0.0
 11
190.8910284380829
 21
366.4791030560042
 31
0.0
  0
LINE
  5
216
330
1F
100
AcDbEntity
  8
9
  6
Continuous
 62
     7
370
    35
100
AcDbLine
 10
191.6410284380829
 20
366.0460903541119
 30
0.0
 11
190.6410284380831
 21
365.4687400849224
 31
0.0
  0
LINE
  5
217
330
1F
100
AcDbEntity
  8
9
  6
Continuous
 62
     7
370
    35
100
AcDbLine
 10
190.6410284380829
 20
365.4687400849224
 30
0.0
 11
190.6410284380829
 21
364.0460903541122
 31
0.0
  0
ARC
  5
218
330
1F
100
AcDbEntity
  8
9
  6
Continuous
 62
     7
370
    35
100
AcDbCircle
 10
192.4499304448863
 20
370.5329004034853
 30
0.0
 40
4.343207156153397
100
AcDbArc
 50
248.9655772446213
 51
291.0344227553772
  0
ARC
  5
219
330
1F
100
AcDbEntity
  8
9
  6
Continuous
 62
     7
370
    35
100
AcDbCircle
 10
192.4975779419569
 20
361.7054902576764
 30
0.0
 40
4.196287087724158
100
AcDbArc
 50
63.74118221108964
 51
116.2588177889111
  0
LINE
  5
21A
330
1F
100
AcDbEntity
  8
9
  6
Continuous
 62
     7
370
    35
100
AcDbLine
 10
196.2423985582513
 20
365.4853175456188
 30
0.0
 11
196.2423985582511
 21
361.5460903541119
 31
0.0
  0
ARC
  5
21B
330
1F
100
AcDbEntity
  8
9
  6
Continuous
 62
     7
370
    35
100
AcDbCircle
 10
186.9735250942767
 20
355.5460903541119
 30
0.0
 40
9.268873463974444
100
AcDbArc
 50
37.0254982092809
 51
61.23504967410383
  0
LINE
  5
21C
330
1F
100
AcDbEntity
  8
9
  6
Continuous
 62
     7
370
    35
100
AcDbLine
 10
194.3541274458309
 20
361.7928828047503
 30
0.0
 11
194.3541274458309
 21
365.4687400849222
 31
0.0
  0
LINE
  5
21D
330
1F
100
AcDbEntity
  8
9
  6
Continuous
 62
     7
370
    35
100
AcDbLine
 10
191.6410284380829
 20
370.0460903541119
 30
0.0
 11
199.8910284380829
 21
370.0460903541119
 31
0.0
  0
ARC
  5
21E
330
1F
100
AcDbEntity
  8
9
  6
Continuous
 62
     7
370
    35
100
AcDbCircle
 10
199.8910284380829
 20
354.6019706532908
 30
0.0
 40
15.29978213352393
100
AcDbArc
 50
89.99999999999991
 51
101.147691018457
  0
ARC
  5
21F
330
1F
100
AcDbEntity
  8
9
  6
Continuous
 62
     7
370
    35
100
AcDbCircle
 10
199.8910284380829
 20
350.3132955186962
 30
0.0
 40
15.58845726811833
100
AcDbArc
 50
76.46379726261658
 51
103.5362027373834
  0
LINE
  5
220
330
1F
100
AcDbEntity
  8
9
  6
Continuous
 62
     7
370
    35
100
AcDbLine
 10
191.6410284380829
 20
366.0460903541119
 30
0.0
 11
199.8910284380829
 21
366.0460903541119
 31
0.0
  0
ARC
  5
221
330
1F
100
AcDbEntity
  8
9
  6
Continuous
 62
     7
370
    35
100
AcDbCircle
 10
199.8910284380829
 20
381.4902100549333
 30
0.0
 40
15.29978213352393
100
AcDbArc
 50
258.8523089815427
 51
269.9999999999998
  0
ARC
  5
222
330
1F
100
AcDbEntity
  8
9
  6
Continuous
 62
     7
370
    35
100
AcDbCircle
 10
226.2410284380825
 20
360.5460903541119
 30
0.0
 40
1.0
100
AcDbArc
 50
0.0
 51
89.99999999999991
  0
LINE
  5
223
330
1F
100
AcDbEntity
  8
9
  6
Continuous
 62
     7
370
    35
100
AcDbLine
 10
227.2410284380828
 20
360.5460903541119
 30
0.0
 11
227.2410284380828
 21
355.5460903541119
 31
0.0
  0
LINE
  5
224
330
1F
100
AcDbEntity
  8
9
  6
Continuous
 62
     7
370
    35
100
AcDbLine
 10
217.7407869503845
 20
363.0460903541119
 30
0.0
 11
217.7407869503845
 21
355.5460903541119
 31
0.0
  0
ARC
  5
225
330
1F
100
AcDbEntity
  8
9
  6
Continuous
 62
     7
370
    35
100
AcDbCircle
 10
217.2407869503845
 20
363.0460903541119
 30
0.0
 40
0.5
100
AcDbArc
 50
0.0
 51
89.99999999999991
  0
LINE
  5
226
330
1F
100
AcDbEntity
  8
9
  6
Continuous
 62
     7
370
    35
100
AcDbLine
 10
217.7407869503845
 20
361.6944626211854
 30
0.0
 11
226.2410284380828
 21
361.5460903541119
 31
0.0
  0
ARC
  5
227
330
1F
100
AcDbEntity
  8
9
  6
Continuous
 62
     7
370
    35
100
AcDbCircle
 10
210.6410284380829
 20
362.5460903541119
 30
0.0
 40
1.5
100
AcDbArc
 50
179.9999999999998
 51
269.9999999999998
  0
LINE
  5
228
330
1F
100
AcDbEntity
  8
9
  6
Continuous
 62
     7
370
    35
100
AcDbLine
 10
208.8910284380829
 20
369.6130776522199
 30
0.0
 11
208.8910284380829
 21
366.4791030560042
 31
0.0
  0
LINE
  5
229
330
1F
100
AcDbEntity
  8
9
  6
Continuous
 62
     7
370
    35
100
AcDbLine
 10
209.1410284380831
 20
365.4687400849222
 30
0.0
 11
209.1410284380831
 21
362.5460903541119
 31
0.0
  0
LINE
  5
22A
330
1F
100
AcDbEntity
  8
9
  6
Continuous
 62
     7
370
    35
100
AcDbLine
 10
210.6123162237913
 20
361.0460903541119
 30
0.0
 11
211.741028438083
 21
361.0460903541119
 31
0.0
  0
LINE
  5
22B
330
1F
100
AcDbEntity
  8
9
  6
Continuous
 62
     7
370
    35
100
AcDbLine
 10
211.7410284380828
 20
363.054741722554
 30
0.0
 11
211.741028438083
 21
355.5460903541119
 31
0.0
  0
ARC
  5
22C
330
1F
100
AcDbEntity
  8
9
  6
Continuous
 62
     7
370
    35
100
AcDbCircle
 10
212.2410284380828
 20
363.0460903541119
 30
0.0
 40
0.5
100
AcDbArc
 50
89.99999999999991
 51
179.9999999999998
  0
LINE
  5
22D
330
1F
100
AcDbEntity
  8
9
  6
Continuous
 62
     7
370
    35
100
AcDbLine
 10
212.241028438083
 20
363.5460903541119
 30
0.0
 11
217.2407869503847
 21
363.5460903541119
 31
0.0
  0
LINE
  5
22E
330
1F
100
AcDbEntity
  8
9
  6
Continuous
 62
     7
370
    35
100
AcDbLine
 10
208.1410284380829
 20
378.0460903541119
 30
0.0
 11
199.8910284380829
 21
378.0460903541118
 31
0.0
  0
LINE
  5
22F
330
1F
100
AcDbEntity
  8
9
  6
Continuous
 62
     7
370
    35
100
AcDbLine
 10
191.6410284380829
 20
378.0460903541118
 30
0.0
 11
199.8910284380829
 21
378.0460903541118
 31
0.0
  0
ARC
  5
230
330
1F
100
AcDbEntity
  8
9
  6
Continuous
 62
     7
370
    35
100
AcDbCircle
 10
198.7410284380828
 20
355.5460903541119
 30
0.0
 40
30.0
100
AcDbArc
 50
351.2257103521515
 51
0.0
  0
ARC
  5
231
330
1F
100
AcDbEntity
  8
9
  6
Continuous
 62
     7
370
    35
100
AcDbCircle
 10
227.8957879123095
 20
351.0460903541119
 30
0.0
 40
0.5
100
AcDbArc
 50
269.9999999999998
 51
351.2257103521516
  0
ARC
  5
232
330
1F
100
AcDbEntity
  8
9
  6
Continuous
 62
     7
370
    35
100
AcDbCircle
 10
227.8957879123095
 20
360.0460903541119
 30
0.0
 40
0.5
100
AcDbArc
 50
8.774289647848045
 51
89.99999999999991
  0
ARC
  5
233
330
1F
100
AcDbEntity
  8
9
  6
Continuous
 62
     7
370
    35
100
AcDbCircle
 10
198.7410284380828
 20
355.5460903541119
 30
0.0
 40
30.0
100
AcDbArc
 50
0.0
 51
8.774289647848013
  0
LINE
  5
234
330
1F
100
AcDbEntity
  8
9
  6
Continuous
 62
     7
370
    35
100
AcDbLine
 10
178.8910284380829
 20
347.5460903541119
 30
0.0
 11
178.8910284380826
 21
363.2561952564859
 31
0.0
  0
ARC
  5
235
330
1F
100
AcDbEntity
  8
9
  6
Continuous
 62
     7
370
    35
100
AcDbCircle
 10
199.8910284380831
 20
410.0460903541118
 30
0.0
 40
16.0
100
AcDbArc
 50
315.0000000000063
 51
224.3762250075873
  0
HATCH
  5
236
330
1F
100
AcDbEntity
  8
9
  6
Continuous
 62
     7
370
    35
100
AcDbHatch
 10
0.0
 20
0.0
 30
0.0
210
0.0
220
0.0
230
1.0
  2
SOLID
 70
     1
 71
     0
 91
        2
 92
        0
 93
        4
 72
     2
 10
199.8910286068082
 20
410.0460901844885
 40
15.99999976076027
 50
315.0000000022796
 51
315.3581009610041
 73
     1
 72
     1
 10
211.2752266421607
 20
398.803313506274
 11
212.6894647574949
 21
397.38907539094
 72
     2
 10
199.891029022357
 20
410.0460897709113
 40
17.99999917447083
 50
44.68168846420865
 51
45.00000000241041
 73
     0
 72
     1
 10
212.6189504994422
 20
397.3181682927552
 11
211.2047369370688
 21
398.7323818551283
 97
        0
 92
        0
 93
        4
 72
     2
 10
199.8910269804796
 20
410.0460918237
 40
16.00000206983687
 50
314.6418990626157
 51
314.999999969659
 73
     1
 72
     1
 10
211.2047369370688
 20
398.7323818551283
 11
212.6189504994422
 21
397.3181682927552
 72
     2
 10
199.891028776022
 20
410.0460900153864
 40
17.99999952153058
 50
44.99999999822443
 51
45.31831153028825
 73
     0
 72
     1
 10
212.5480434012579
 20
397.2476540347025
 11
211.1338052859232
 21
398.6618921500367
 97
        0
 75
     0
 76
     1
 98
        0
  0
LINE
  5
237
330
1F
100
AcDbEntity
  8
9
  6
Continuous
 62
     7
370
    35
100
AcDbLine
 10
211.1340262589505
 20
398.6616711770096
 30
0.0
 11
212.5482398213239
 21
397.2474576146367
 31
0.0
  0
LINE
  5
238
330
1F
100
AcDbEntity
  8
9
  6
Continuous
 62
     7
370
    35
100
AcDbLine
 10
211.2754476151876
 20
398.8030925332469
 30
0.0
 11
212.6896611775609
 21
397.388878970874
 31
0.0
  0
HATCH
  5
239
330
1F
100
AcDbEntity
  8
9
  6
Continuous
 62
     7
370
    35
100
AcDbHatch
 10
0.0
 20
0.0
 30
0.0
210
0.0
220
0.0
230
1.0
  2
SOLID
 70
     1
 71
     0
 91
        2
 92
        0
 93
        4
 72
     1
 10
188.2944772266227
 20
398.4495391426535
 11
188.223766548504
 21
398.5202498207723
 72
     1
 10
188.223766548504
 20
398.5202498207723
 11
187.0925921186712
 21
397.3890753909398
 72
     2
 10
199.8910288787214
 20
410.0460907894883
 40
18.00000061944723
 50
224.6816884755022
 51
224.9999999881504
 73
     1
 72
     1
 10
187.163106376724
 20
397.3181682927552
 11
188.2944772266227
 21
398.4495391426535
 97
        0
 92
        0
 93
        4
 72
     1
 10
188.3651879047415
 20
398.378828464535
 11
188.2944772266227
 21
398.4495391426535
 72
     1
 10
188.2944772266227
 20
398.4495391426535
 11
187.163106376724
 21
397.3181682927552
 72
     2
 10
199.8910278819993
 20
410.0460897975613
 40
17.99999921324871
 50
224.999999998944
 51
225.31831153646
 73
     1
 72
     1
 10
187.2340134749087
 20
397.2476540347025
 11
188.3651879047415
 21
398.378828464535
 97
        0
 75
     0
 76
     1
 98
        0
  0
LINE
  5
23A
330
1F
100
AcDbEntity
  8
9
  6
Continuous
 62
     7
370
    35
100
AcDbLine
 10
188.3651879047415
 20
398.378828464535
 30
0.0
 11
187.2338170548427
 21
397.2474576146365
 31
0.0
  0
LINE
  5
23B
330
1F
100
AcDbEntity
  8
9
  6
Continuous
 62
     7
370
    35
100
AcDbLine
 10
188.223766548504
 20
398.5202498207723
 30
0.0
 11
187.0923956986052
 21
397.3888789708737
 31
0.0
  0
LINE
  5
23C
330
1F
100
AcDbEntity
  8
9
  6
Continuous
 62
     7
370
    35
100
AcDbLine
 10
211.2047369370688
 20
398.7323818551283
 30
0.0
 11
212.6189504994422
 21
397.3181682927552
 31
0.0
  0
LINE
  5
23D
330
1F
100
AcDbEntity
  8
9
  6
Continuous
 62
     7
370
    35
100
AcDbLine
 10
188.2944772266227
 20
398.4495391426535
 30
0.0
 11
187.163106376724
 21
397.3181682927552
 31
0.0
  0
LINE
  5
23E
330
1F
100
AcDbEntity
  8
9
  6
Continuous
 62
     7
370
    35
100
AcDbLine
 10
205.8307254000501
 20
415.9857873160788
 30
0.0
 11
207.4429288611554
 21
416.0706401298212
 31
0.0
  0
LINE
  5
23F
330
1F
100
AcDbEntity
  8
9
  6
Continuous
 62
     7
370
    35
100
AcDbLine
 10
205.9155782137927
 20
417.5979907771841
 30
0.0
 11
205.8307254000501
 21
415.9857873160788
 31
0.0
  0
CIRCLE
  5
240
330
1F
100
AcDbEntity
  8
9
  6
Continuous
 62
     7
370
    35
100
AcDbCircle
 10
199.8910284380831
 20
410.0460903541118
 30
0.0
 40
0.3360000000001833
  0
CIRCLE
  5
241
330
1F
100
AcDbEntity
  8
9
  6
Continuous
 62
     7
370
    35
100
AcDbCircle
 10
199.8910284380831
 20
410.0460903541118
 30
0.0
 40
1.399999999999977
  0
ARC
  5
242
330
1F
100
AcDbEntity
  8
9
  6
Continuous
 62
     7
370
    35
100
AcDbCircle
 10
199.8910284380831
 20
410.0460903541118
 30
0.0
 40
1.600000000000023
100
AcDbArc
 50
74.56881601819973
 51
199.4842712043454
  0
LINE
  5
243
330
1F
100
AcDbEntity
  8
9
  6
Continuous
 62
     7
370
    35
100
AcDbLine
 10
201.4333496045428
 20
410.4718196336903
 30
0.0
 11
207.4429288611554
 21
416.0706401298212
 31
0.0
  0
LINE
  5
244
330
1F
100
AcDbEntity
  8
9
  6
Continuous
 62
     7
370
    35
100
AcDbLine
 10
205.9155782137927
 20
417.5979907771841
 30
0.0
 11
200.3167577176613
 21
411.5884115205715
 31
0.0
  0
LINE
  5
245
330
1F
100
AcDbEntity
  8
9
  6
Continuous
 62
     7
370
    35
100
AcDbLine
 10
206.6410284380831
 20
380.0460903541118
 30
0.0
 11
206.6410284380831
 21
382.0460903541118
 31
0.0
  0
LINE
  5
246
330
1F
100
AcDbEntity
  8
9
  6
Continuous
 62
     7
370
    35
100
AcDbLine
 10
193.1410284380831
 20
382.0460903541118
 30
0.0
 11
193.1410284380831
 21
380.0460903541118
 31
0.0
  0
LINE
  5
247
330
1F
100
AcDbEntity
  8
9
  6
Continuous
 62
     7
370
    35
100
AcDbLine
 10
193.1410284380831
 20
380.0460903541118
 30
0.0
 11
206.6410284380831
 21
380.0460903541118
 31
0.0
  0
LINE
  5
248
330
1F
100
AcDbEntity
  8
9
  6
Continuous
 62
     7
370
    35
100
AcDbLine
 10
192.8910284380831
 20
382.0460903541118
 30
0.0
 11
206.8910284380831
 21
382.0460903541118
 31
0.0
  0
LINE
  5
249
330
1F
100
AcDbEntity
  8
9
  6
Continuous
 62
     7
370
    35
100
AcDbLine
 10
192.8910284380831
 20
382.0460903541118
 30
0.0
 11
206.8910284380831
 21
382.0460903541118
 31
0.0
  0
ARC
  5
24A
330
1F
100
AcDbEntity
  8
9
  6
Continuous
 62
     7
370
    35
100
AcDbCircle
 10
199.8910284380831
 20
398.158590354112
 30
0.0
 40
16.11250000000007
100
AcDbArc
 50
244.2499968807762
 51
295.7500031192231
  0
LINE
  5
24B
330
1F
100
AcDbEntity
  8
9
  6
Continuous
 62
     7
370
    35
100
AcDbLine
 10
192.8910284380831
 20
389.6118054388035
 30
0.0
 11
192.8910284380831
 21
382.0460903541118
 31
0.0
  0
LINE
  5
24C
330
1F
100
AcDbEntity
  8
9
  6
Continuous
 62
     7
370
    35
100
AcDbLine
 10
206.8910284380831
 20
382.0460903541118
 30
0.0
 11
206.8910284380831
 21
389.6118054388035
 31
0.0
  0
LINE
  5
24D
330
1F
100
AcDbEntity
  8
9
  6
Continuous
 62
     7
370
    35
100
AcDbLine
 10
206.5607944277728
 20
378.0460903541118
 30
0.0
 11
206.6410284380831
 21
380.0460903541118
 31
0.0
  0
LINE
  5
24E
330
1F
100
AcDbEntity
  8
9
  6
Continuous
 62
     7
370
    35
100
AcDbLine
 10
193.1410284380831
 20
380.0460903541118
 30
0.0
 11
193.2212624483934
 21
378.0460903541118
 31
0.0
  0
LINE
  5
24F
330
1F
100
AcDbEntity
  8
9
  6
Continuous
 62
     7
370
    35
100
AcDbLine
 10
188.1813401416338
 20
398.5626762276422
 30
0.0
 11
188.4076143116135
 21
398.3364020576626
 31
0.0
  0
CIRCLE
  5
250
330
1F
100
AcDbEntity
  8
9
  6
Continuous
 62
     7
370
    35
100
AcDbCircle
 10
189.807685738363
 20
398.9162296182355
 30
0.0
 40
0.5
  0
LINE
  5
251
330
1F
100
AcDbEntity
  8
9
  6
Continuous
 62
     7
370
    35
100
AcDbLine
 10
198.3826554909028
 20
409.5124134366661
 30
0.0
 11
188.1813401416338
 21
398.5626762276422
 31
0.0
  0
LINE
  5
252
330
1F
100
AcDbEntity
  8
9
  6
Continuous
 62
     7
370
    35
100
AcDbLine
 10
188.4076143116135
 20
398.3364020576626
 30
0.0
 11
199.3573515206376
 21
408.5377174069315
 31
0.0
  0
CIRCLE
  5
253
330
1F
100
AcDbEntity
  8
9
  6
Continuous
 62
     7
370
    35
100
AcDbCircle
 10
199.8910284380831
 20
410.0460903541118
 30
0.0
 40
18.0
  0
CIRCLE
  5
254
330
1F
100
AcDbEntity
  8
9
  6
Continuous
 62
     7
370
    35
100
AcDbCircle
 10
199.8910284380831
 20
410.0460903541118
 30
0.0
 40
21.59999999999997
  0
ARC
  5
255
330
1F
100
AcDbEntity
  8
9
  6
Continuous
 62
     7
370
    35
100
AcDbCircle
 10
199.8910284380831
 20
410.0460903541118
 30
0.0
 40
1.600000000000023
100
AcDbArc
 50
250.5157287956526
 51
15.4311839817885
  0
LINE
  5
256
330
1F
100
AcDbEntity
  8
8
  6
Continuous
 62
     4
370
    25
100
AcDbLine
 10
206.6410284380831
 20
381.232198747135
 30
0.0
 11
205.9562284380831
 21
380.0460903541118
 31
0.0
  0
LINE
  5
257
330
1F
100
AcDbEntity
  8
8
  6
Continuous
 62
     4
370
    25
100
AcDbLine
 10
193.1410284380831
 20
381.232198747135
 30
0.0
 11
193.8258284380831
 21
380.0460903541118
 31
0.0
  0
LINE
  5
258
330
1F
100
AcDbEntity
  8
8
  6
Continuous
 62
     4
370
    25
100
AcDbLine
 10
193.8258284380831
 20
380.0460903541118
 30
0.0
 11
193.9084237558088
 21
378.0460903541118
 31
0.0
  0
LINE
  5
259
330
1F
100
AcDbEntity
  8
8
  6
Continuous
 62
     4
370
    25
100
AcDbLine
 10
205.9562284380831
 20
380.0460903541118
 30
0.0
 11
205.8736331203573
 21
378.0460903541118
 31
0.0
  0
LINE
  5
25A
330
1F
100
AcDbEntity
  8
9
  6
Continuous
 62
     7
370
    35
100
AcDbLine
 10
192.180923535709
 20
378.0460903541118
 30
0.0
 11
208.1410284380829
 21
378.0460903541118
 31
0.0
  0
LINE
  5
25B
330
1F
100
AcDbEntity
  8
3
  6
DASHDOT
 62
     1
370
    25
100
AcDbLine
 10
231.2410284380828
 20
355.5460903541117
 30
0.0
 11
135.4073430942507
 21
355.5460903541118
 31
0.0
  0
LINE
  5
25C
330
1F
100
AcDbEntity
  8
3
  6
DASHDOT
 62
     1
370
    25
100
AcDbLine
 10
199.890900316358
 20
434.1460903537318
 30
0.0
 11
199.8909003163579
 21
353.1343086451218
 31
0.0
  0
LINE
  5
25D
330
1F
100
AcDbEntity
  8
11
  6
HIDDEN
 62
     2
370
    25
100
AcDbLine
 10
125.8295431439653
 20
385.5460903541118
 30
0.0
 11
124.476016668558
 21
387.8904669789067
 31
0.0
  0
LINE
  5
25E
330
1F
100
AcDbEntity
  8
11
  6
HIDDEN
 62
     2
370
    25
100
AcDbLine
 10
151.3460402076077
 20
387.8904669789067
 30
0.0
 11
149.9925137322006
 21
385.5460903541118
 31
0.0
  0
LINE
  5
25F
330
1F
100
AcDbEntity
  8
11
  6
HIDDEN
 62
     2
370
    25
100
AcDbLine
 10
124.3110284380829
 20
393.1700903541125
 30
0.0
 11
124.7055284380829
 21
380.5460903541118
 31
0.0
  0
LINE
  5
260
330
1F
100
AcDbEntity
  8
11
  6
HIDDEN
 62
     2
370
    25
100
AcDbLine
 10
151.1165284380829
 20
380.5460903541117
 30
0.0
 11
151.511028438083
 21
393.1700903541114
 31
0.0
  0
LINE
  5
261
330
1F
100
AcDbEntity
  8
11
  6
HIDDEN
 62
     2
370
    25
100
AcDbLine
 10
124.549278438083
 20
385.5460903541118
 30
0.0
 11
151.2727784380829
 21
385.5460903541118
 31
0.0
  0
LINE
  5
262
330
1F
100
AcDbEntity
  8
11
  6
HIDDEN
 62
     2
370
    25
100
AcDbLine
 10
125.9857931439653
 20
380.5460903541117
 30
0.0
 11
125.8295431439653
 21
385.5460903541118
 31
0.0
  0
LINE
  5
263
330
1F
100
AcDbEntity
  8
11
  6
HIDDEN
 62
     2
370
    25
100
AcDbLine
 10
149.9925137322006
 20
385.5460903541118
 30
0.0
 11
149.8362637322006
 21
380.5460903541117
 31
0.0
  0
LINE
  5
264
330
1F
100
AcDbEntity
  8
11
  6
HIDDEN
 62
     2
370
    25
100
AcDbLine
 10
124.3110284380829
 20
393.1700903541125
 30
0.0
 11
124.3110284380829
 21
419.771922809867
 31
0.0
  0
LINE
  5
265
330
1F
100
AcDbEntity
  8
11
  6
HIDDEN
 62
     2
370
    25
100
AcDbLine
 10
151.511028438083
 20
393.1700903541114
 30
0.0
 11
151.5110284380831
 21
419.7719228098672
 31
0.0
  0
LINE
  5
266
330
1F
100
AcDbEntity
  8
9
  6
Continuous
 62
     7
370
    35
100
AcDbLine
 10
151.3372729643908
 20
218.6060903541103
 30
0.0
 11
124.4918979643909
 21
218.6060903541103
 31
0.0
  0
LINE
  5
267
330
1F
100
AcDbEntity
  8
9
  6
Continuous
 62
     7
370
    35
100
AcDbLine
 10
151.3372729643908
 20
228.6060903541103
 30
0.0
 11
124.4918979643909
 21
228.6060903541103
 31
0.0
  0
LINE
  5
268
330
1F
100
AcDbEntity
  8
8
  6
Continuous
 62
     4
370
    25
100
AcDbLine
 10
124.5512729643917
 20
216.7060903541102
 30
0.0
 11
151.277897964391
 21
216.7060903541102
 31
0.0
  0
LINE
  5
269
330
1F
100
AcDbEntity
  8
8
  6
Continuous
 62
     4
370
    25
100
AcDbLine
 10
150.1158979643916
 20
216.7060903541102
 30
0.0
 11
151.3164452786916
 21
217.9396044117135
 31
0.0
  0
LINE
  5
26A
330
1F
100
AcDbEntity
  8
8
  6
Continuous
 62
     4
370
    25
100
AcDbLine
 10
150.1158979643916
 20
230.5060903541104
 30
0.0
 11
151.3164452786916
 21
229.2725762965071
 31
0.0
  0
LINE
  5
26B
330
1F
100
AcDbEntity
  8
8
  6
Continuous
 62
     4
370
    25
100
AcDbLine
 10
151.277897964391
 20
230.5060903541104
 30
0.0
 11
124.5512729643917
 21
230.5060903541101
 31
0.0
  0
ARC
  5
26C
330
1F
100
AcDbEntity
  8
9
  6
Continuous
 62
     7
370
    35
100
AcDbCircle
 10
152.3160190285254
 20
231.6998059163351
 30
0.0
 40
13.13024489804019
100
AcDbArc
 50
241.2349206354835
 51
265.7251306812
  0
ARC
  5
26D
330
1F
100
AcDbEntity
  8
9
  6
Continuous
 62
     7
370
    35
100
AcDbCircle
 10
152.3160190285254
 20
215.5123747918852
 30
0.0
 40
13.13024489804019
100
AcDbArc
 50
94.27486931879967
 51
118.7650793645161
  0
LINE
  5
26E
330
1F
100
AcDbEntity
  8
9
  6
Continuous
 62
     7
370
    35
100
AcDbLine
 10
145.9974892330458
 20
227.0223492621502
 30
0.0
 11
145.9974892330458
 21
220.1898314460703
 31
0.0
  0
LINE
  5
26F
330
1F
100
AcDbEntity
  8
9
  6
Continuous
 62
     7
370
    35
100
AcDbLine
 10
121.7487779270816
 20
227.0223492621502
 30
0.0
 11
121.7487779270816
 21
220.1898314460703
 31
0.0
  0
LINE
  5
270
330
1F
100
AcDbEntity
  8
9
  6
Continuous
 62
     7
370
    35
100
AcDbLine
 10
129.831681695736
 20
227.02234926215
 30
0.0
 11
129.831681695736
 21
220.1898314460701
 31
0.0
  0
ARC
  5
271
330
1F
100
AcDbEntity
  8
9
  6
Continuous
 62
     7
370
    35
100
AcDbCircle
 10
137.9145854643904
 20
240.0242279285209
 30
0.0
 40
21.41813757441062
100
AcDbArc
 50
247.8281451448172
 51
269.9999999999998
  0
LINE
  5
272
330
1F
100
AcDbEntity
  8
8
  6
Continuous
 62
     4
370
    25
100
AcDbLine
 10
125.713272964391
 20
216.7060903541102
 30
0.0
 11
124.5127256500911
 21
217.9396044117135
 31
0.0
  0
LINE
  5
273
330
1F
100
AcDbEntity
  8
9
  6
Continuous
 62
     7
370
    35
100
AcDbLine
 10
124.4918979643909
 20
218.6060903541103
 30
0.0
 11
121.7487779270816
 21
220.1898314460703
 31
0.0
  0
LINE
  5
274
330
1F
100
AcDbEntity
  8
9
  6
Continuous
 62
     7
370
    35
100
AcDbLine
 10
124.4918979643909
 20
218.6060903541103
 30
0.0
 11
124.6793979643909
 21
212.6060903541103
 31
0.0
  0
LINE
  5
275
330
1F
100
AcDbEntity
  8
8
  6
Continuous
 62
     4
370
    25
100
AcDbLine
 10
125.8413979643912
 20
212.6060903541103
 30
0.0
 11
125.713272964391
 21
216.7060903541102
 31
0.0
  0
ARC
  5
276
330
1F
100
AcDbEntity
  8
9
  6
Continuous
 62
     7
370
    35
100
AcDbCircle
 10
123.5131519002563
 20
231.6998059163349
 30
0.0
 40
13.13024489804019
100
AcDbArc
 50
274.2748693187993
 51
298.7650793645158
  0
ARC
  5
277
330
1F
100
AcDbEntity
  8
9
  6
Continuous
 62
     7
370
    35
100
AcDbCircle
 10
137.9145854643913
 20
240.0242279285209
 30
0.0
 40
21.41813757441062
100
AcDbArc
 50
269.9999999999998
 51
292.1718548551821
  0
LINE
  5
278
330
1F
100
AcDbEntity
  8
8
  6
Continuous
 62
     4
370
    25
100
AcDbLine
 10
149.9877729643915
 20
212.6060903541103
 30
0.0
 11
150.1158979643916
 21
216.7060903541102
 31
0.0
  0
ARC
  5
279
330
1F
100
AcDbEntity
  8
9
  6
Continuous
 62
     7
370
    35
100
AcDbCircle
 10
137.9145854643913
 20
207.1879527796999
 30
0.0
 40
21.41813757441027
100
AcDbArc
 50
89.99999999999991
 51
112.1718548551824
  0
LINE
  5
27A
330
1F
100
AcDbEntity
  8
8
  6
Continuous
 62
     4
370
    25
100
AcDbLine
 10
125.713272964391
 20
230.5060903541104
 30
0.0
 11
124.5127256500911
 21
229.2725762965071
 31
0.0
  0
LINE
  5
27B
330
1F
100
AcDbEntity
  8
9
  6
Continuous
 62
     7
370
    35
100
AcDbLine
 10
124.4918979643909
 20
228.6060903541103
 30
0.0
 11
121.7487779270816
 21
227.0223492621502
 31
0.0
  0
LINE
  5
27C
330
1F
100
AcDbEntity
  8
9
  6
Continuous
 62
     7
370
    35
100
AcDbLine
 10
124.6793979643909
 20
234.6060903541103
 30
0.0
 11
124.4918979643909
 21
228.6060903541103
 31
0.0
  0
LINE
  5
27D
330
1F
100
AcDbEntity
  8
8
  6
Continuous
 62
     4
370
    25
100
AcDbLine
 10
125.8413979643912
 20
234.6060903541103
 30
0.0
 11
125.713272964391
 21
230.5060903541104
 31
0.0
  0
ARC
  5
27E
330
1F
100
AcDbEntity
  8
9
  6
Continuous
 62
     7
370
    35
100
AcDbCircle
 10
123.5131519002572
 20
215.512374791885
 30
0.0
 40
13.13024489804019
100
AcDbArc
 50
61.23492063548389
 51
85.72513068120035
  0
ARC
  5
27F
330
1F
100
AcDbEntity
  8
9
  6
Continuous
 62
     7
370
    35
100
AcDbCircle
 10
137.9145854643913
 20
207.1879527796999
 30
0.0
 40
21.41813757441027
100
AcDbArc
 50
67.82814514481774
 51
89.99999999999991
  0
LINE
  5
280
330
1F
100
AcDbEntity
  8
8
  6
Continuous
 62
     4
370
    25
100
AcDbLine
 10
149.9877729643915
 20
234.6060903541103
 30
0.0
 11
150.1158979643916
 21
230.5060903541104
 31
0.0
  0
LINE
  5
281
330
1F
100
AcDbEntity
  8
9
  6
Continuous
 62
     7
370
    35
100
AcDbLine
 10
154.0803930017011
 20
227.0223492621502
 30
0.0
 11
154.0803930017011
 21
220.1898314460703
 31
0.0
  0
LINE
  5
282
330
1F
100
AcDbEntity
  8
9
  6
Continuous
 62
     7
370
    35
100
AcDbLine
 10
151.1497729643917
 20
212.6060903541103
 30
0.0
 11
151.3372729643908
 21
218.6060903541103
 31
0.0
  0
LINE
  5
283
330
1F
100
AcDbEntity
  8
9
  6
Continuous
 62
     7
370
    35
100
AcDbLine
 10
151.3372729643908
 20
218.6060903541103
 30
0.0
 11
154.0803930017011
 21
220.1898314460703
 31
0.0
  0
LINE
  5
284
330
1F
100
AcDbEntity
  8
9
  6
Continuous
 62
     7
370
    35
100
AcDbLine
 10
151.3372729643908
 20
228.6060903541103
 30
0.0
 11
151.1497729643908
 21
234.6060903541103
 31
0.0
  0
LINE
  5
285
330
1F
100
AcDbEntity
  8
9
  6
Continuous
 62
     7
370
    35
100
AcDbLine
 10
151.3372729643908
 20
228.6060903541103
 30
0.0
 11
154.0803930017011
 21
227.0223492621502
 31
0.0
  0
MTEXT
  5
286
330
1F
100
AcDbEntity
  8
7
  6
Continuous
 62
     3
370
     9
100
AcDbMText
 10
138.0169558593643
 20
223.5721687859163
 30
0.0
 40
4.0
 41
8.8040035216
 46
4.0
 71
     5
 72
     1
  1
{\fＭＳ Ｐゴシック;\W0.714286;K50}
 11
1.615544574432587E-15
 21
1.0
 31
0.0
 73
     1
 44
1.0
1001
ACAD
1000
ACAD_MTEXT_DEFINED_HEIGHT_BEGIN
1070
    46
1040
4.0
1000
ACAD_MTEXT_DEFINED_HEIGHT_END
  0
ELLIPSE
  5
287
330
1F
100
AcDbEntity
  8
11
  6
HIDDEN
 62
     2
370
    25
100
AcDbEllipse
 10
144.7105206305641
 20
419.7719228098671
 30
0.0
 11
6.800507807518954
 21
1.136868377216160E-13
 31
0.0
210
0.0
220
0.0
230
1.0
 40
0.2940956847058677
 41
0.0
 42
6.283185307179586
  0
ELLIPSE
  5
288
330
1F
100
AcDbEntity
  8
11
  6
HIDDEN
 62
     2
370
    25
100
AcDbEllipse
 10
131.1105206305641
 20
419.771922809867
 30
0.0
 11
6.799492192481125
 21
0.0
 31
0.0
210
0.0
220
0.0
230
1.0
 40
0.2941396126921947
 41
0.0
 42
3.141592653589782
  0
LINE
  5
289
330
1F
100
AcDbEntity
  8
3
  6
DASHDOT
 62
     1
370
    25
100
AcDbLine
 10
137.9099014456939
 20
424.7719097063529
 30
0.0
 11
137.9151736509103
 21
188.0904237645867
 31
0.0
  0
LINE
  5
28A
330
1F
100
AcDbEntity
  8
9
  6
Continuous
 62
     7
370
    35
100
AcDbLine
 10
155.8707176641988
 20
276.6060903541104
 30
0.0
 11
137.9126227539006
 21
276.6060903541107
 31
0.0
  0
LINE
  5
28B
330
1F
100
AcDbEntity
  8
9
  6
Continuous
 62
     7
370
    35
100
AcDbLine
 10
154.4126227539007
 20
234.6060903541106
 30
0.0
 11
137.9126227539006
 21
234.6060903541106
 31
0.0
  0
ARC
  5
28C
330
1F
100
AcDbEntity
  8
9
  6
Continuous
 62
     7
370
    35
100
AcDbCircle
 10
144.3225702460158
 20
260.7984343006208
 30
0.0
 40
26.04800637921286
100
AcDbArc
 50
256.4813623710627
 51
283.5186376289363
  0
LINE
  5
28D
330
1F
100
AcDbEntity
  8
9
  6
Continuous
 62
     7
370
    35
100
AcDbLine
 10
141.9126227539006
 20
262.6060903541104
 30
0.0
 11
131.9126227539006
 21
272.6060903541104
 31
0.0
  0
MTEXT
  5
28E
330
1F
100
AcDbEntity
  8
9
  6
Continuous
 62
     7
370
     9
100
AcDbMText
 10
137.4109778659022
 20
272.6429333958229
 30
0.0
 40
5.5
 41
3.229994149139999
 46
5.5
 71
     7
 72
     1
  1
{\fＭＳ Ｐゴシック;\W0.714286;3}
 11
1.615544574432587E-15
 21
-1.0
 31
0.0
 73
     1
 44
1.0
1001
ACAD
1000
ACAD_MTEXT_DEFINED_HEIGHT_BEGIN
1070
    46
1040
5.5
1000
ACAD_MTEXT_DEFINED_HEIGHT_END
  0
LINE
  5
28F
330
1F
100
AcDbEntity
  8
9
  6
Continuous
 62
     7
370
    35
100
AcDbLine
 10
152.3203529942664
 20
247.6060903541104
 30
0.0
 11
137.9126227539006
 21
247.6060903541104
 31
0.0
  0
ARC
  5
290
330
1F
100
AcDbEntity
  8
9
  6
Continuous
 62
     7
370
    35
100
AcDbCircle
 10
144.3225702460159
 20
230.9006001925528
 30
0.0
 40
15.4554901615578
100
AcDbArc
 50
66.79814592710872
 51
113.2018540728917
  0
LINE
  5
291
330
1F
100
AcDbEntity
  8
9
  6
Continuous
 62
     7
370
    35
100
AcDbLine
 10
152.4934056476509
 20
257.1060903541107
 30
0.0
 11
137.9126227539006
 21
257.1060903541107
 31
0.0
  0
LINE
  5
292
330
1F
100
AcDbEntity
  8
9
  6
Continuous
 62
     7
370
    35
100
AcDbLine
 10
154.2141456105647
 20
259.3560903541108
 30
0.0
 11
137.9126227539006
 21
259.3560903541108
 31
0.0
  0
LINE
  5
293
330
1F
100
AcDbEntity
  8
9
  6
Continuous
 62
     7
370
    35
100
AcDbLine
 10
154.2935276978669
 20
275.6060903541104
 30
0.0
 11
137.9126227539006
 21
275.6060903541104
 31
0.0
  0
LINE
  5
294
330
1F
100
AcDbEntity
  8
9
  6
Continuous
 62
     7
370
    35
100
AcDbLine
 10
120.1626227539005
 20
275.1918767917373
 30
0.0
 11
120.1626227539006
 21
260.1845174788566
 31
0.0
  0
LINE
  5
295
330
1F
100
AcDbEntity
  8
9
  6
Continuous
 62
     7
370
    35
100
AcDbLine
 10
119.954527843602
 20
276.6060903541103
 30
0.0
 11
137.9126227539006
 21
276.6060903541107
 31
0.0
  0
LINE
  5
296
330
1F
100
AcDbEntity
  8
9
  6
Continuous
 62
     7
370
    35
100
AcDbLine
 10
120.6865123284192
 20
275.6060903541103
 30
0.0
 11
137.9126227539006
 21
275.6060903541104
 31
0.0
  0
ARC
  5
297
330
1F
100
AcDbEntity
  8
9
  6
Continuous
 62
     7
370
    35
100
AcDbCircle
 10
120.1626227539005
 20
277.0203039164836
 30
0.0
 40
1.0
100
AcDbArc
 50
179.9999999999998
 51
224.9999999999905
  0
LINE
  5
298
330
1F
100
AcDbEntity
  8
9
  6
Continuous
 62
     7
370
    35
100
AcDbLine
 10
119.8697295350872
 20
275.8989835729237
 30
0.0
 11
119.4555159727138
 21
276.3131971352971
 31
0.0
  0
ARC
  5
299
330
1F
100
AcDbEntity
  8
9
  6
Continuous
 62
     7
370
    35
100
AcDbCircle
 10
119.1626227539005
 20
275.1918767917373
 30
0.0
 40
1.0
100
AcDbArc
 50
0.0
 51
45.0
  0
LINE
  5
29A
330
1F
100
AcDbEntity
  8
9
  6
Continuous
 62
     7
370
    35
100
AcDbLine
 10
122.4126227539006
 20
256.2776632293642
 30
0.0
 11
122.4126227539006
 21
248.4345174788568
 31
0.0
  0
LINE
  5
29B
330
1F
100
AcDbEntity
  8
9
  6
Continuous
 62
     7
370
    35
100
AcDbLine
 10
121.6110998972363
 20
259.3560903541107
 30
0.0
 11
137.9126227539006
 21
259.3560903541108
 31
0.0
  0
LINE
  5
29C
330
1F
100
AcDbEntity
  8
9
  6
Continuous
 62
     7
370
    35
100
AcDbLine
 10
123.3318398601501
 20
257.1060903541106
 30
0.0
 11
137.9126227539006
 21
257.1060903541107
 31
0.0
  0
ARC
  5
29D
330
1F
100
AcDbEntity
  8
9
  6
Continuous
 62
     7
370
    35
100
AcDbCircle
 10
122.1626227539006
 20
260.1845174788566
 30
0.0
 40
2.0
100
AcDbArc
 50
179.9999999999998
 51
225.0000000000008
  0
LINE
  5
29E
330
1F
100
AcDbEntity
  8
9
  6
Continuous
 62
     7
370
    35
100
AcDbLine
 10
121.8268363162737
 20
257.6918767917373
 30
0.0
 11
120.7484091915275
 21
258.7703039164836
 31
0.0
  0
ARC
  5
29F
330
1F
100
AcDbEntity
  8
9
  6
Continuous
 62
     7
370
    35
100
AcDbCircle
 10
120.4126227539005
 20
256.2776632293642
 30
0.0
 40
2.0
100
AcDbArc
 50
0.0
 51
45.0
  0
MTEXT
  5
2A0
330
1F
100
AcDbEntity
  8
9
  6
Continuous
 62
     7
370
     9
100
AcDbMText
 10
131.8967365036286
 20
265.2481486735437
 30
0.0
 40
5.5
 41
3.520079979459999
 46
5.5
 71
     7
 72
     1
  1
{\fＭＳ Ｐゴシック;\W0.714286;4}
 11
1.615544574432587E-15
 21
-1.0
 31
0.0
 73
     1
 44
1.0
1001
ACAD
1000
ACAD_MTEXT_DEFINED_HEIGHT_BEGIN
1070
    46
1040
5.5
1000
ACAD_MTEXT_DEFINED_HEIGHT_END
  0
LINE
  5
2A1
330
1F
100
AcDbEntity
  8
9
  6
Continuous
 62
     7
370
    35
100
AcDbLine
 10
123.5048925135348
 20
247.6060903541104
 30
0.0
 11
137.9126227539006
 21
247.6060903541104
 31
0.0
  0
ARC
  5
2A2
330
1F
100
AcDbEntity
  8
9
  6
Continuous
 62
     7
370
    35
100
AcDbCircle
 10
131.5026752617853
 20
260.7984343006208
 30
0.0
 40
26.04800637921286
100
AcDbArc
 50
256.4813623710627
 51
283.5186376289363
  0
LINE
  5
2A3
330
1F
100
AcDbEntity
  8
9
  6
Continuous
 62
     7
370
    35
100
AcDbLine
 10
121.4126227539006
 20
234.6060903541105
 30
0.0
 11
137.9126227539006
 21
234.6060903541106
 31
0.0
  0
ARC
  5
2A4
330
1F
100
AcDbEntity
  8
9
  6
Continuous
 62
     7
370
    35
100
AcDbCircle
 10
131.5026752617853
 20
230.9006001925527
 30
0.0
 40
15.4554901615578
100
AcDbArc
 50
66.79814592710862
 51
113.2018540728911
  0
LINE
  5
2A5
330
1F
100
AcDbEntity
  8
9
  6
Continuous
 62
     7
370
    35
100
AcDbLine
 10
125.4136502656225
 20
235.472115757895
 30
0.0
 11
125.4136502656223
 21
245.1060903541105
 31
0.0
  0
LINE
  5
2A6
330
1F
100
AcDbEntity
  8
9
  6
Continuous
 62
     7
370
    35
100
AcDbLine
 10
124.9597973193759
 20
235.472115757895
 30
0.0
 11
124.9597973193759
 21
245.1060903541105
 31
0.0
  0
LINE
  5
2A7
330
1F
100
AcDbEntity
  8
9
  6
Continuous
 62
     7
370
    35
100
AcDbLine
 10
119.9126227539005
 20
245.1060903541105
 30
0.0
 11
119.9126227539005
 21
235.472115757895
 31
0.0
  0
LINE
  5
2A8
330
1F
100
AcDbEntity
  8
9
  6
Continuous
 62
     7
370
    35
100
AcDbLine
 10
124.9597973193759
 20
245.1060903541105
 30
0.0
 11
125.4136502656223
 21
245.1060903541105
 31
0.0
  0
ARC
  5
2A9
330
1F
100
AcDbEntity
  8
9
  6
Continuous
 62
     7
370
    35
100
AcDbCircle
 10
120.4126227539005
 20
248.4345174788568
 30
0.0
 40
2.0
100
AcDbArc
 50
314.9999999999997
 51
0.0
  0
ARC
  5
2AA
330
1F
100
AcDbEntity
  8
9
  6
Continuous
 62
     7
370
    35
100
AcDbCircle
 10
122.4362100366383
 20
243.1836940632592
 30
0.0
 40
3.172396613394199
100
AcDbArc
 50
37.29910867923383
 51
142.7008913207662
  0
LINE
  5
2AB
330
1F
100
AcDbEntity
  8
9
  6
Continuous
 62
     7
370
    35
100
AcDbLine
 10
121.8268363162737
 20
247.0203039164835
 30
0.0
 11
119.9126227539005
 21
245.1060903541105
 31
0.0
  0
ARC
  5
2AC
330
1F
100
AcDbEntity
  8
9
  6
Continuous
 62
     7
370
    35
100
AcDbCircle
 10
122.4362100366383
 20
239.5234916424187
 30
0.0
 40
4.773063935387455
100
AcDbArc
 50
238.0813718757185
 51
301.9186281242797
  0
LINE
  5
2AD
330
1F
100
AcDbEntity
  8
9
  6
Continuous
 62
     7
370
    35
100
AcDbLine
 10
124.9597973193759
 20
235.472115757895
 30
0.0
 11
125.4136502656223
 21
235.472115757895
 31
0.0
  0
LINE
  5
2AE
330
1F
100
AcDbEntity
  8
9
  6
Continuous
 62
     7
370
    35
100
AcDbLine
 10
121.4126227539006
 20
234.6060903541105
 30
0.0
 11
119.9126227539005
 21
235.472115757895
 31
0.0
  0
LINE
  5
2AF
330
1F
100
AcDbEntity
  8
9
  6
Continuous
 62
     7
370
    35
100
AcDbLine
 10
138.233545249853
 20
235.4721157578951
 30
0.0
 11
138.233545249853
 21
245.1060903541106
 31
0.0
  0
LINE
  5
2B0
330
1F
100
AcDbEntity
  8
9
  6
Continuous
 62
     7
370
    35
100
AcDbLine
 10
137.591700257948
 20
235.4721157578951
 30
0.0
 11
137.591700257948
 21
245.1060903541106
 31
0.0
  0
LINE
  5
2B1
330
1F
100
AcDbEntity
  8
9
  6
Continuous
 62
     7
370
    35
100
AcDbLine
 10
137.5917002579481
 20
245.1060903541106
 30
0.0
 11
137.9126227539006
 21
245.1060903541106
 31
0.0
  0
LINE
  5
2B2
330
1F
100
AcDbEntity
  8
9
  6
Continuous
 62
     7
370
    35
100
AcDbLine
 10
138.233545249853
 20
245.1060903541106
 30
0.0
 11
137.9126227539006
 21
245.1060903541106
 31
0.0
  0
LINE
  5
2B3
330
1F
100
AcDbEntity
  8
9
  6
Continuous
 62
     7
370
    35
100
AcDbLine
 10
138.233545249853
 20
235.4721157578951
 30
0.0
 11
137.9126227539006
 21
235.4721157578951
 31
0.0
  0
LINE
  5
2B4
330
1F
100
AcDbEntity
  8
9
  6
Continuous
 62
     7
370
    35
100
AcDbLine
 10
137.5917002579481
 20
235.4721157578951
 30
0.0
 11
137.9126227539006
 21
235.4721157578951
 31
0.0
  0
ARC
  5
2B5
330
1F
100
AcDbEntity
  8
9
  6
Continuous
 62
     7
370
    35
100
AcDbCircle
 10
78.36489550711701
 20
268.6060903541103
 30
0.0
 40
100.0
100
AcDbArc
 50
354.5486801875804
 51
5.451319812419422
  0
LINE
  5
2B6
330
1F
100
AcDbEntity
  8
9
  6
Continuous
 62
     7
370
    35
100
AcDbLine
 10
163.7126227539004
 20
276.6060903541104
 30
0.0
 11
163.7126227539005
 21
268.6060903541104
 31
0.0
  0
ARC
  5
2B7
330
1F
100
AcDbEntity
  8
9
  6
Continuous
 62
     7
370
    35
100
AcDbCircle
 10
163.2708958000503
 20
268.2670306800724
 30
0.0
 40
10.7970285459806
100
AcDbArc
 50
130.3487275309038
 51
223.117841292163
  0
LINE
  5
2B8
330
1F
100
AcDbEntity
  8
9
  6
Continuous
 62
     7
370
    35
100
AcDbLine
 10
164.7126227539005
 20
280.6060903541104
 30
0.0
 11
164.7126227539005
 21
268.6060903541104
 31
0.0
  0
LINE
  5
2B9
330
1F
100
AcDbEntity
  8
9
  6
Continuous
 62
     7
370
    35
100
AcDbLine
 10
177.9126227539005
 20
300.1060903541106
 30
0.0
 11
177.9126227539007
 21
268.6060903541104
 31
0.0
  0
LINE
  5
2BA
330
1F
100
AcDbEntity
  8
9
  6
Continuous
 62
     7
370
    35
100
AcDbLine
 10
158.6626227539005
 20
276.6060903541104
 30
0.0
 11
163.7126227539004
 21
276.6060903541104
 31
0.0
  0
ARC
  5
2BB
330
1F
100
AcDbEntity
  8
9
  6
Continuous
 62
     7
370
    35
100
AcDbCircle
 10
158.6626227539005
 20
278.6060903541104
 30
0.0
 40
2.0
100
AcDbArc
 50
179.9999999999998
 51
269.9999999999998
  0
LINE
  5
2BC
330
1F
100
AcDbEntity
  8
9
  6
Continuous
 62
     7
370
    35
100
AcDbLine
 10
168.9126227539006
 20
301.1060903541105
 30
0.0
 11
168.9126227539006
 21
277.725300846253
 31
0.0
  0
LINE
  5
2BD
330
1F
100
AcDbEntity
  8
9
  6
Continuous
 62
     7
370
    35
100
AcDbLine
 10
176.9126227539007
 20
301.1060903541105
 30
0.0
 11
168.9126227539006
 21
301.1060903541105
 31
0.0
  0
ARC
  5
2BE
330
1F
100
AcDbEntity
  8
9
  6
Continuous
 62
     7
370
    35
100
AcDbCircle
 10
176.9126227539007
 20
300.1060903541106
 30
0.0
 40
1.0
100
AcDbArc
 50
0.0
 51
89.99999999999991
  0
LINE
  5
2BF
330
1F
100
AcDbEntity
  8
9
  6
Continuous
 62
     7
370
    35
100
AcDbLine
 10
163.7126227539005
 20
276.6060903541104
 30
0.0
 11
164.7126227539004
 21
276.6060903541104
 31
0.0
  0
LINE
  5
2C0
330
1F
100
AcDbEntity
  8
9
  6
Continuous
 62
     7
370
    35
100
AcDbLine
 10
164.7126227539005
 20
280.6060903541104
 30
0.0
 11
168.9126227539006
 21
280.6060903541104
 31
0.0
  0
LINE
  5
2C1
330
1F
100
AcDbEntity
  8
9
  6
Continuous
 62
     7
370
    35
100
AcDbLine
 10
171.5475714792839
 20
280.6060903541104
 30
0.0
 11
176.9126227539007
 21
280.6060903541104
 31
0.0
  0
ARC
  5
2C2
330
1F
100
AcDbEntity
  8
9
  6
Continuous
 62
     7
370
    35
100
AcDbCircle
 10
176.9126227539007
 20
279.6060903541104
 30
0.0
 40
1.0
100
AcDbArc
 50
0.0
 51
89.99999999999991
  0
LINE
  5
2C3
330
1F
100
AcDbEntity
  8
9
  6
Continuous
 62
     7
370
    35
100
AcDbLine
 10
163.7126227539005
 20
260.6060903541104
 30
0.0
 11
157.3380231146592
 21
260.6060903541104
 31
0.0
  0
LINE
  5
2C4
330
1F
100
AcDbEntity
  8
9
  6
Continuous
 62
     7
370
    35
100
AcDbLine
 10
153.4126227539006
 20
256.2776632293642
 30
0.0
 11
153.4126227539007
 21
248.4345174788569
 31
0.0
  0
ARC
  5
2C5
330
1F
100
AcDbEntity
  8
9
  6
Continuous
 62
     7
370
    35
100
AcDbCircle
 10
157.3380231146592
 20
258.6060903541104
 30
0.0
 40
2.0
100
AcDbArc
 50
89.99999999999991
 51
156.7585477294057
  0
ARC
  5
2C6
330
1F
100
AcDbEntity
  8
9
  6
Continuous
 62
     7
370
    35
100
AcDbCircle
 10
153.6626227539006
 20
260.1845174788567
 30
0.0
 40
2.0
100
AcDbArc
 50
314.9999999999974
 51
336.7585477294053
  0
LINE
  5
2C7
330
1F
100
AcDbEntity
  8
9
  6
Continuous
 62
     7
370
    35
100
AcDbLine
 10
153.9984091915274
 20
257.6918767917373
 30
0.0
 11
155.0768363162735
 21
258.7703039164837
 31
0.0
  0
ARC
  5
2C8
330
1F
100
AcDbEntity
  8
9
  6
Continuous
 62
     7
370
    35
100
AcDbCircle
 10
155.4126227539006
 20
256.2776632293642
 30
0.0
 40
2.0
100
AcDbArc
 50
135.0
 51
179.9999999999998
  0
LINE
  5
2C9
330
1F
100
AcDbEntity
  8
9
  6
Continuous
 62
     7
370
    35
100
AcDbLine
 10
155.9126227539007
 20
245.1060903541106
 30
0.0
 11
155.9126227539007
 21
235.4721157578951
 31
0.0
  0
LINE
  5
2CA
330
1F
100
AcDbEntity
  8
9
  6
Continuous
 62
     7
370
    35
100
AcDbLine
 10
150.8654481884251
 20
235.4721157578951
 30
0.0
 11
150.8654481884251
 21
245.1060903541106
 31
0.0
  0
LINE
  5
2CB
330
1F
100
AcDbEntity
  8
9
  6
Continuous
 62
     7
370
    35
100
AcDbLine
 10
150.4115952421786
 20
235.4721157578951
 30
0.0
 11
150.4115952421786
 21
245.1060903541106
 31
0.0
  0
LINE
  5
2CC
330
1F
100
AcDbEntity
  8
9
  6
Continuous
 62
     7
370
    35
100
AcDbLine
 10
150.8654481884251
 20
245.1060903541106
 30
0.0
 11
150.4115952421786
 21
245.1060903541106
 31
0.0
  0
ARC
  5
2CD
330
1F
100
AcDbEntity
  8
9
  6
Continuous
 62
     7
370
    35
100
AcDbCircle
 10
155.4126227539007
 20
248.4345174788569
 30
0.0
 40
2.0
100
AcDbArc
 50
179.9999999999998
 51
224.9999999999996
  0
ARC
  5
2CE
330
1F
100
AcDbEntity
  8
9
  6
Continuous
 62
     7
370
    35
100
AcDbCircle
 10
153.3890354711629
 20
243.1836940632592
 30
0.0
 40
3.172396613394199
100
AcDbArc
 50
37.29910867923444
 51
142.7008913207668
  0
LINE
  5
2CF
330
1F
100
AcDbEntity
  8
9
  6
Continuous
 62
     7
370
    35
100
AcDbLine
 10
153.9984091915275
 20
247.0203039164836
 30
0.0
 11
155.9126227539007
 21
245.1060903541106
 31
0.0
  0
LINE
  5
2D0
330
1F
100
AcDbEntity
  8
9
  6
Continuous
 62
     7
370
    35
100
AcDbLine
 10
150.8654481884251
 20
235.4721157578951
 30
0.0
 11
150.4115952421786
 21
235.4721157578951
 31
0.0
  0
LINE
  5
2D1
330
1F
100
AcDbEntity
  8
9
  6
Continuous
 62
     7
370
    35
100
AcDbLine
 10
154.4126227539007
 20
234.6060903541106
 30
0.0
 11
155.9126227539007
 21
235.4721157578951
 31
0.0
  0
ARC
  5
2D2
330
1F
100
AcDbEntity
  8
9
  6
Continuous
 62
     7
370
    35
100
AcDbCircle
 10
153.3890354711629
 20
239.5234916424187
 30
0.0
 40
4.773063935387455
100
AcDbArc
 50
238.081371875719
 51
301.9186281242802
  0
LINE
  5
2D3
330
1F
100
AcDbEntity
  8
9
  6
Continuous
 62
     7
370
    35
100
AcDbLine
 10
177.9126227539006
 20
237.1060903541107
 30
0.0
 11
177.9126227539005
 21
268.6060903541104
 31
0.0
  0
LINE
  5
2D4
330
1F
100
AcDbEntity
  8
9
  6
Continuous
 62
     7
370
    35
100
AcDbLine
 10
168.9126227539007
 20
236.1060903541106
 30
0.0
 11
168.9126227539006
 21
259.4868798619681
 31
0.0
  0
LINE
  5
2D5
330
1F
100
AcDbEntity
  8
9
  6
Continuous
 62
     7
370
    35
100
AcDbLine
 10
163.7126227539005
 20
260.6060903541104
 30
0.0
 11
163.7126227539005
 21
268.6060903541104
 31
0.0
  0
LINE
  5
2D6
330
1F
100
AcDbEntity
  8
9
  6
Continuous
 62
     7
370
    35
100
AcDbLine
 10
164.7126227539006
 20
256.6060903541105
 30
0.0
 11
164.7126227539005
 21
268.6060903541104
 31
0.0
  0
LINE
  5
2D7
330
1F
100
AcDbEntity
  8
9
  6
Continuous
 62
     7
370
    35
100
AcDbLine
 10
164.7126227539006
 20
256.6060903541105
 30
0.0
 11
168.9126227539006
 21
256.6060903541105
 31
0.0
  0
LINE
  5
2D8
330
1F
100
AcDbEntity
  8
9
  6
Continuous
 62
     7
370
    35
100
AcDbLine
 10
163.7126227539006
 20
260.6060903541104
 30
0.0
 11
164.7126227539006
 21
260.6060903541105
 31
0.0
  0
LINE
  5
2D9
330
1F
100
AcDbEntity
  8
9
  6
Continuous
 62
     7
370
    35
100
AcDbLine
 10
171.5475714792839
 20
256.6060903541105
 30
0.0
 11
176.9126227539007
 21
256.6060903541105
 31
0.0
  0
ARC
  5
2DA
330
1F
100
AcDbEntity
  8
9
  6
Continuous
 62
     7
370
    35
100
AcDbCircle
 10
176.9126227539007
 20
257.6060903541105
 30
0.0
 40
1.0
100
AcDbArc
 50
269.9999999999998
 51
0.0
  0
LINE
  5
2DB
330
1F
100
AcDbEntity
  8
9
  6
Continuous
 62
     7
370
    35
100
AcDbLine
 10
176.9126227539008
 20
236.1060903541106
 30
0.0
 11
168.9126227539007
 21
236.1060903541106
 31
0.0
  0
ARC
  5
2DC
330
1F
100
AcDbEntity
  8
9
  6
Continuous
 62
     7
370
    35
100
AcDbCircle
 10
176.9126227539008
 20
237.1060903541107
 30
0.0
 40
1.0
100
AcDbArc
 50
269.9999999999998
 51
0.0
  0
LINE
  5
2DD
330
1F
100
AcDbEntity
  8
9
  6
Continuous
 62
     7
370
    35
100
AcDbLine
 10
119.1626227539004
 20
285.1060903541103
 30
0.0
 11
119.1626227539005
 21
277.4345174788411
 31
0.0
  0
LINE
  5
2DE
330
1F
100
AcDbEntity
  8
9
  6
Continuous
 62
     7
370
    35
100
AcDbLine
 10
156.6626227539003
 20
278.6060903541104
 30
0.0
 11
156.6626227539005
 21
285.1060903541104
 31
0.0
  0
LINE
  5
2DF
330
1F
100
AcDbEntity
  8
9
  6
Continuous
 62
     7
370
    35
100
AcDbLine
 10
153.9126227539006
 20
302.6060903541105
 30
0.0
 11
154.6626227539006
 21
302.1730776522182
 31
0.0
  0
ARC
  5
2E0
330
1F
100
AcDbEntity
  8
9
  6
Continuous
 62
     7
370
    35
100
AcDbCircle
 10
137.9126227539003
 20
271.7178509524659
 30
0.0
 40
30.45522669975246
100
AcDbArc
 50
77.50193535677329
 51
89.99999999999991
  0
LINE
  5
2E1
330
1F
100
AcDbEntity
  8
9
  6
Continuous
 62
     7
370
    35
100
AcDbLine
 10
156.6626227539006
 20
285.1060903541104
 30
0.0
 11
153.9126227539006
 21
285.1060903541104
 31
0.0
  0
ARC
  5
2E2
330
1F
100
AcDbEntity
  8
9
  6
Continuous
 62
     7
370
    35
100
AcDbCircle
 10
155.6626227539006
 20
287.1060903541105
 30
0.0
 40
1.0
100
AcDbArc
 50
0.0
 51
89.99999999999991
  0
LINE
  5
2E3
330
1F
100
AcDbEntity
  8
9
  6
Continuous
 62
     7
370
    35
100
AcDbLine
 10
156.4126227539006
 20
285.1060903541104
 30
0.0
 11
137.9126227539006
 21
285.1060903541104
 31
0.0
  0
LINE
  5
2E4
330
1F
100
AcDbEntity
  8
9
  6
Continuous
 62
     7
370
    35
100
AcDbLine
 10
156.6626227539006
 20
285.1060903541104
 30
0.0
 11
156.6626227539006
 21
287.1060903541105
 31
0.0
  0
LINE
  5
2E5
330
1F
100
AcDbEntity
  8
9
  6
Continuous
 62
     7
370
    35
100
AcDbLine
 10
145.0963233681983
 20
301.4513898157312
 30
0.0
 11
144.5033359171322
 21
301.4513898157312
 31
0.0
  0
LINE
  5
2E6
330
1F
100
AcDbEntity
  8
9
  6
Continuous
 62
     7
370
    35
100
AcDbLine
 10
155.6626227539006
 20
288.1060903541105
 30
0.0
 11
137.9126227539006
 21
288.1060903541105
 31
0.0
  0
LINE
  5
2E7
330
1F
100
AcDbEntity
  8
9
  6
Continuous
 62
     7
370
    35
100
AcDbLine
 10
145.0963233681983
 20
288.1060903541105
 30
0.0
 11
145.0963233681983
 21
301.4513898157312
 31
0.0
  0
LINE
  5
2E8
330
1F
100
AcDbEntity
  8
9
  6
Continuous
 62
     7
370
    35
100
AcDbLine
 10
154.416999309352
 20
288.1060903541105
 30
0.0
 11
154.416999309352
 21
301.4513898157312
 31
0.0
  0
LINE
  5
2E9
330
1F
100
AcDbEntity
  8
9
  6
Continuous
 62
     7
370
    35
100
AcDbLine
 10
154.6626227539006
 20
289.1060903541105
 30
0.0
 11
154.6626227539006
 21
302.1730776522182
 31
0.0
  0
ARC
  5
2EA
330
1F
100
AcDbEntity
  8
9
  6
Continuous
 62
     7
370
    35
100
AcDbCircle
 10
155.6626227539006
 20
289.1060903541105
 30
0.0
 40
1.0
100
AcDbArc
 50
179.9999999999998
 51
269.9999999999998
  0
LINE
  5
2EB
330
1F
100
AcDbEntity
  8
9
  6
Continuous
 62
     7
370
    35
100
AcDbLine
 10
154.416999309352
 20
301.4513898157312
 30
0.0
 11
154.6626227539006
 21
301.4513898157312
 31
0.0
  0
ARC
  5
2EC
330
1F
100
AcDbEntity
  8
9
  6
Continuous
 62
     7
370
    35
100
AcDbCircle
 10
149.7566613387752
 20
286.7650423432185
 30
0.0
 40
15.4080353089997
100
AcDbArc
 50
72.39449138661541
 51
107.6055086133842
  0
LINE
  5
2ED
330
1F
100
AcDbEntity
  8
9
  6
Continuous
 62
     7
370
    35
100
AcDbLine
 10
144.5033359171324
 20
288.1060903541105
 30
0.0
 11
144.5033359171324
 21
301.4513898157312
 31
0.0
  0
LINE
  5
2EE
330
1F
100
AcDbEntity
  8
9
  6
Continuous
 62
     7
370
    35
100
AcDbLine
 10
153.9126227539006
 20
302.6060903541105
 30
0.0
 11
137.9126227539006
 21
302.6060903541105
 31
0.0
  0
LINE
  5
2EF
330
1F
100
AcDbEntity
  8
9
  6
Continuous
 62
     7
370
    35
100
AcDbLine
 10
121.9126227539005
 20
302.6060903541104
 30
0.0
 11
121.1626227539005
 21
302.1730776522181
 31
0.0
  0
ARC
  5
2F0
330
1F
100
AcDbEntity
  8
9
  6
Continuous
 62
     7
370
    35
100
AcDbCircle
 10
137.9126227539006
 20
271.7178509524659
 30
0.0
 40
30.45522669975246
100
AcDbArc
 50
90.00000000000011
 51
102.4980646432266
  0
LINE
  5
2F1
330
1F
100
AcDbEntity
  8
9
  6
Continuous
 62
     7
370
    35
100
AcDbLine
 10
119.1626227539005
 20
285.1060903541104
 30
0.0
 11
121.9126227539005
 21
285.1060903541104
 31
0.0
  0
ARC
  5
2F2
330
1F
100
AcDbEntity
  8
9
  6
Continuous
 62
     7
370
    35
100
AcDbCircle
 10
120.1626227539005
 20
287.1060903541104
 30
0.0
 40
1.0
100
AcDbArc
 50
89.99999999999991
 51
179.9999999999998
  0
LINE
  5
2F3
330
1F
100
AcDbEntity
  8
9
  6
Continuous
 62
     7
370
    35
100
AcDbLine
 10
119.4126227539006
 20
285.1060903541104
 30
0.0
 11
137.9126227539006
 21
285.1060903541104
 31
0.0
  0
LINE
  5
2F4
330
1F
100
AcDbEntity
  8
9
  6
Continuous
 62
     7
370
    35
100
AcDbLine
 10
119.1626227539005
 20
285.1060903541104
 30
0.0
 11
119.1626227539005
 21
287.1060903541104
 31
0.0
  0
LINE
  5
2F5
330
1F
100
AcDbEntity
  8
9
  6
Continuous
 62
     7
370
    35
100
AcDbLine
 10
130.7289221396028
 20
301.4513898157311
 30
0.0
 11
131.3219095906688
 21
301.4513898157312
 31
0.0
  0
LINE
  5
2F6
330
1F
100
AcDbEntity
  8
9
  6
Continuous
 62
     7
370
    35
100
AcDbLine
 10
120.1626227539005
 20
288.1060903541104
 30
0.0
 11
137.9126227539006
 21
288.1060903541105
 31
0.0
  0
LINE
  5
2F7
330
1F
100
AcDbEntity
  8
9
  6
Continuous
 62
     7
370
    35
100
AcDbLine
 10
130.7289221396028
 20
288.1060903541104
 30
0.0
 11
130.7289221396028
 21
301.4513898157311
 31
0.0
  0
LINE
  5
2F8
330
1F
100
AcDbEntity
  8
9
  6
Continuous
 62
     7
370
    35
100
AcDbLine
 10
121.408246198449
 20
288.1060903541104
 30
0.0
 11
121.4082461984489
 21
301.4513898157311
 31
0.0
  0
LINE
  5
2F9
330
1F
100
AcDbEntity
  8
9
  6
Continuous
 62
     7
370
    35
100
AcDbLine
 10
121.1626227539006
 20
289.1060903541104
 30
0.0
 11
121.1626227539005
 21
302.1730776522181
 31
0.0
  0
ARC
  5
2FA
330
1F
100
AcDbEntity
  8
9
  6
Continuous
 62
     7
370
    35
100
AcDbCircle
 10
120.1626227539005
 20
289.1060903541104
 30
0.0
 40
1.0
100
AcDbArc
 50
269.9999999999998
 51
0.0
  0
LINE
  5
2FB
330
1F
100
AcDbEntity
  8
9
  6
Continuous
 62
     7
370
    35
100
AcDbLine
 10
121.4082461984489
 20
301.4513898157312
 30
0.0
 11
121.1626227539005
 21
301.4513898157312
 31
0.0
  0
ARC
  5
2FC
330
1F
100
AcDbEntity
  8
9
  6
Continuous
 62
     7
370
    35
100
AcDbCircle
 10
126.0685841690258
 20
286.7650423432184
 30
0.0
 40
15.4080353089997
100
AcDbArc
 50
72.39449138661561
 51
107.6055086133846
  0
LINE
  5
2FD
330
1F
100
AcDbEntity
  8
9
  6
Continuous
 62
     7
370
    35
100
AcDbLine
 10
131.3219095906686
 20
288.1060903541105
 30
0.0
 11
131.3219095906686
 21
301.4513898157312
 31
0.0
  0
LINE
  5
2FE
330
1F
100
AcDbEntity
  8
9
  6
Continuous
 62
     7
370
    35
100
AcDbLine
 10
121.9126227539005
 20
302.6060903541104
 30
0.0
 11
137.9126227539006
 21
302.6060903541105
 31
0.0
  0
LINE
  5
2FF
330
1F
100
AcDbEntity
  8
9
  6
Continuous
 62
     7
370
    35
100
AcDbLine
 10
308.7057735844803
 20
302.6060903541105
 30
0.0
 11
324.7057735844803
 21
302.6060903541105
 31
0.0
  0
ARC
  5
300
330
1F
100
AcDbEntity
  8
9
  6
Continuous
 62
     7
370
    35
100
AcDbCircle
 10
324.7057735844807
 20
271.7178509524659
 30
0.0
 40
30.45522669975246
100
AcDbArc
 50
90.00000000000011
 51
102.4980646432267
  0
LINE
  5
301
330
1F
100
AcDbEntity
  8
9
  6
Continuous
 62
     7
370
    35
100
AcDbLine
 10
305.9557735844802
 20
285.1060903541104
 30
0.0
 11
318.7057735844802
 21
285.1060903541104
 31
0.0
  0
LINE
  5
302
330
1F
100
AcDbEntity
  8
9
  6
Continuous
 62
     7
370
    35
100
AcDbLine
 10
306.9557735844802
 20
288.1060903541104
 30
0.0
 11
318.7057735844803
 21
288.1060903541104
 31
0.0
  0
LINE
  5
303
330
1F
100
AcDbEntity
  8
9
  6
Continuous
 62
     7
370
    35
100
AcDbLine
 10
305.9557735844802
 20
285.1060903541104
 30
0.0
 11
305.9557735844802
 21
277.4345174788567
 31
0.0
  0
ARC
  5
304
330
1F
100
AcDbEntity
  8
9
  6
Continuous
 62
     7
370
    35
100
AcDbCircle
 10
312.8617349996056
 20
286.7650423432185
 30
0.0
 40
15.4080353089997
100
AcDbArc
 50
72.39449138661476
 51
107.6055086133851
  0
ARC
  5
305
330
1F
100
AcDbEntity
  8
9
  6
Continuous
 62
     7
370
    35
100
AcDbCircle
 10
306.9557735844802
 20
289.1060903541104
 30
0.0
 40
1.0
100
AcDbArc
 50
269.9999999999998
 51
0.0
  0
ARC
  5
306
330
1F
100
AcDbEntity
  8
9
  6
Continuous
 62
     7
370
    35
100
AcDbCircle
 10
306.9557735844802
 20
287.1060903541104
 30
0.0
 40
1.0
100
AcDbArc
 50
89.99999999999991
 51
179.9999999999998
  0
LINE
  5
307
330
1F
100
AcDbEntity
  8
9
  6
Continuous
 62
     7
370
    35
100
AcDbLine
 10
305.9557735844802
 20
285.1060903541104
 30
0.0
 11
305.9557735844802
 21
287.1060903541104
 31
0.0
  0
LINE
  5
308
330
1F
100
AcDbEntity
  8
9
  6
Continuous
 62
     7
370
    35
100
AcDbLine
 10
308.2013970290287
 20
288.1060903541105
 30
0.0
 11
308.2013970290287
 21
301.4513898157312
 31
0.0
  0
LINE
  5
309
330
1F
100
AcDbEntity
  8
9
  6
Continuous
 62
     7
370
    35
100
AcDbLine
 10
307.9557735844802
 20
289.1060903541104
 30
0.0
 11
307.9557735844802
 21
302.1730776522182
 31
0.0
  0
LINE
  5
30A
330
1F
100
AcDbEntity
  8
9
  6
Continuous
 62
     7
370
    35
100
AcDbLine
 10
308.7057735844803
 20
302.6060903541105
 30
0.0
 11
307.9557735844803
 21
302.1730776522182
 31
0.0
  0
LINE
  5
30B
330
1F
100
AcDbEntity
  8
9
  6
Continuous
 62
     7
370
    35
100
AcDbLine
 10
308.2013970290287
 20
301.4513898157313
 30
0.0
 11
307.9557735844803
 21
301.4513898157313
 31
0.0
  0
LINE
  5
30C
330
1F
100
AcDbEntity
  8
9
  6
Continuous
 62
     7
370
    35
100
AcDbLine
 10
317.5220729701826
 20
288.1060903541105
 30
0.0
 11
317.5220729701826
 21
301.4513898157312
 31
0.0
  0
LINE
  5
30D
330
1F
100
AcDbEntity
  8
9
  6
Continuous
 62
     7
370
    35
100
AcDbLine
 10
318.1150604212484
 20
288.1060903541105
 30
0.0
 11
318.1150604212484
 21
301.4513898157312
 31
0.0
  0
LINE
  5
30E
330
1F
100
AcDbEntity
  8
9
  6
Continuous
 62
     7
370
    35
100
AcDbLine
 10
317.5220729701826
 20
301.4513898157312
 30
0.0
 11
318.1150604212486
 21
301.4513898157312
 31
0.0
  0
LINE
  5
30F
330
1F
100
AcDbEntity
  8
9
  6
Continuous
 62
     7
370
    35
100
AcDbLine
 10
307.4796631589991
 20
275.6060903541104
 30
0.0
 11
314.9589792396714
 21
275.6060903541104
 31
0.0
  0
LINE
  5
310
330
1F
100
AcDbEntity
  8
9
  6
Continuous
 62
     7
370
    35
100
AcDbLine
 10
306.9797335748681
 20
276.3560903541104
 30
0.0
 11
315.5440324835759
 21
276.3560903541104
 31
0.0
  0
LINE
  5
311
330
1F
100
AcDbEntity
  8
9
  6
Continuous
 62
     7
370
    35
100
AcDbLine
 10
306.9557735844803
 20
274.7776632293644
 30
0.0
 11
306.9557735844803
 21
260.1845174788568
 31
0.0
  0
ARC
  5
312
330
1F
100
AcDbEntity
  8
9
  6
Continuous
 62
     7
370
    35
100
AcDbCircle
 10
304.9245582336188
 20
274.7714541100259
 30
0.0
 40
2.031224841010456
100
AcDbArc
 50
0.1751440212057313
 51
41.07602215394367
  0
ARC
  5
313
330
1F
100
AcDbEntity
  8
9
  6
Continuous
 62
     7
370
    35
100
AcDbCircle
 10
307.9869889353416
 20
277.4407265981951
 30
0.0
 40
2.031224841010314
100
AcDbArc
 50
180.1751440212086
 51
221.0760221539486
  0
LINE
  5
314
330
1F
100
AcDbEntity
  8
9
  6
Continuous
 62
     7
370
    35
100
AcDbLine
 10
343.4557735844803
 20
285.1060903541105
 30
0.0
 11
343.4557735844803
 21
277.4345174785956
 31
0.0
  0
LINE
  5
315
330
1F
100
AcDbEntity
  8
9
  6
Continuous
 62
     7
370
    35
100
AcDbLine
 10
340.7057735844803
 20
302.6060903541106
 30
0.0
 11
324.7057735844803
 21
302.6060903541105
 31
0.0
  0
ARC
  5
316
330
1F
100
AcDbEntity
  8
9
  6
Continuous
 62
     7
370
    35
100
AcDbCircle
 10
336.5498121693551
 20
286.7650423432186
 30
0.0
 40
15.4080353089997
100
AcDbArc
 50
72.39449138661476
 51
107.6055086133851
  0
LINE
  5
317
330
1F
100
AcDbEntity
  8
9
  6
Continuous
 62
     7
370
    35
100
AcDbLine
 10
343.4557735844803
 20
285.1060903541105
 30
0.0
 11
330.7057735844802
 21
285.1060903541104
 31
0.0
  0
LINE
  5
318
330
1F
100
AcDbEntity
  8
9
  6
Continuous
 62
     7
370
    35
100
AcDbLine
 10
342.4557735844804
 20
288.1060903541105
 30
0.0
 11
330.7057735844802
 21
288.1060903541104
 31
0.0
  0
ARC
  5
319
330
1F
100
AcDbEntity
  8
9
  6
Continuous
 62
     7
370
    35
100
AcDbCircle
 10
324.7057735844803
 20
271.7178509524659
 30
0.0
 40
30.45522669975246
100
AcDbArc
 50
77.50193535677296
 51
90.00000000000011
  0
LINE
  5
31A
330
1F
100
AcDbEntity
  8
9
  6
Continuous
 62
     7
370
    35
100
AcDbLine
 10
331.2964867477123
 20
288.1060903541105
 30
0.0
 11
331.2964867477123
 21
301.4513898157312
 31
0.0
  0
LINE
  5
31B
330
1F
100
AcDbEntity
  8
9
  6
Continuous
 62
     7
370
    35
100
AcDbLine
 10
331.8894741987782
 20
288.1060903541105
 30
0.0
 11
331.8894741987782
 21
301.4513898157312
 31
0.0
  0
LINE
  5
31C
330
1F
100
AcDbEntity
  8
9
  6
Continuous
 62
     7
370
    35
100
AcDbLine
 10
331.8894741987782
 20
301.4513898157312
 30
0.0
 11
331.2964867477121
 21
301.4513898157312
 31
0.0
  0
LINE
  5
31D
330
1F
100
AcDbEntity
  8
9
  6
Continuous
 62
     7
370
    35
100
AcDbLine
 10
340.7057735844804
 20
302.6060903541106
 30
0.0
 11
341.4557735844803
 21
302.1730776522183
 31
0.0
  0
LINE
  5
31E
330
1F
100
AcDbEntity
  8
9
  6
Continuous
 62
     7
370
    35
100
AcDbLine
 10
341.2101501399319
 20
288.1060903541106
 30
0.0
 11
341.2101501399319
 21
301.4513898157313
 31
0.0
  0
LINE
  5
31F
330
1F
100
AcDbEntity
  8
9
  6
Continuous
 62
     7
370
    35
100
AcDbLine
 10
341.4557735844802
 20
289.1060903541105
 30
0.0
 11
341.4557735844802
 21
302.1730776522182
 31
0.0
  0
LINE
  5
320
330
1F
100
AcDbEntity
  8
9
  6
Continuous
 62
     7
370
    35
100
AcDbLine
 10
341.2101501399319
 20
301.4513898157313
 30
0.0
 11
341.4557735844803
 21
301.4513898157313
 31
0.0
  0
LINE
  5
321
330
1F
100
AcDbEntity
  8
9
  6
Continuous
 62
     7
370
    35
100
AcDbLine
 10
343.4557735844803
 20
285.1060903541105
 30
0.0
 11
343.4557735844803
 21
287.1060903541105
 31
0.0
  0
ARC
  5
322
330
1F
100
AcDbEntity
  8
9
  6
Continuous
 62
     7
370
    35
100
AcDbCircle
 10
342.4557735844804
 20
287.1060903541105
 30
0.0
 40
1.0
100
AcDbArc
 50
0.0
 51
89.99999999999991
  0
ARC
  5
323
330
1F
100
AcDbEntity
  8
9
  6
Continuous
 62
     7
370
    35
100
AcDbCircle
 10
342.4557735844804
 20
289.1060903541105
 30
0.0
 40
1.0
100
AcDbArc
 50
179.9999999999998
 51
269.9999999999998
  0
LINE
  5
324
330
1F
100
AcDbEntity
  8
9
  6
Continuous
 62
     7
370
    35
100
AcDbLine
 10
341.9318840099616
 20
275.6060903541105
 30
0.0
 11
334.4525679292893
 21
275.6060903541105
 31
0.0
  0
LINE
  5
325
330
1F
100
AcDbEntity
  8
9
  6
Continuous
 62
     7
370
    35
100
AcDbLine
 10
342.4318135940924
 20
276.3560903541105
 30
0.0
 11
333.8675146853846
 21
276.3560903541105
 31
0.0
  0
LINE
  5
326
330
1F
100
AcDbEntity
  8
9
  6
Continuous
 62
     7
370
    35
100
AcDbLine
 10
342.4557735844804
 20
274.7776632290695
 30
0.0
 11
342.4557735844804
 21
260.1845174788568
 31
0.0
  0
LINE
  5
327
330
1F
100
AcDbEntity
  8
9
  6
Continuous
 62
     7
370
    35
100
AcDbLine
 10
324.0599911471767
 20
246.9560903541102
 30
0.0
 11
324.7057735844803
 21
246.9560903541102
 31
0.0
  0
LINE
  5
328
330
1F
100
AcDbEntity
  8
9
  6
Continuous
 62
     7
370
    35
100
AcDbLine
 10
321.2057735844803
 20
256.6060903541104
 30
0.0
 11
324.7057735844803
 21
256.6060903541104
 31
0.0
  0
MTEXT
  5
329
330
1F
100
AcDbEntity
  8
9
  6
Continuous
 62
     7
370
     9
100
AcDbMText
 10
323.4400394698781
 20
248.8360388816961
 30
0.0
 40
2.969999999999988
 41
7.839841175891968
 46
2.969999999999988
 71
     7
 72
     1
  1
{\fＭＳ Ｐゴシック;\W0.535714;SHUT}
 11
1.615544574432587E-15
 21
-1.0
 31
0.0
 73
     1
 44
1.0
1001
ACAD
1000
ACAD_MTEXT_DEFINED_HEIGHT_BEGIN
1070
    46
1040
2.969999999999988
1000
ACAD_MTEXT_DEFINED_HEIGHT_END
  0
ARC
  5
32A
330
1F
100
AcDbEntity
  8
9
  6
Continuous
 62
     7
370
    35
100
AcDbCircle
 10
324.7057735844803
 20
254.0744583671949
 30
0.0
 40
2.0
100
AcDbArc
 50
221.4096221092245
 51
318.5903778907737
  0
LINE
  5
32B
330
1F
100
AcDbEntity
  8
9
  6
Continuous
 62
     7
370
    35
100
AcDbLine
 10
321.9057735844802
 20
255.9060903541104
 30
0.0
 11
324.7057735844803
 21
255.9060903541104
 31
0.0
  0
LINE
  5
32C
330
1F
100
AcDbEntity
  8
9
  6
Continuous
 62
     7
370
    35
100
AcDbLine
 10
321.2057735844803
 20
238.6060903541106
 30
0.0
 11
324.7057735844803
 21
238.6060903541106
 31
0.0
  0
LINE
  5
32D
330
1F
100
AcDbEntity
  8
9
  6
Continuous
 62
     7
370
    35
100
AcDbLine
 10
324.7057735844803
 20
239.3060903541103
 30
0.0
 11
321.9057735844803
 21
239.3060903541103
 31
0.0
  0
LINE
  5
32E
330
1F
100
AcDbEntity
  8
9
  6
Continuous
 62
     7
370
    35
100
AcDbLine
 10
321.9057735844803
 20
239.3060903541106
 30
0.0
 11
321.9057735844802
 21
255.9060903541104
 31
0.0
  0
LINE
  5
32F
330
1F
100
AcDbEntity
  8
9
  6
Continuous
 62
     7
370
    35
100
AcDbLine
 10
321.2057735844803
 20
238.6060903541106
 30
0.0
 11
321.2057735844803
 21
256.6060903541104
 31
0.0
  0
LINE
  5
330
330
1F
100
AcDbEntity
  8
9
  6
Continuous
 62
     7
370
    35
100
AcDbLine
 10
321.2057735844803
 20
256.6060903541104
 30
0.0
 11
321.9057735844802
 21
255.9060903541104
 31
0.0
  0
INSERT
  5
339
330
1F
100
AcDbEntity
  8
0
100
AcDbBlockReference
  2
*G18
 10
0.0
 20
0.0
 30
0.0
  0
POLYLINE
  5
33A
330
1F
100
AcDbEntity
  8
9
  6
Continuous
 62
     7
370
    35
100
AcDb2dPolyline
 66
     1
 10
0.0
 20
0.0
 30
0.0
  0
VERTEX
  5
33B
330
33A
100
AcDbEntity
  8
9
  6
Continuous
 62
     7
370
    35
100
AcDbVertex
100
AcDb2dVertex
 10
323.6101924745952
 20
251.8370088429591
 30
0.0
  0
VERTEX
  5
33C
330
33A
100
AcDbEntity
  8
9
  6
Continuous
 62
     7
370
    35
100
AcDbVertex
100
AcDb2dVertex
 10
323.2057735844793
 20
252.7515827116638
 30
0.0
  0
VERTEX
  5
33D
330
33A
100
AcDbEntity
  8
9
  6
Continuous
 62
     7
370
    35
100
AcDbVertex
100
AcDb2dVertex
 10
324.2000272334728
 20
252.6445328099222
 30
0.0
  0
SEQEND
  5
33E
330
33A
100
AcDbEntity
  8
9
  6
Continuous
 62
     7
370
    35
  0
LINE
  5
33F
330
1F
100
AcDbEntity
  8
9
  6
Continuous
 62
     7
370
    35
100
AcDbLine
 10
323.6101924745952
 20
251.8370088429591
 30
0.0
 11
324.2000272334731
 21
252.6445328099222
 31
0.0
  0
LINE
  5
340
330
1F
100
AcDbEntity
  8
9
  6
Continuous
 62
     7
370
    35
100
AcDbLine
 10
321.2057735844803
 20
238.6060903541106
 30
0.0
 11
321.9057735844803
 21
239.3060903541103
 31
0.0
  0
LINE
  5
341
330
1F
100
AcDbEntity
  8
9
  6
Continuous
 62
     7
370
    35
100
AcDbLine
 10
328.2057735844805
 20
238.6060903541106
 30
0.0
 11
328.2057735844804
 21
256.6060903541104
 31
0.0
  0
LINE
  5
342
330
1F
100
AcDbEntity
  8
9
  6
Continuous
 62
     7
370
    35
100
AcDbLine
 10
327.5057735844804
 20
239.3060903541106
 30
0.0
 11
327.5057735844803
 21
255.9060903541104
 31
0.0
  0
LINE
  5
343
330
1F
100
AcDbEntity
  8
9
  6
Continuous
 62
     7
370
    35
100
AcDbLine
 10
328.2057735844804
 20
256.6060903541104
 30
0.0
 11
327.5057735844803
 21
255.9060903541104
 31
0.0
  0
LINE
  5
344
330
1F
100
AcDbEntity
  8
9
  6
Continuous
 62
     7
370
    35
100
AcDbLine
 10
328.2057735844804
 20
256.6060903541104
 30
0.0
 11
324.7057735844803
 21
256.6060903541104
 31
0.0
  0
LINE
  5
345
330
1F
100
AcDbEntity
  8
9
  6
Continuous
 62
     7
370
    35
100
AcDbLine
 10
327.5057735844803
 20
255.9060903541104
 30
0.0
 11
324.7057735844803
 21
255.9060903541104
 31
0.0
  0
LINE
  5
346
330
1F
100
AcDbEntity
  8
9
  6
Continuous
 62
     7
370
    35
100
AcDbLine
 10
328.2057735844805
 20
238.6060903541106
 30
0.0
 11
324.7057735844803
 21
238.6060903541106
 31
0.0
  0
LINE
  5
347
330
1F
100
AcDbEntity
  8
9
  6
Continuous
 62
     7
370
    35
100
AcDbLine
 10
327.5057735844804
 20
239.3060903541106
 30
0.0
 11
324.7057735844803
 21
239.3060903541103
 31
0.0
  0
LINE
  5
348
330
1F
100
AcDbEntity
  8
9
  6
Continuous
 62
     7
370
    35
100
AcDbLine
 10
328.2057735844805
 20
238.6060903541106
 30
0.0
 11
327.5057735844804
 21
239.3060903541103
 31
0.0
  0
LINE
  5
349
330
1F
100
AcDbEntity
  8
9
  6
Continuous
 62
     7
370
    35
100
AcDbLine
 10
324.7057735844803
 20
246.9560903541102
 30
0.0
 11
325.3515560217841
 21
246.9560903541102
 31
0.0
  0
MTEXT
  5
34A
330
1F
100
AcDbEntity
  8
9
  6
Continuous
 62
     7
370
     9
100
AcDbMText
 10
323.440039469878
 20
295.9858010885306
 30
0.0
 40
2.969999999999988
 41
5.851639379123976
 46
2.969999999999988
 71
     7
 72
     1
  1
{\fＭＳ Ｐゴシック;\W0.535714;OPE  }
 11
1.615544574432587E-15
 21
-1.0
 31
0.0
 73
     1
 44
1.0
1001
ACAD
1000
ACAD_MTEXT_DEFINED_HEIGHT_BEGIN
1070
    46
1040
2.969999999999988
1000
ACAD_MTEXT_DEFINED_HEIGHT_END
  0
LINE
  5
34B
330
1F
100
AcDbEntity
  8
9
  6
Continuous
 62
     7
370
    35
100
AcDbLine
 10
321.2057735844802
 20
280.6060903541102
 30
0.0
 11
324.7057735844802
 21
280.6060903541103
 31
0.0
  0
ARC
  5
34C
330
1F
100
AcDbEntity
  8
9
  6
Continuous
 62
     7
370
    35
100
AcDbCircle
 10
324.7057735844802
 20
283.1377223410257
 30
0.0
 40
2.0
100
AcDbArc
 50
41.40962210922593
 51
138.5903778907752
  0
LINE
  5
34D
330
1F
100
AcDbEntity
  8
9
  6
Continuous
 62
     7
370
    35
100
AcDbLine
 10
321.9057735844802
 20
281.3060903541103
 30
0.0
 11
324.7057735844802
 21
281.3060903541103
 31
0.0
  0
LINE
  5
34E
330
1F
100
AcDbEntity
  8
9
  6
Continuous
 62
     7
370
    35
100
AcDbLine
 10
323.4401098329617
 20
290.0071965649207
 30
0.0
 11
326.1400893583942
 21
290.0071965649207
 31
0.0
  0
LINE
  5
34F
330
1F
100
AcDbEntity
  8
9
  6
Continuous
 62
     7
370
    35
100
AcDbLine
 10
323.4401098329617
 20
288.6574473754582
 30
0.0
 11
326.1400893583942
 21
288.6574473754582
 31
0.0
  0
LINE
  5
350
330
1F
100
AcDbEntity
  8
9
  6
Continuous
 62
     7
370
    35
100
AcDbLine
 10
321.2057735844802
 20
298.6060903541103
 30
0.0
 11
324.7057735844802
 21
298.6060903541103
 31
0.0
  0
LINE
  5
351
330
1F
100
AcDbEntity
  8
9
  6
Continuous
 62
     7
370
    35
100
AcDbLine
 10
321.9057735844802
 20
297.9060903541103
 30
0.0
 11
324.7057735844802
 21
297.9060903541104
 31
0.0
  0
LINE
  5
352
330
1F
100
AcDbEntity
  8
9
  6
Continuous
 62
     7
370
    35
100
AcDbLine
 10
321.9057735844801
 20
297.9060903541104
 30
0.0
 11
324.7057735844802
 21
297.9060903541105
 31
0.0
  0
LINE
  5
353
330
1F
100
AcDbEntity
  8
9
  6
Continuous
 62
     7
370
    35
100
AcDbLine
 10
326.1400893583942
 20
290.0071965649207
 30
0.0
 11
323.4401098329617
 21
288.6574473754582
 31
0.0
  0
LINE
  5
354
330
1F
100
AcDbEntity
  8
9
  6
Continuous
 62
     7
370
    35
100
AcDbLine
 10
321.2057735844802
 20
298.6060903541103
 30
0.0
 11
321.2057735844802
 21
280.6060903541102
 31
0.0
  0
LINE
  5
355
330
1F
100
AcDbEntity
  8
9
  6
Continuous
 62
     7
370
    35
100
AcDbLine
 10
321.9057735844802
 20
297.9060903541103
 30
0.0
 11
321.9057735844802
 21
281.3060903541103
 31
0.0
  0
LINE
  5
356
330
1F
100
AcDbEntity
  8
9
  6
Continuous
 62
     7
370
    35
100
AcDbLine
 10
321.2057735844802
 20
298.6060903541103
 30
0.0
 11
321.9057735844802
 21
297.9060903541104
 31
0.0
  0
LINE
  5
357
330
1F
100
AcDbEntity
  8
9
  6
Continuous
 62
     7
370
    35
100
AcDbLine
 10
321.2057735844802
 20
280.6060903541102
 30
0.0
 11
321.9057735844802
 21
281.3060903541103
 31
0.0
  0
LINE
  5
358
330
1F
100
AcDbEntity
  8
9
  6
Continuous
 62
     7
370
    35
100
AcDbLine
 10
323.6101924745951
 20
285.3751718652616
 30
0.0
 11
324.200027233473
 21
284.5676478982986
 31
0.0
  0
POLYLINE
  5
359
330
1F
100
AcDbEntity
  8
9
  6
Continuous
 62
     7
370
    35
100
AcDb2dPolyline
 66
     1
 10
0.0
 20
0.0
 30
0.0
  0
VERTEX
  5
35A
330
359
100
AcDbEntity
  8
9
  6
Continuous
 62
     7
370
    35
100
AcDbVertex
100
AcDb2dVertex
 10
323.6101924745951
 20
285.3751718652615
 30
0.0
  0
VERTEX
  5
35B
330
359
100
AcDbEntity
  8
9
  6
Continuous
 62
     7
370
    35
100
AcDbVertex
100
AcDb2dVertex
 10
323.2057735844793
 20
284.4605979965568
 30
0.0
  0
VERTEX
  5
35C
330
359
100
AcDbEntity
  8
9
  6
Continuous
 62
     7
370
    35
100
AcDbVertex
100
AcDb2dVertex
 10
324.2000272334728
 20
284.5676478982986
 30
0.0
  0
SEQEND
  5
35D
330
359
100
AcDbEntity
  8
9
  6
Continuous
 62
     7
370
    35
  0
INSERT
  5
366
330
1F
100
AcDbEntity
  8
0
100
AcDbBlockReference
  2
*G19
 10
0.0
 20
0.0
 30
0.0
  0
LINE
  5
367
330
1F
100
AcDbEntity
  8
9
  6
Continuous
 62
     7
370
    35
100
AcDbLine
 10
327.5057735844803
 20
297.9060903541103
 30
0.0
 11
327.5057735844803
 21
281.3060903541103
 31
0.0
  0
LINE
  5
368
330
1F
100
AcDbEntity
  8
9
  6
Continuous
 62
     7
370
    35
100
AcDbLine
 10
328.2057735844804
 20
298.6060903541103
 30
0.0
 11
328.2057735844804
 21
280.6060903541102
 31
0.0
  0
LINE
  5
369
330
1F
100
AcDbEntity
  8
9
  6
Continuous
 62
     7
370
    35
100
AcDbLine
 10
327.5057735844803
 20
297.9060903541103
 30
0.0
 11
324.7057735844802
 21
297.9060903541104
 31
0.0
  0
LINE
  5
36A
330
1F
100
AcDbEntity
  8
9
  6
Continuous
 62
     7
370
    35
100
AcDbLine
 10
328.2057735844804
 20
298.6060903541103
 30
0.0
 11
324.7057735844802
 21
298.6060903541103
 31
0.0
  0
LINE
  5
36B
330
1F
100
AcDbEntity
  8
9
  6
Continuous
 62
     7
370
    35
100
AcDbLine
 10
328.2057735844804
 20
298.6060903541103
 30
0.0
 11
327.5057735844803
 21
297.9060903541104
 31
0.0
  0
LINE
  5
36C
330
1F
100
AcDbEntity
  8
9
  6
Continuous
 62
     7
370
    35
100
AcDbLine
 10
327.5057735844803
 20
281.3060903541103
 30
0.0
 11
324.7057735844802
 21
281.3060903541103
 31
0.0
  0
LINE
  5
36D
330
1F
100
AcDbEntity
  8
9
  6
Continuous
 62
     7
370
    35
100
AcDbLine
 10
328.2057735844804
 20
280.6060903541102
 30
0.0
 11
324.7057735844802
 21
280.6060903541103
 31
0.0
  0
LINE
  5
36E
330
1F
100
AcDbEntity
  8
9
  6
Continuous
 62
     7
370
    35
100
AcDbLine
 10
328.2057735844804
 20
280.6060903541102
 30
0.0
 11
327.5057735844803
 21
281.3060903541103
 31
0.0
  0
CIRCLE
  5
36F
330
1F
100
AcDbEntity
  8
9
  6
Continuous
 62
     7
370
    35
100
AcDbCircle
 10
324.7057735844803
 20
268.6060903541104
 30
0.0
 40
9.5
  0
ARC
  5
370
330
1F
100
AcDbEntity
  8
9
  6
Continuous
 62
     7
370
    35
100
AcDbCircle
 10
338.7057735844802
 20
282.8889472111962
 30
0.0
 40
8.0
100
AcDbArc
 50
180.0
 51
225.5729959991953
  0
ARC
  5
371
330
1F
100
AcDbEntity
  8
9
  6
Continuous
 62
     7
370
    35
100
AcDbCircle
 10
324.7057735844803
 20
268.6060903541104
 30
0.0
 40
10.2
100
AcDbArc
 50
354.373729053893
 51
5.626270946107231
  0
LINE
  5
372
330
1F
100
AcDbEntity
  8
9
  6
Continuous
 62
     7
370
    35
100
AcDbLine
 10
334.152995398326
 20
267.6060903541105
 30
0.0
 11
334.8566356168401
 21
267.6060903541105
 31
0.0
  0
LINE
  5
373
330
1F
100
AcDbEntity
  8
9
  6
Continuous
 62
     7
370
    35
100
AcDbLine
 10
334.152995398326
 20
269.6060903541105
 30
0.0
 11
334.8566356168401
 21
269.6060903541105
 31
0.0
  0
ARC
  5
374
330
1F
100
AcDbEntity
  8
9
  6
Continuous
 62
     7
370
    35
100
AcDbCircle
 10
324.7057735844803
 20
268.6060903541104
 30
0.0
 40
12.0
100
AcDbArc
 50
314.4270040008042
 51
0.0000000000002714
  0
LINE
  5
375
330
1F
100
AcDbEntity
  8
9
  6
Continuous
 62
     7
370
    35
100
AcDbLine
 10
336.7057735844804
 20
271.4560903541104
 30
0.0
 11
336.3624240467702
 21
271.4560903541104
 31
0.0
  0
LINE
  5
376
330
1F
100
AcDbEntity
  8
9
  6
Continuous
 62
     7
370
    35
100
AcDbLine
 10
336.7057735844804
 20
265.7560903541105
 30
0.0
 11
336.3624240467702
 21
265.7560903541105
 31
0.0
  0
ARC
  5
377
330
1F
100
AcDbEntity
  8
9
  6
Continuous
 62
     7
370
    35
100
AcDbCircle
 10
336.7057735844804
 20
266.7560903541105
 30
0.0
 40
1.0
100
AcDbArc
 50
269.9999999999998
 51
0.0
  0
LINE
  5
378
330
1F
100
AcDbEntity
  8
9
  6
Continuous
 62
     7
370
    35
100
AcDbLine
 10
337.7057735844804
 20
270.4560903541104
 30
0.0
 11
337.7057735844804
 21
266.7560903541105
 31
0.0
  0
ARC
  5
379
330
1F
100
AcDbEntity
  8
9
  6
Continuous
 62
     7
370
    35
100
AcDbCircle
 10
336.7057735844804
 20
270.4560903541104
 30
0.0
 40
1.0
100
AcDbArc
 50
0.0
 51
89.99999999999991
  0
ARC
  5
37A
330
1F
100
AcDbEntity
  8
9
  6
Continuous
 62
     7
370
    35
100
AcDbCircle
 10
324.7057735844803
 20
268.6060903541104
 30
0.0
 40
12.0
100
AcDbArc
 50
0.0000000000002714
 51
45.5729959991956
  0
LINE
  5
37B
330
1F
100
AcDbEntity
  8
9
  6
Continuous
 62
     7
370
    35
100
AcDbLine
 10
330.7057735844803
 20
254.3232334970244
 30
0.0
 11
330.7057735844803
 21
238.1060903541103
 31
0.0
  0
ARC
  5
37C
330
1F
100
AcDbEntity
  8
9
  6
Continuous
 62
     7
370
    35
100
AcDbCircle
 10
338.7057735844803
 20
254.3232334970245
 30
0.0
 40
8.0
100
AcDbArc
 50
134.4270040008046
 51
180.0
  0
ARC
  5
37D
330
1F
100
AcDbEntity
  8
9
  6
Continuous
 62
     7
370
    35
100
AcDbCircle
 10
310.7057735844803
 20
254.3232334970244
 30
0.0
 40
8.0
100
AcDbArc
 50
0.0
 51
45.57299599919569
  0
ARC
  5
37E
330
1F
100
AcDbEntity
  8
9
  6
Continuous
 62
     7
370
    35
100
AcDbCircle
 10
324.7057735844803
 20
268.6060903541102
 30
0.0
 40
12.0
100
AcDbArc
 50
179.9999999999998
 51
225.572995999195
  0
LINE
  5
37F
330
1F
100
AcDbEntity
  8
9
  6
Continuous
 62
     7
370
    35
100
AcDbLine
 10
318.7057735844803
 20
254.3232334970244
 30
0.0
 11
318.7057735844803
 21
238.1060903541102
 31
0.0
  0
LINE
  5
380
330
1F
100
AcDbEntity
  8
9
  6
Continuous
 62
     7
370
    35
100
AcDbLine
 10
328.7057735844803
 20
236.1060903541102
 30
0.0
 11
320.7057735844804
 21
236.1060903541102
 31
0.0
  0
ARC
  5
381
330
1F
100
AcDbEntity
  8
9
  6
Continuous
 62
     7
370
    35
100
AcDbCircle
 10
320.7057735844804
 20
238.1060903541102
 30
0.0
 40
2.0
100
AcDbArc
 50
179.9999999999998
 51
269.9999999999998
  0
ARC
  5
382
330
1F
100
AcDbEntity
  8
9
  6
Continuous
 62
     7
370
    35
100
AcDbCircle
 10
328.7057735844803
 20
238.1060903541102
 30
0.0
 40
2.0
100
AcDbArc
 50
269.9999999999998
 51
0.0000000000016284
  0
LINE
  5
383
330
1F
100
AcDbEntity
  8
9
  6
Continuous
 62
     7
370
    35
100
AcDbLine
 10
330.7057735844802
 20
282.8889472111961
 30
0.0
 11
330.7057735844802
 21
299.1060903541103
 31
0.0
  0
LINE
  5
384
330
1F
100
AcDbEntity
  8
9
  6
Continuous
 62
     7
370
    35
100
AcDbLine
 10
318.7057735844802
 20
282.8889472111961
 30
0.0
 11
318.7057735844802
 21
299.1060903541103
 31
0.0
  0
ARC
  5
385
330
1F
100
AcDbEntity
  8
9
  6
Continuous
 62
     7
370
    35
100
AcDbCircle
 10
310.7057735844802
 20
282.8889472111961
 30
0.0
 40
8.0
100
AcDbArc
 50
314.4270040008039
 51
0.0
  0
ARC
  5
386
330
1F
100
AcDbEntity
  8
9
  6
Continuous
 62
     7
370
    35
100
AcDbCircle
 10
324.7057735844803
 20
268.6060903541104
 30
0.0
 40
12.0
100
AcDbArc
 50
134.427004000805
 51
179.9999999999998
  0
LINE
  5
387
330
1F
100
AcDbEntity
  8
9
  6
Continuous
 62
     7
370
    35
100
AcDbLine
 10
328.7057735844802
 20
301.1060903541103
 30
0.0
 11
320.7057735844803
 21
301.1060903541103
 31
0.0
  0
ARC
  5
388
330
1F
100
AcDbEntity
  8
9
  6
Continuous
 62
     7
370
    35
100
AcDbCircle
 10
328.7057735844802
 20
299.1060903541103
 30
0.0
 40
2.0
100
AcDbArc
 50
0.0
 51
89.99999999999991
  0
ARC
  5
389
330
1F
100
AcDbEntity
  8
9
  6
Continuous
 62
     7
370
    35
100
AcDbCircle
 10
320.7057735844803
 20
299.1060903541103
 30
0.0
 40
2.0
100
AcDbArc
 50
89.99999999999991
 51
179.9999999999998
  0
LINE
  5
38A
330
1F
100
AcDbEntity
  8
9
  6
Continuous
 62
     7
370
    35
100
AcDbLine
 10
341.2057735844804
 20
234.6060903541106
 30
0.0
 11
324.7057735844803
 21
234.6060903541106
 31
0.0
  0
ARC
  5
38B
330
1F
100
AcDbEntity
  8
9
  6
Continuous
 62
     7
370
    35
100
AcDbCircle
 10
331.1157210765957
 20
260.7984343006207
 30
0.0
 40
26.04800637921285
100
AcDbArc
 50
256.4813623710634
 51
283.5186376289362
  0
ARC
  5
38C
330
1F
100
AcDbEntity
  8
9
  6
Continuous
 62
     7
370
    35
100
AcDbCircle
 10
331.1157210765957
 20
230.9006001925528
 30
0.0
 40
15.4554901615578
100
AcDbArc
 50
66.79814592710817
 51
91.51991401861157
  0
LINE
  5
38D
330
1F
100
AcDbEntity
  8
9
  6
Continuous
 62
     7
370
    35
100
AcDbLine
 10
339.1135038248462
 20
247.6060903541105
 30
0.0
 11
330.7057735844803
 21
247.6060903541105
 31
0.0
  0
LINE
  5
38E
330
1F
100
AcDbEntity
  8
9
  6
Continuous
 62
     7
370
    35
100
AcDbLine
 10
339.2865564782308
 20
257.1060903541105
 30
0.0
 11
331.2053930799346
 21
257.1060903541104
 31
0.0
  0
LINE
  5
38F
330
1F
100
AcDbEntity
  8
9
  6
Continuous
 62
     7
370
    35
100
AcDbLine
 10
325.0266960804328
 20
235.4721157578949
 30
0.0
 11
325.0266960804328
 21
236.1060903541102
 31
0.0
  0
LINE
  5
390
330
1F
100
AcDbEntity
  8
9
  6
Continuous
 62
     7
370
    35
100
AcDbLine
 10
324.384851088528
 20
235.4721157578949
 30
0.0
 11
324.384851088528
 21
236.1060903541102
 31
0.0
  0
LINE
  5
391
330
1F
100
AcDbEntity
  8
9
  6
Continuous
 62
     7
370
    35
100
AcDbLine
 10
312.2068010962023
 20
235.4721157578949
 30
0.0
 11
312.2068010962021
 21
245.1060903541104
 31
0.0
  0
LINE
  5
392
330
1F
100
AcDbEntity
  8
9
  6
Continuous
 62
     7
370
    35
100
AcDbLine
 10
311.7529481499557
 20
235.4721157578949
 30
0.0
 11
311.7529481499557
 21
245.1060903541104
 31
0.0
  0
LINE
  5
393
330
1F
100
AcDbEntity
  8
9
  6
Continuous
 62
     7
370
    35
100
AcDbLine
 10
306.7057735844803
 20
245.1060903541104
 30
0.0
 11
306.7057735844803
 21
235.4721157578949
 31
0.0
  0
LINE
  5
394
330
1F
100
AcDbEntity
  8
9
  6
Continuous
 62
     7
370
    35
100
AcDbLine
 10
308.6199871468534
 20
247.0203039164836
 30
0.0
 11
306.7057735844803
 21
245.1060903541104
 31
0.0
  0
ARC
  5
395
330
1F
100
AcDbEntity
  8
9
  6
Continuous
 62
     7
370
    35
100
AcDbCircle
 10
309.229360867218
 20
243.1836940632591
 30
0.0
 40
3.172396613394199
100
AcDbArc
 50
37.29910867923281
 51
142.7008913207684
  0
ARC
  5
396
330
1F
100
AcDbEntity
  8
9
  6
Continuous
 62
     7
370
    35
100
AcDbCircle
 10
308.9557735844803
 20
260.1845174788568
 30
0.0
 40
2.0
100
AcDbArc
 50
179.9999999999998
 51
224.9999999999996
  0
LINE
  5
397
330
1F
100
AcDbEntity
  8
9
  6
Continuous
 62
     7
370
    35
100
AcDbLine
 10
309.2057735844804
 20
256.2776632293644
 30
0.0
 11
309.2057735844804
 21
248.4345174788567
 31
0.0
  0
LINE
  5
398
330
1F
100
AcDbEntity
  8
9
  6
Continuous
 62
     7
370
    35
100
AcDbLine
 10
308.4042507278161
 20
259.3560903541107
 30
0.0
 11
316.9243225998118
 21
259.3560903541107
 31
0.0
  0
LINE
  5
399
330
1F
100
AcDbEntity
  8
9
  6
Continuous
 62
     7
370
    35
100
AcDbLine
 10
310.1249906907298
 20
257.1060903541104
 30
0.0
 11
318.2061540890259
 21
257.1060903541104
 31
0.0
  0
ARC
  5
39A
330
1F
100
AcDbEntity
  8
9
  6
Continuous
 62
     7
370
    35
100
AcDbCircle
 10
307.2057735844804
 20
256.2776632293644
 30
0.0
 40
2.0
100
AcDbArc
 50
0.0
 51
45.00000000000115
  0
LINE
  5
39B
330
1F
100
AcDbEntity
  8
9
  6
Continuous
 62
     7
370
    35
100
AcDbLine
 10
308.6199871468534
 20
257.6918767917373
 30
0.0
 11
307.541560022107
 21
258.7703039164839
 31
0.0
  0
ARC
  5
39C
330
1F
100
AcDbEntity
  8
9
  6
Continuous
 62
     7
370
    35
100
AcDbCircle
 10
318.295826092365
 20
230.9006001925528
 30
0.0
 40
15.4554901615578
100
AcDbArc
 50
88.48008598138884
 51
113.2018540728922
  0
LINE
  5
39D
330
1F
100
AcDbEntity
  8
9
  6
Continuous
 62
     7
370
    35
100
AcDbLine
 10
310.2980433441144
 20
247.6060903541104
 30
0.0
 11
318.7057735844804
 21
247.6060903541104
 31
0.0
  0
LINE
  5
39E
330
1F
100
AcDbEntity
  8
9
  6
Continuous
 62
     7
370
    35
100
AcDbLine
 10
311.7529481499557
 20
245.1060903541104
 30
0.0
 11
312.2068010962021
 21
245.1060903541104
 31
0.0
  0
ARC
  5
39F
330
1F
100
AcDbEntity
  8
9
  6
Continuous
 62
     7
370
    35
100
AcDbCircle
 10
307.2057735844803
 20
248.4345174788567
 30
0.0
 40
2.0
100
AcDbArc
 50
314.9999999999985
 51
0.0
  0
LINE
  5
3A0
330
1F
100
AcDbEntity
  8
9
  6
Continuous
 62
     7
370
    35
100
AcDbLine
 10
308.2057735844804
 20
234.6060903541106
 30
0.0
 11
306.7057735844803
 21
235.4721157578949
 31
0.0
  0
ARC
  5
3A1
330
1F
100
AcDbEntity
  8
9
  6
Continuous
 62
     7
370
    35
100
AcDbCircle
 10
309.229360867218
 20
239.5234916424185
 30
0.0
 40
4.773063935387455
100
AcDbArc
 50
238.081371875719
 51
301.9186281242791
  0
ARC
  5
3A2
330
1F
100
AcDbEntity
  8
9
  6
Continuous
 62
     7
370
    35
100
AcDbCircle
 10
318.2958260923652
 20
260.7984343006207
 30
0.0
 40
26.04800637921285
100
AcDbArc
 50
256.4813623710634
 51
283.5186376289359
  0
LINE
  5
3A3
330
1F
100
AcDbEntity
  8
9
  6
Continuous
 62
     7
370
    35
100
AcDbLine
 10
308.2057735844804
 20
234.6060903541106
 30
0.0
 11
324.7057735844803
 21
234.6060903541106
 31
0.0
  0
LINE
  5
3A4
330
1F
100
AcDbEntity
  8
9
  6
Continuous
 62
     7
370
    35
100
AcDbLine
 10
311.7529481499558
 20
235.4721157578949
 30
0.0
 11
312.2068010962022
 21
235.4721157578949
 31
0.0
  0
LINE
  5
3A5
330
1F
100
AcDbEntity
  8
9
  6
Continuous
 62
     7
370
    35
100
AcDbLine
 10
325.0266960804327
 20
235.4721157578949
 30
0.0
 11
324.7057735844803
 21
235.4721157578949
 31
0.0
  0
LINE
  5
3A6
330
1F
100
AcDbEntity
  8
9
  6
Continuous
 62
     7
370
    35
100
AcDbLine
 10
324.384851088528
 20
235.4721157578949
 30
0.0
 11
324.7057735844804
 21
235.4721157578949
 31
0.0
  0
LINE
  5
3A7
330
1F
100
AcDbEntity
  8
9
  6
Continuous
 62
     7
370
    35
100
AcDbLine
 10
342.7057735844804
 20
245.1060903541105
 30
0.0
 11
342.7057735844804
 21
235.4721157578949
 31
0.0
  0
LINE
  5
3A8
330
1F
100
AcDbEntity
  8
9
  6
Continuous
 62
     7
370
    35
100
AcDbLine
 10
337.658599019005
 20
235.4721157578949
 30
0.0
 11
337.658599019005
 21
245.1060903541105
 31
0.0
  0
LINE
  5
3A9
330
1F
100
AcDbEntity
  8
9
  6
Continuous
 62
     7
370
    35
100
AcDbLine
 10
337.2047460727584
 20
235.4721157578949
 30
0.0
 11
337.2047460727584
 21
245.1060903541105
 31
0.0
  0
LINE
  5
3AA
330
1F
100
AcDbEntity
  8
9
  6
Continuous
 62
     7
370
    35
100
AcDbLine
 10
340.2057735844804
 20
256.2776632293644
 30
0.0
 11
340.2057735844804
 21
248.4345174788567
 31
0.0
  0
ARC
  5
3AB
330
1F
100
AcDbEntity
  8
9
  6
Continuous
 62
     7
370
    35
100
AcDbCircle
 10
342.2057735844804
 20
256.2776632293644
 30
0.0
 40
2.0
100
AcDbArc
 50
135.0
 51
179.9999999999998
  0
LINE
  5
3AC
330
1F
100
AcDbEntity
  8
9
  6
Continuous
 62
     7
370
    35
100
AcDbLine
 10
341.0072964411445
 20
259.3560903541107
 30
0.0
 11
332.4872245691489
 21
259.3560903541107
 31
0.0
  0
ARC
  5
3AD
330
1F
100
AcDbEntity
  8
9
  6
Continuous
 62
     7
370
    35
100
AcDbCircle
 10
340.4557735844804
 20
260.1845174788568
 30
0.0
 40
2.0
100
AcDbArc
 50
314.9999999999985
 51
0.0
  0
LINE
  5
3AE
330
1F
100
AcDbEntity
  8
9
  6
Continuous
 62
     7
370
    35
100
AcDbLine
 10
340.7915600221073
 20
257.6918767917374
 30
0.0
 11
341.8699871468535
 21
258.770303916484
 31
0.0
  0
ARC
  5
3AF
330
1F
100
AcDbEntity
  8
9
  6
Continuous
 62
     7
370
    35
100
AcDbCircle
 10
340.1821863017427
 20
243.1836940632592
 30
0.0
 40
3.172396613394199
100
AcDbArc
 50
37.2991086792322
 51
142.7008913207678
  0
ARC
  5
3B0
330
1F
100
AcDbEntity
  8
9
  6
Continuous
 62
     7
370
    35
100
AcDbCircle
 10
342.2057735844804
 20
248.4345174788567
 30
0.0
 40
2.0
100
AcDbArc
 50
179.9999999999998
 51
224.9999999999996
  0
LINE
  5
3B1
330
1F
100
AcDbEntity
  8
9
  6
Continuous
 62
     7
370
    35
100
AcDbLine
 10
337.658599019005
 20
245.1060903541105
 30
0.0
 11
337.2047460727586
 21
245.1060903541105
 31
0.0
  0
LINE
  5
3B2
330
1F
100
AcDbEntity
  8
9
  6
Continuous
 62
     7
370
    35
100
AcDbLine
 10
340.7915600221073
 20
247.0203039164836
 30
0.0
 11
342.7057735844804
 21
245.1060903541105
 31
0.0
  0
ARC
  5
3B3
330
1F
100
AcDbEntity
  8
9
  6
Continuous
 62
     7
370
    35
100
AcDbCircle
 10
340.1821863017427
 20
239.5234916424185
 30
0.0
 40
4.773063935387455
100
AcDbArc
 50
238.0813718757196
 51
301.9186281242797
  0
LINE
  5
3B4
330
1F
100
AcDbEntity
  8
9
  6
Continuous
 62
     7
370
    35
100
AcDbLine
 10
337.658599019005
 20
235.4721157578949
 30
0.0
 11
337.2047460727586
 21
235.4721157578949
 31
0.0
  0
LINE
  5
3B5
330
1F
100
AcDbEntity
  8
9
  6
Continuous
 62
     7
370
    35
100
AcDbLine
 10
341.2057735844804
 20
234.6060903541106
 30
0.0
 11
342.7057735844804
 21
235.4721157578949
 31
0.0
  0
ARC
  5
3B6
330
1F
100
AcDbEntity
  8
9
  6
Continuous
 62
     7
370
    35
100
AcDbCircle
 10
344.4869889353427
 20
274.7714541100265
 30
0.0
 40
2.031224841010456
100
AcDbArc
 50
138.9239778460623
 51
179.8248559787943
  0
ARC
  5
3B7
330
1F
100
AcDbEntity
  8
9
  6
Continuous
 62
     7
370
    35
100
AcDbCircle
 10
341.4245582336198
 20
277.4407265981957
 30
0.0
 40
2.031224841010314
100
AcDbArc
 50
318.9239778460541
 51
359.8248559787938
  0
LINE
  5
3B8
330
1F
100
AcDbEntity
  8
4
  6
PHANTOM
 62
     2
370
    25
100
AcDbLine
 10
335.0980784298936
 20
262.6060903541106
 30
0.0
 11
355.2057735844817
 21
262.6060903541106
 31
0.0
  0
LINE
  5
3B9
330
1F
100
AcDbEntity
  8
4
  6
PHANTOM
 62
     2
370
    25
100
AcDbLine
 10
335.0980784298935
 20
274.6060903541106
 30
0.0
 11
355.2057735844817
 21
274.6060903541106
 31
0.0
  0
LINE
  5
3BA
330
1F
100
AcDbEntity
  8
4
  6
PHANTOM
 62
     2
370
    25
100
AcDbLine
 10
314.313468739067
 20
274.6060903541106
 30
0.0
 11
294.2057735844812
 21
274.6060903541106
 31
0.0
  0
LINE
  5
3BB
330
1F
100
AcDbEntity
  8
4
  6
PHANTOM
 62
     2
370
    25
100
AcDbLine
 10
314.3134687390668
 20
262.6060903541106
 30
0.0
 11
294.2057735844812
 21
262.6060903541106
 31
0.0
  0
LINE
  5
3BC
330
1F
100
AcDbEntity
  8
9
  6
Continuous
 62
     7
370
    35
100
AcDbLine
 10
337.9409610844798
 20
212.6060903541103
 30
0.0
 11
338.1284610844789
 21
218.6060903541103
 31
0.0
  0
LINE
  5
3BD
330
1F
100
AcDbEntity
  8
8
  6
Continuous
 62
     4
370
    25
100
AcDbLine
 10
336.7789610844795
 20
212.6060903541103
 30
0.0
 11
336.9070860844797
 21
216.7060903541102
 31
0.0
  0
LINE
  5
3BE
330
1F
100
AcDbEntity
  8
8
  6
Continuous
 62
     4
370
    25
100
AcDbLine
 10
312.6325860844793
 20
212.6060903541103
 30
0.0
 11
312.5044610844791
 21
216.7060903541102
 31
0.0
  0
LINE
  5
3BF
330
1F
100
AcDbEntity
  8
9
  6
Continuous
 62
     7
370
    35
100
AcDbLine
 10
311.283086084479
 20
218.6060903541103
 30
0.0
 11
311.470586084479
 21
212.6060903541103
 31
0.0
  0
LINE
  5
3C0
330
1F
100
AcDbEntity
  8
3
  6
DASHDOT
 62
     1
370
    25
100
AcDbLine
 10
324.7057735844803
 20
434.1460903537318
 30
0.0
 11
324.7057735844805
 21
188.0904237645867
 31
0.0
  0
DIMENSION
  5
3CB
330
1F
100
AcDbEntity
  8
6
  6
Continuous
 62
     3
370
     9
100
AcDbDimension
280
     0
  2
Dim1
 10
357.2057735844817
 20
179.6070276363943
 30
0.0
 11
340.9557735844811
 21
184.5070276363944
 31
0.0
 70
   160
  1
(<>
 71
     5
 42
-1.0
 73
     0
 74
     0
 75
     0
  3
Standard
100
AcDbAlignedDimension
 13
324.7057735844804
 23
188.0904237645867
 33
0.0
 14
357.2057735844821
 24
264.6060903541104
 34
0.0
100
AcDbRotatedDimension
1001
ACAD
1000
DSTYLE
1002
{
1070
   279
1070
     2
1070
   340
1005
3C1
1070
   140
1040
6.6
1070
    40
1040
1.0
1070
   147
1040
0.0
1070
    76
1070
     0
1070
    75
1070
     0
1070
   344
1005
7C
1070
   343
1005
7C
1070
   173
1070
     1
1070
   289
1070
     2
1070
   288
1070
     1
1070
    77
1070
     1
1070
   172
1070
     1
1070
   174
1070
     0
1070
    74
1070
     0
1070
    73
1070
     0
1070
   284
1070
     8
1070
    78
1070
     8
1070
    42
1040
2.0
1070
    44
1040
2.0
1070
    43
1040
10.0
1070
   271
1070
     1
1070
    41
1040
4.6
1002
}
  0
LINE
  5
3CC
330
1F
100
AcDbEntity
  8
4
  6
PHANTOM
 62
     2
370
    25
100
AcDbLine
 10
357.2057735844817
 20
264.6060903541106
 30
0.0
 11
357.2057735844817
 21
272.6060903541104
 31
0.0
  0
LINE
  5
3CD
330
1F
100
AcDbEntity
  8
4
  6
PHANTOM
 62
     2
370
    25
100
AcDbLine
 10
292.2057735844812
 20
272.6060903541106
 30
0.0
 11
292.2057735844812
 21
264.6060903541104
 31
0.0
  0
HATCH
  5
3CE
330
1F
100
AcDbEntity
  8
5
  6
Continuous
 62
     4
370
    25
100
AcDbHatch
 10
0.0
 20
0.0
 30
0.0
210
0.0
220
0.0
230
1.0
  2
SOLID
 70
     1
 71
     0
 91
        1
 92
        0
 93
        7
 72
     1
 10
131.4110284380828
 20
156.9950236421146
 11
137.9110284380828
 21
148.4883398845609
 72
     1
 10
137.9110284380828
 20
148.4883398845609
 11
144.4110284380828
 21
156.9950236421146
 72
     1
 10
144.4110284380828
 20
156.9950236421146
 11
142.4110284380828
 21
156.9950236421146
 72
     1
 10
142.4110284380828
 20
156.9950236421146
 11
142.4110284380828
 21
170.442194489945
 72
     1
 10
142.4110284380828
 20
170.442194489945
 11
133.4110284380828
 21
170.442194489945
 72
     1
 10
133.4110284380828
 20
170.442194489945
 11
133.4110284380828
 21
156.9950236421146
 72
     1
 10
133.4110284380828
 20
156.9950236421146
 11
131.4110284380828
 21
156.9950236421146
 97
        0
 75
     0
 76
     1
 98
        0
  0
LINE
  5
3CF
330
1F
100
AcDbEntity
  8
5
  6
Continuous
 62
     4
370
    25
100
AcDbLine
 10
133.4110284380828
 20
170.442194489945
 30
0.0
 11
133.4110284380828
 21
156.9950236421146
 31
0.0
  0
LINE
  5
3D0
330
1F
100
AcDbEntity
  8
5
  6
Continuous
 62
     4
370
    25
100
AcDbLine
 10
142.4110284380828
 20
156.9950236421146
 30
0.0
 11
142.4110284380828
 21
170.442194489945
 31
0.0
  0
LINE
  5
3D1
330
1F
100
AcDbEntity
  8
5
  6
Continuous
 62
     4
370
    25
100
AcDbLine
 10
131.4110284380828
 20
156.9950236421146
 30
0.0
 11
137.9110284380828
 21
148.4883398845609
 31
0.0
  0
LINE
  5
3D2
330
1F
100
AcDbEntity
  8
5
  6
Continuous
 62
     4
370
    25
100
AcDbLine
 10
133.4110284380828
 20
156.9950236421146
 30
0.0
 11
131.4110284380828
 21
156.9950236421146
 31
0.0
  0
LINE
  5
3D3
330
1F
100
AcDbEntity
  8
5
  6
Continuous
 62
     4
370
    25
100
AcDbLine
 10
137.9110284380828
 20
148.4883398845609
 30
0.0
 11
144.4110284380828
 21
156.9950236421146
 31
0.0
  0
LINE
  5
3D4
330
1F
100
AcDbEntity
  8
5
  6
Continuous
 62
     4
370
    25
100
AcDbLine
 10
144.4110284380828
 20
156.9950236421146
 30
0.0
 11
142.4110284380828
 21
156.9950236421146
 31
0.0
  0
LINE
  5
3D5
330
1F
100
AcDbEntity
  8
5
  6
Continuous
 62
     4
370
    25
100
AcDbLine
 10
142.4110284380828
 20
170.442194489945
 30
0.0
 11
133.4110284380828
 21
170.442194489945
 31
0.0
  0
DIMENSION
  5
3DF
330
1F
100
AcDbEntity
  8
6
  6
Continuous
 62
     3
370
     9
100
AcDbDimension
280
     0
  2
Dim2
 10
137.9151736509103
 20
179.6070275489301
 30
0.0
 11
157.9138982024052
 21
184.5070275489301
 31
0.0
 70
   160
  1
(<>
 71
     5
 42
-1.0
 73
     0
 74
     0
 75
     0
  3
Standard
100
AcDbAlignedDimension
 13
177.9126227539006
 23
237.1060903541107
 33
0.0
 14
137.9151736509103
 24
188.0904237645867
 34
0.0
 50
179.9999999999998
100
AcDbRotatedDimension
1001
ACAD
1000
DSTYLE
1002
{
1070
   279
1070
     2
1070
   340
1005
3C1
1070
   140
1040
6.6
1070
    40
1040
1.0
1070
   147
1040
0.0
1070
    76
1070
     0
1070
    75
1070
     0
1070
   344
1005
7C
1070
   343
1005
7C
1070
   173
1070
     1
1070
   289
1070
     2
1070
   288
1070
     1
1070
    77
1070
     1
1070
   172
1070
     1
1070
   174
1070
     0
1070
    74
1070
     0
1070
    73
1070
     0
1070
   284
1070
     8
1070
    78
1070
     8
1070
    42
1040
2.0
1070
    44
1040
2.0
1070
    43
1040
10.0
1070
   271
1070
     1
1070
    41
1040
4.6
1002
}
  0
DIMENSION
  5
3E9
330
1F
100
AcDbEntity
  8
6
  6
Continuous
 62
     3
370
     9
100
AcDbDimension
280
     0
  2
Dim3
 10
228.7410284380829
 20
448.7381070297096
 30
0.0
 11
183.3254649418884
 21
453.6381070297097
 31
0.0
 70
   160
  1
(<>
 71
     5
 42
-1.0
 73
     0
 74
     0
 75
     0
  3
Standard
100
AcDbAlignedDimension
 13
137.9099014456939
 23
424.7719097063529
 33
0.0
 14
228.7410284380828
 24
355.5460903541119
 34
0.0
100
AcDbRotatedDimension
1001
ACAD
1000
DSTYLE
1002
{
1070
   279
1070
     2
1070
   340
1005
3C1
1070
   140
1040
6.6
1070
    40
1040
1.0
1070
   147
1040
0.0
1070
    76
1070
     0
1070
    75
1070
     0
1070
   344
1005
7C
1070
   343
1005
7C
1070
   173
1070
     1
1070
   289
1070
     2
1070
   288
1070
     1
1070
    77
1070
     1
1070
   172
1070
     1
1070
   174
1070
     0
1070
    74
1070
     0
1070
    73
1070
     0
1070
   284
1070
     8
1070
    78
1070
     8
1070
    42
1040
2.0
1070
    44
1040
2.0
1070
    43
1040
10.0
1070
   271
1070
     1
1070
    41
1040
4.6
1002
}
  0
LINE
  5
3EA
330
1F
100
AcDbEntity
  8
11
  6
HIDDEN
 62
     2
370
    25
100
AcDbLine
 10
342.7057735844805
 20
212.6060903541103
 30
0.0
 11
342.7057735844805
 21
193.0904237633462
 31
0.0
  0
LINE
  5
3EB
330
1F
100
AcDbEntity
  8
11
  6
HIDDEN
 62
     2
370
    25
100
AcDbLine
 10
342.7057735844805
 20
212.6060903541103
 30
0.0
 11
306.7057735844803
 21
212.6060903541103
 31
0.0
  0
LINE
  5
3EC
330
1F
100
AcDbEntity
  8
11
  6
HIDDEN
 62
     2
370
    25
100
AcDbLine
 10
306.7057735844802
 20
212.6060903541103
 30
0.0
 11
306.7057735844804
 21
193.0904237633462
 31
0.0
  0
ELLIPSE
  5
3ED
330
1F
100
AcDbEntity
  8
11
  6
HIDDEN
 62
     2
370
    25
100
AcDbEllipse
 10
315.7057735844804
 20
193.0904237633462
 30
0.0
 11
9.000000000000043
 21
0.0
 31
0.0
210
0.0
220
0.0
230
1.0
 40
0.2222222222222212
 41
0.0
 42
6.283185307179586
  0
ELLIPSE
  5
3EE
330
1F
100
AcDbEntity
  8
11
  6
HIDDEN
 62
     2
370
    25
100
AcDbEllipse
 10
333.7057735844805
 20
193.0904237633462
 30
0.0
 11
9.000000000000043
 21
0.0
 31
0.0
210
0.0
220
0.0
230
1.0
 40
0.2222222222222212
 41
3.141592653589779
 42
6.283185307179586
  0
MTEXT
  5
3EF
330
1F
100
AcDbEntity
  8
6
  6
Continuous
 62
     3
370
     9
100
AcDbMText
 10
296.625954460453
 20
201.7087259896044
 30
0.0
 40
8.8
 41
10.701935709344
 46
8.8
 71
     5
 72
     1
  1
{\fＭＳ Ｐゴシック;\W0.714286;開}
 73
     1
 44
1.0
1001
ACAD
1000
ACAD_MTEXT_DEFINED_HEIGHT_BEGIN
1070
    46
1040
8.8
1000
ACAD_MTEXT_DEFINED_HEIGHT_END
  0
LINE
  5
3F0
330
1F
100
AcDbEntity
  8
11
  6
HIDDEN
 62
     2
370
    25
100
AcDbLine
 10
155.91453622181
 20
212.6060903541103
 30
0.0
 11
155.91453622181
 21
193.0904237633462
 31
0.0
  0
LINE
  5
3F1
330
1F
100
AcDbEntity
  8
11
  6
HIDDEN
 62
     2
370
    25
100
AcDbLine
 10
155.91453622181
 20
212.6060903541103
 30
0.0
 11
119.9145362218097
 21
212.6060903541103
 31
0.0
  0
LINE
  5
3F2
330
1F
100
AcDbEntity
  8
11
  6
HIDDEN
 62
     2
370
    25
100
AcDbLine
 10
119.9145362218096
 20
212.6060903541103
 30
0.0
 11
119.9145362218098
 21
193.0904237633462
 31
0.0
  0
ELLIPSE
  5
3F3
330
1F
100
AcDbEntity
  8
11
  6
HIDDEN
 62
     2
370
    25
100
AcDbEllipse
 10
128.9145362218098
 20
193.0904237633462
 30
0.0
 11
9.000000000000043
 21
0.0
 31
0.0
210
0.0
220
0.0
230
1.0
 40
0.2222222222222212
 41
0.0
 42
6.283185307179586
  0
ELLIPSE
  5
3F4
330
1F
100
AcDbEntity
  8
11
  6
HIDDEN
 62
     2
370
    25
100
AcDbEllipse
 10
146.9145362218099
 20
193.0904237633462
 30
0.0
 11
9.000000000000043
 21
0.0
 31
0.0
210
0.0
220
0.0
230
1.0
 40
0.2222222222222212
 41
3.141592653589779
 42
6.283185307179586
  0
DIMENSION
  5
3FE
330
1F
100
AcDbEntity
  8
6
  6
Continuous
 62
     3
370
     9
100
AcDbDimension
280
     0
  2
Dim4
 10
103.0188458322024
 20
431.6460903541121
 30
0.0
 11
99.11884583220241
 21
322.1260903541112
 31
0.0
 70
   160
  1
(<>
 71
     5
 42
-1.0
 73
     0
 74
     0
 75
     0
  3
Standard
100
AcDbAlignedDimension
 13
119.9145362218097
 23
212.6060903541103
 33
0.0
 14
199.8910284380837
 24
431.6460903541118
 34
0.0
 50
89.99999999999991
100
AcDbRotatedDimension
1001
ACAD
1000
DSTYLE
1002
{
1070
   279
1070
     2
1070
   340
1005
3C1
1070
   140
1040
6.6
1070
    40
1040
1.0
1070
   147
1040
0.0
1070
    76
1070
     0
1070
    75
1070
     0
1070
   344
1005
7C
1070
   343
1005
7C
1070
   173
1070
     1
1070
   289
1070
     2
1070
   288
1070
     1
1070
    77
1070
     1
1070
   172
1070
     1
1070
   174
1070
     0
1070
    74
1070
     0
1070
    73
1070
     0
1070
   284
1070
     8
1070
    78
1070
     8
1070
    42
1040
2.0
1070
    44
1040
2.0
1070
    43
1040
10.0
1070
   271
1070
     1
1070
    41
1040
4.6
1002
}
  0
LINE
  5
3FF
330
1F
100
AcDbEntity
  8
9
  6
Continuous
 62
     7
370
    35
100
AcDbLine
 10
324.7057735844807
 20
322.0760903541116
 30
0.0
 11
340.7057695885802
 21
322.0760903541113
 31
0.0
  0
LINE
  5
400
330
1F
100
AcDbEntity
  8
9
  6
Continuous
 62
     7
370
    35
100
AcDbLine
 10
340.7057695885802
 20
311.0760903541112
 30
0.0
 11
324.7057735844804
 21
311.0760903541116
 31
0.0
  0
LINE
  5
401
330
1F
100
AcDbEntity
  8
9
  6
Continuous
 62
     7
370
    35
100
AcDbLine
 10
308.7057775803803
 20
311.0760903541116
 30
0.0
 11
324.7057735844803
 21
311.0760903541116
 31
0.0
  0
LINE
  5
402
330
1F
100
AcDbEntity
  8
9
  6
Continuous
 62
     7
370
    35
100
AcDbLine
 10
324.7057735844803
 20
322.0760903541116
 30
0.0
 11
308.7057775803804
 21
322.0760903541116
 31
0.0
  0
LINE
  5
403
330
1F
100
AcDbEntity
  8
9
  6
Continuous
 62
     7
370
    35
100
AcDbLine
 10
340.7057695885802
 20
322.0760903541113
 30
0.0
 11
340.7057695885801
 21
311.0760903541112
 31
0.0
  0
LINE
  5
404
330
1F
100
AcDbEntity
  8
9
  6
Continuous
 62
     7
370
    35
100
AcDbLine
 10
308.7057775803805
 20
322.0760903541116
 30
0.0
 11
308.7057775803803
 21
311.0760903541115
 31
0.0
  0
LINE
  5
405
330
1F
100
AcDbEntity
  8
9
  6
Continuous
 62
     7
370
    35
100
AcDbLine
 10
324.7057735844807
 20
322.0760903541116
 30
0.0
 11
324.7057735844807
 21
311.0760903541116
 31
0.0
  0
MTEXT
  5
406
330
1F
100
AcDbEntity
  8
6
  6
Continuous
 62
     3
370
     9
100
AcDbMText
 10
253.7312358820348
 20
258.4148817678442
 30
0.0
 40
8.8
 41
10.594827095072
 46
8.8
 71
     5
 72
     1
  1
{\fＭＳ Ｐゴシック;\W0.714286;閉}
 73
     1
 44
1.0
1001
ACAD
1000
ACAD_MTEXT_DEFINED_HEIGHT_BEGIN
1070
    46
1040
8.8
1000
ACAD_MTEXT_DEFINED_HEIGHT_END
  0
MTEXT
  5
407
330
1F
100
AcDbEntity
  8
9
  6
Continuous
 62
     7
370
     9
100
AcDbMText
 10
353.4692507083813
 20
48.38329581619541
 30
0.0
 40
8.0
 41
103.97649873344
 46
8.0
 71
     5
 72
     1
  1
{\fＭＳ Ｐゴシック;\W0.714286;末端試験装置　Ｇ-Ⅳ}
 73
     1
 44
1.0
1001
ACAD
1000
ACAD_MTEXT_DEFINED_HEIGHT_BEGIN
1070
    46
1040
8.0
1000
ACAD_MTEXT_DEFINED_HEIGHT_END
  0
LINE
  5
408
330
1F
100
AcDbEntity
  8
7
  6
Continuous
 62
     3
370
    25
100
AcDbLine
 10
371.1948250796511
 20
44.06156341093674
 30
0.0
 11
388.7993623315202
 21
44.06156341093674
 31
0.0
  0
MTEXT
  5
409
330
1F
100
AcDbEntity
  8
7
  6
Continuous
 62
     3
370
     9
100
AcDbMText
 10
336.5494507096801
 20
34.33297960546652
 30
0.0
 40
5.6
 41
26.588090635232
 46
5.6
 71
     5
 72
     1
  1
{\fＭＳ Ｐゴシック;\W0.714286;尺　　度}
 73
     1
 44
1.0
1001
ACAD
1000
ACAD_MTEXT_DEFINED_HEIGHT_BEGIN
1070
    46
1040
5.6
1000
ACAD_MTEXT_DEFINED_HEIGHT_END
  0
MTEXT
  5
40A
330
1F
100
AcDbEntity
  8
7
  6
Continuous
 62
     3
370
     9
100
AcDbMText
 10
368.3639109983018
 20
34.33297960546652
 30
0.0
 40
5.0
 41
3.342072765399999
 46
5.0
 71
     5
 72
     1
  1
{\fＭＳ Ｐゴシック;\W0.714286;/}
 73
     1
 44
1.0
1001
ACAD
1000
ACAD_MTEXT_DEFINED_HEIGHT_BEGIN
1070
    46
1040
5.0
1000
ACAD_MTEXT_DEFINED_HEIGHT_END
  0
MTEXT
  5
40B
330
1F
100
AcDbEntity
  8
9
  6
Continuous
 62
     7
370
     9
100
AcDbMText
 10
368.3639109983018
 20
34.33297960546652
 30
0.0
 40
5.6
 41
22.06680882672
 46
5.6
 71
     5
 72
     1
  1
{\fＭＳ Ｐゴシック;\W0.714286;1      2}
 73
     1
 44
1.0
1001
ACAD
1000
ACAD_MTEXT_DEFINED_HEIGHT_BEGIN
1070
    46
1040
5.6
1000
ACAD_MTEXT_DEFINED_HEIGHT_END
  0
VIEWPORT
  5
6A
330
1B
100
AcDbEntity
 67
     1
  8
0
100
AcDbViewport
 10
210.0
 20
297.0
 30
0.0
 40
420.0
 41
594.0
 68
     1
 69
     1
 12
210.0
 22
297.0
 13
0.0
 23
0.0
 14
0.5
 24
0.5
 15
0.5
 25
0.5
 16
0.0
 26
0.0
 36
1.0
 17
0.0
 27
0.0
 37
0.0
 42
50.0
 43
0.0
 44
0.0
 45
9.0
 50
0.0
 51
0.0
 72
   100
 90
   557152
  1

281
     0
 71
     1
 74
     0
110
0.0
120
0.0
130
0.0
111
1.0
121
0.0
131
0.0
112
0.0
122
1.0
132
0.0
 79
     0
146
0.0
170
     0
 61
     5
292
     1
282
     1
141
0.0
142
0.0
 63
   256
  0
ENDSEC
  0
SECTION
  2
OBJECTS
  0
DICTIONARY
  5
C
330
0
100
AcDbDictionary
281
     1
  3
ACAD_DETAILVIEWSTYLE
350
410
  3
ACAD_GROUP
350
D
  3
ACAD_LAYOUT
350
1A
  3
ACAD_MATERIAL
350
43
  3
ACAD_MLEADERSTYLE
350
40F
  3
ACAD_MLINESTYLE
350
17
  3
ACAD_PLOTSETTINGS
350
19
  3
ACAD_PLOTSTYLENAME
350
E
  3
ACAD_SCALELIST
350
47
  3
ACAD_SECTIONVIEWSTYLE
350
411
  3
ACAD_TABLESTYLE
350
40E
  3
ACAD_VISUALSTYLE
350
2A
  3
AcDbVariableDictionary
350
40C
  0
SUN
  5
69
330
29
100
AcDbSun
 90
        1
290
     0
 63
     7
421
 16777215
 40
1.0
291
     1
 91
  2455826
 92
 54000000
292
     0
 70
     2
 71
   256
280
     1
  0
DICTIONARY
  5
410
102
{ACAD_REACTORS
330
C
102
}
330
C
100
AcDbDictionary
281
     1
  0
DICTIONARY
  5
D
102
{ACAD_REACTORS
330
C
102
}
330
C
100
AcDbDictionary
281
     1
  0
DICTIONARY
  5
1A
102
{ACAD_REACTORS
330
C
102
}
330
C
100
AcDbDictionary
281
     1
  3
Layout1
350
1E
  3
Layout2
350
26
  3
Model
350
22
  0
DICTIONARY
  5
43
102
{ACAD_REACTORS
330
C
102
}
330
C
100
AcDbDictionary
281
     1
  3
ByBlock
350
45
  3
ByLayer
350
44
  3
Global
350
46
  0
DICTIONARY
  5
40F
102
{ACAD_REACTORS
330
C
102
}
330
C
100
AcDbDictionary
281
     1
  0
DICTIONARY
  5
17
102
{ACAD_REACTORS
330
C
102
}
330
C
100
AcDbDictionary
281
     1
  3
Standard
350
18
  0
DICTIONARY
  5
19
102
{ACAD_REACTORS
330
C
102
}
330
C
100
AcDbDictionary
281
     1
  0
ACDBDICTIONARYWDFLT
  5
E
102
{ACAD_REACTORS
330
C
102
}
330
C
100
AcDbDictionary
281
     1
  3
Normal
350
F
100
AcDbDictionaryWithDefault
340
F
  0
DICTIONARY
  5
47
102
{ACAD_REACTORS
330
C
102
}
330
C
100
AcDbDictionary
281
     1
  3
A0
350
48
  3
A1
350
49
  3
A2
350
4A
  3
A3
350
4B
  3
A4
350
4C
  3
A5
350
4D
  3
A6
350
4E
  3
A7
350
4F
  3
A8
350
50
  3
A9
350
51
  3
B0
350
52
  3
B1
350
53
  3
B2
350
54
  3
B3
350
55
  3
B4
350
56
  3
B5
350
57
  3
B6
350
58
  3
B7
350
59
  3
B8
350
5A
  3
B9
350
5B
  3
C0
350
5C
  3
C1
350
5D
  3
C2
350
5E
  3
C3
350
5F
  3
C4
350
60
  3
C5
350
61
  3
C6
350
62
  3
C7
350
63
  3
C8
350
64
  3
C9
350
65
  3
D0
350
66
  3
D1
350
67
  3
D2
350
68
  0
DICTIONARY
  5
411
102
{ACAD_REACTORS
330
C
102
}
330
C
100
AcDbDictionary
281
     1
  0
DICTIONARY
  5
40E
102
{ACAD_REACTORS
330
C
102
}
330
C
100
AcDbDictionary
281
     1
  0
DICTIONARY
  5
2A
102
{ACAD_REACTORS
330
C
102
}
330
C
100
AcDbDictionary
281
     1
  3
2dWireframe
350
2F
  3
Basic
350
32
  3
Brighten
350
36
  3
ColorChange
350
3A
  3
Conceptual
350
34
  3
Dim
350
35
  3
EdgeColorOff
350
3D
  3
Facepattern
350
39
  3
Flat
350
2B
  3
FlatWithEdges
350
2C
  3
Gouraud
350
2D
  3
GouraudWithEdges
350
2E
  3
Hidden
350
31
  3
JitterOff
350
3B
  3
Linepattern
350
38
  3
OverhangOff
350
3C
  3
Realistic
350
33
  3
Shaded
350
42
  3
Shaded with edges
350
41
  3
Shades of Gray
350
3E
  3
Sketchy
350
3F
  3
Thicken
350
37
  3
Wireframe
350
30
  3
X-Ray
350
40
  0
DICTIONARY
  5
40C
102
{ACAD_REACTORS
330
C
102
}
330
C
100
AcDbDictionary
281
     1
  3
CANNOSCALE
350
40D
  0
LAYOUT
  5
1E
102
{ACAD_REACTORS
330
1A
102
}
330
1A
100
AcDbPlotSettings
  1

  2
none_device
  4

  6

 40
0.0
 41
0.0
 42
0.0
 43
0.0
 44
0.0
 45
0.0
 46
0.0
 47
0.0
 48
0.0
 49
0.0
140
0.0
141
0.0
142
1.0
143
1.0
 70
   688
 72
     0
 73
     0
 74
     5
  7

 75
    16
 76
     0
 77
     2
 78
   300
147
1.0
148
0.0
149
0.0
100
AcDbLayout
  1
Layout1
 70
     1
 71
     1
 10
0.0
 20
0.0
 11
210.0
 21
297.0
 12
0.0
 22
0.0
 32
0.0
 14
0.0
 24
0.0
 34
0.0
 15
210.0
 25
297.0
 35
0.0
146
0.0
 13
0.0
 23
0.0
 33
0.0
 16
1.0
 26
0.0
 36
0.0
 17
0.0
 27
1.0
 37
0.0
 76
     0
330
1B
331
6A
  0
LAYOUT
  5
26
102
{ACAD_REACTORS
330
1A
102
}
330
1A
100
AcDbPlotSettings
  1

  2
none_device
  4

  6

 40
0.0
 41
0.0
 42
0.0
 43
0.0
 44
0.0
 45
0.0
 46
0.0
 47
0.0
 48
0.0
 49
0.0
140
0.0
141
0.0
142
1.0
143
1.0
 70
   688
 72
     0
 73
     0
 74
     5
  7

 75
    16
 76
     0
 77
     2
 78
   300
147
1.0
148
0.0
149
0.0
100
AcDbLayout
  1
Layout2
 70
     1
 71
     2
 10
0.0
 20
0.0
 11
0.0
 21
0.0
 12
0.0
 22
0.0
 32
0.0
 14
0.0
 24
0.0
 34
0.0
 15
0.0
 25
0.0
 35
0.0
146
0.0
 13
0.0
 23
0.0
 33
0.0
 16
1.0
 26
0.0
 36
0.0
 17
0.0
 27
1.0
 37
0.0
 76
     0
330
23
  0
LAYOUT
  5
22
102
{ACAD_REACTORS
330
1A
102
}
330
1A
100
AcDbPlotSettings
  1

  2
none_device
  4
Letter_(8.50_x_11.00_Inches)
  6

 40
6.35
 41
6.35
 42
6.35000508
 43
6.35000508
 44
215.9
 45
279.4
 46
0.0
 47
0.0
 48
0.0
 49
0.0
140
0.0
141
0.0
142
1.0
143
1.0
 70
  1712
 72
     0
 73
     0
 74
     0
  7

 75
     0
 76
     0
 77
     2
 78
   300
147
1.0
148
0.0
149
0.0
100
AcDbLayout
  1
Model
 70
     1
 71
     0
 10
0.0
 20
0.0
 11
210.0
 21
297.0
 12
0.0
 22
0.0
 32
0.0
 14
40.99999999999999
 24
24.03366790327755
 34
0.0
 15
403.0
 25
570.0336679032775
 35
0.0
146
0.0
 13
0.0
 23
0.0
 33
0.0
 16
1.0
 26
0.0
 36
0.0
 17
0.0
 27
1.0
 37
0.0
 76
     0
330
1F
331
29
  0
MATERIAL
  5
45
102
{ACAD_REACTORS
330
43
102
}
330
43
100
AcDbMaterial
  1
ByBlock
 72
     1
 94
      127
  0
MATERIAL
  5
44
102
{ACAD_REACTORS
330
43
102
}
330
43
100
AcDbMaterial
  1
ByLayer
 72
     1
 94
      127
  0
MATERIAL
  5
46
102
{ACAD_REACTORS
330
43
102
}
330
43
100
AcDbMaterial
  1
Global
 72
     1
 94
      127
  0
MLINESTYLE
  5
18
102
{ACAD_REACTORS
330
17
102
}
330
17
100
AcDbMlineStyle
  2
Standard
 70
     0
  3

 62
   256
 51
90.0
 52
90.0
 71
     2
 49
0.5
 62
   256
  6
BYLAYER
 49
-0.5
 62
   256
  6
BYLAYER
  0
ACDBPLACEHOLDER
  5
F
102
{ACAD_REACTORS
330
E
102
}
330
E
  0
SCALE
  5
48
102
{ACAD_REACTORS
330
47
102
}
330
47
100
AcDbScale
 70
     0
300
1:1
140
1.0
141
1.0
290
     1
  0
SCALE
  5
49
102
{ACAD_REACTORS
330
47
102
}
330
47
100
AcDbScale
 70
     0
300
1:2
140
1.0
141
2.0
290
     0
  0
SCALE
  5
4A
102
{ACAD_REACTORS
330
47
102
}
330
47
100
AcDbScale
 70
     0
300
1:4
140
1.0
141
4.0
290
     0
  0
SCALE
  5
4B
102
{ACAD_REACTORS
330
47
102
}
330
47
100
AcDbScale
 70
     0
300
1:5
140
1.0
141
5.0
290
     0
  0
SCALE
  5
4C
102
{ACAD_REACTORS
330
47
102
}
330
47
100
AcDbScale
 70
     0
300
1:8
140
1.0
141
8.0
290
     0
  0
SCALE
  5
4D
102
{ACAD_REACTORS
330
47
102
}
330
47
100
AcDbScale
 70
     0
300
1:10
140
1.0
141
10.0
290
     0
  0
SCALE
  5
4E
102
{ACAD_REACTORS
330
47
102
}
330
47
100
AcDbScale
 70
     0
300
1:16
140
1.0
141
16.0
290
     0
  0
SCALE
  5
4F
102
{ACAD_REACTORS
330
47
102
}
330
47
100
AcDbScale
 70
     0
300
1:20
140
1.0
141
20.0
290
     0
  0
SCALE
  5
50
102
{ACAD_REACTORS
330
47
102
}
330
47
100
AcDbScale
 70
     0
300
1:30
140
1.0
141
30.0
290
     0
  0
SCALE
  5
51
102
{ACAD_REACTORS
330
47
102
}
330
47
100
AcDbScale
 70
     0
300
1:40
140
1.0
141
40.0
290
     0
  0
SCALE
  5
52
102
{ACAD_REACTORS
330
47
102
}
330
47
100
AcDbScale
 70
     0
300
1:50
140
1.0
141
50.0
290
     0
  0
SCALE
  5
53
102
{ACAD_REACTORS
330
47
102
}
330
47
100
AcDbScale
 70
     0
300
1:100
140
1.0
141
100.0
290
     0
  0
SCALE
  5
54
102
{ACAD_REACTORS
330
47
102
}
330
47
100
AcDbScale
 70
     0
300
2:1
140
2.0
141
1.0
290
     0
  0
SCALE
  5
55
102
{ACAD_REACTORS
330
47
102
}
330
47
100
AcDbScale
 70
     0
300
4:1
140
4.0
141
1.0
290
     0
  0
SCALE
  5
56
102
{ACAD_REACTORS
330
47
102
}
330
47
100
AcDbScale
 70
     0
300
8:1
140
8.0
141
1.0
290
     0
  0
SCALE
  5
57
102
{ACAD_REACTORS
330
47
102
}
330
47
100
AcDbScale
 70
     0
300
10:1
140
10.0
141
1.0
290
     0
  0
SCALE
  5
58
102
{ACAD_REACTORS
330
47
102
}
330
47
100
AcDbScale
 70
     0
300
100:1
140
100.0
141
1.0
290
     0
  0
SCALE
  5
59
102
{ACAD_REACTORS
330
47
102
}
330
47
100
AcDbScale
 70
     0
300
1/128" = 1'-0"
140
0.0078125
141
12.0
290
     0
  0
SCALE
  5
5A
102
{ACAD_REACTORS
330
47
102
}
330
47
100
AcDbScale
 70
     0
300
1/64" = 1'-0"
140
0.015625
141
12.0
290
     0
  0
SCALE
  5
5B
102
{ACAD_REACTORS
330
47
102
}
330
47
100
AcDbScale
 70
     0
300
1/32" = 1'-0"
140
0.03125
141
12.0
290
     0
  0
SCALE
  5
5C
102
{ACAD_REACTORS
330
47
102
}
330
47
100
AcDbScale
 70
     0
300
1/16" = 1'-0"
140
0.0625
141
12.0
290
     0
  0
SCALE
  5
5D
102
{ACAD_REACTORS
330
47
102
}
330
47
100
AcDbScale
 70
     0
300
3/32" = 1'-0"
140
0.09375
141
12.0
290
     0
  0
SCALE
  5
5E
102
{ACAD_REACTORS
330
47
102
}
330
47
100
AcDbScale
 70
     0
300
1/8" = 1'-0"
140
0.125
141
12.0
290
     0
  0
SCALE
  5
5F
102
{ACAD_REACTORS
330
47
102
}
330
47
100
AcDbScale
 70
     0
300
3/16" = 1'-0"
140
0.1875
141
12.0
290
     0
  0
SCALE
  5
60
102
{ACAD_REACTORS
330
47
102
}
330
47
100
AcDbScale
 70
     0
300
1/4" = 1'-0"
140
0.25
141
12.0
290
     0
  0
SCALE
  5
61
102
{ACAD_REACTORS
330
47
102
}
330
47
100
AcDbScale
 70
     0
300
3/8" = 1'-0"
140
0.375
141
12.0
290
     0
  0
SCALE
  5
62
102
{ACAD_REACTORS
330
47
102
}
330
47
100
AcDbScale
 70
     0
300
1/2" = 1'-0"
140
0.5
141
12.0
290
     0
  0
SCALE
  5
63
102
{ACAD_REACTORS
330
47
102
}
330
47
100
AcDbScale
 70
     0
300
3/4" = 1'-0"
140
0.75
141
12.0
290
     0
  0
SCALE
  5
64
102
{ACAD_REACTORS
330
47
102
}
330
47
100
AcDbScale
 70
     0
300
1" = 1'-0"
140
1.0
141
12.0
290
     0
  0
SCALE
  5
65
102
{ACAD_REACTORS
330
47
102
}
330
47
100
AcDbScale
 70
     0
300
1-1/2" = 1'-0"
140
1.5
141
12.0
290
     0
  0
SCALE
  5
66
102
{ACAD_REACTORS
330
47
102
}
330
47
100
AcDbScale
 70
     0
300
3" = 1'-0"
140
3.0
141
12.0
290
     0
  0
SCALE
  5
67
102
{ACAD_REACTORS
330
47
102
}
330
47
100
AcDbScale
 70
     0
300
6" = 1'-0"
140
6.0
141
12.0
290
     0
  0
SCALE
  5
68
102
{ACAD_REACTORS
330
47
102
}
330
47
100
AcDbScale
 70
     0
300
1'-0" = 1'-0"
140
12.0
141
12.0
290
     0
  0
VISUALSTYLE
  5
2F
102
{ACAD_REACTORS
330
2A
102
}
330
2A
100
AcDbVisualStyle
  2
2dWireframe
 70
     4
177
     3
291
     0
 70
    58
 90
        0
176
     1
 90
        2
176
     1
 90
        0
176
     1
 90
        0
176
     1
 40
0.6
176
     1
 40
30.0
176
     1
 62
     7
420
 16777215
176
     1
 90
        1
176
     1
 90
        4
176
     1
 62
     7
176
     1
 62
   257
176
     1
 90
        1
176
     1
 90
        1
176
     1
 40
1.0
176
     1
 90
        0
176
     1
 62
   257
176
     1
 40
1.0
176
     1
 90
        1
176
     1
 90
        6
176
     1
 90
        2
176
     1
 62
     7
176
     1
 90
        5
176
     1
 90
        0
176
     1
 90
        0
176
     1
290
     0
176
     1
 90
        1
176
     1
 40
0.0
176
     1
 90
        0
176
     1
290
     1
176
     1
290
     1
176
     1
290
     0
176
     1
290
     0
176
     1
290
     0
176
     1
290
     0
176
     1
290
     0
176
     1
290
     0
176
     1
290
     0
176
     1
 90
       50
176
     1
 40
0.0
176
     1
 40
1.0
176
     1
 90
        0
176
     1
 62
    18
420
        0
176
     1
 90
       50
176
     1
 90
        3
176
     1
 62
     5
420
      255
176
     1
290
     0
176
     1
 90
       50
176
     1
 90
       50
176
     1
 90
       50
176
     1
290
     0
176
     1
 90
       50
176
     1
 62
   256
176
     0
 40
1.0
176
     0
 90
        2
176
     1
  1
strokes_ogs.tif
176
     1
290
     0
176
     1
 40
1.0
176
     1
 40
1.0
176
     1
  0
VISUALSTYLE
  5
32
102
{ACAD_REACTORS
330
2A
102
}
330
2A
100
AcDbVisualStyle
  2
Basic
 70
     7
177
     3
291
     1
 70
    58
 90
        1
176
     1
 90
        0
176
     1
 90
        1
176
     1
 90
        0
176
     1
 40
0.6
176
     1
 40
30.0
176
     1
 62
     7
420
 16777215
176
     1
 90
        0
176
     1
 90
        4
176
     1
 62
     7
176
     1
 62
   257
176
     1
 90
        1
176
     1
 90
        1
176
     1
 40
1.0
176
     1
 90
        8
176
     1
 62
     7
176
     1
 40
1.0
176
     1
 90
        1
176
     1
 90
        6
176
     1
 90
        2
176
     1
 62
     7
176
     1
 90
        5
176
     1
 90
        0
176
     1
 90
        0
176
     1
290
     0
176
     1
 90
        1
176
     1
 40
0.0
176
     1
 90
        0
176
     1
290
     0
176
     1
290
     1
176
     1
290
     1
176
     1
290
     0
176
     1
290
     0
176
     1
290
     0
176
     1
290
     0
176
     1
290
     0
176
     1
290
     0
176
     1
 90
       50
176
     1
 40
0.0
176
     1
 40
1.0
176
     1
 90
        0
176
     1
 62
    18
420
        0
176
     1
 90
       50
176
     1
 90
        3
176
     1
 62
     5
420
      255
176
     1
290
     0
176
     1
 90
       50
176
     1
 90
       50
176
     1
 90
       50
176
     1
290
     0
176
     1
 90
       50
176
     1
 62
   256
176
     0
 40
1.0
176
     0
 90
        2
176
     1
  1
strokes_ogs.tif
176
     1
290
     0
176
     1
 40
1.0
176
     1
 40
1.0
176
     1
  0
VISUALSTYLE
  5
36
102
{ACAD_REACTORS
330
2A
102
}
330
2A
100
AcDbVisualStyle
  2
Brighten
 70
    12
177
     3
291
     1
 70
    58
 90
        2
176
     1
 90
        2
176
     1
 90
        0
176
     1
 90
        0
176
     1
 40
0.6
176
     1
 40
30.0
176
     1
 62
     7
420
 16777215
176
     1
 90
        1
176
     1
 90
        4
176
     1
 62
     7
176
     1
 62
   257
176
     1
 90
        1
176
     1
 90
        1
176
     1
 40
1.0
176
     1
 90
        8
176
     1
 62
     7
176
     1
 40
1.0
176
     1
 90
        1
176
     1
 90
        6
176
     1
 90
        2
176
     1
 62
     7
176
     1
 90
        5
176
     1
 90
        0
176
     1
 90
        0
176
     1
290
     0
176
     1
 90
        1
176
     1
 40
50.0
176
     1
 90
        0
176
     1
290
     0
176
     1
290
     1
176
     1
290
     1
176
     1
290
     0
176
     1
290
     0
176
     1
290
     0
176
     1
290
     0
176
     1
290
     0
176
     1
290
     0
176
     1
 90
       50
176
     1
 40
0.0
176
     1
 40
1.0
176
     1
 90
        0
176
     1
 62
    18
420
        0
176
     1
 90
       50
176
     1
 90
        3
176
     1
 62
     5
420
      255
176
     1
290
     0
176
     1
 90
       50
176
     1
 90
       50
176
     1
 90
       50
176
     1
290
     0
176
     1
 90
       50
176
     1
 62
   256
176
     0
 40
1.0
176
     0
 90
        2
176
     1
  1
strokes_ogs.tif
176
     1
290
     0
176
     1
 40
1.0
176
     1
 40
1.0
176
     1
  0
VISUALSTYLE
  5
3A
102
{ACAD_REACTORS
330
2A
102
}
330
2A
100
AcDbVisualStyle
  2
ColorChange
 70
    16
177
     3
291
     1
 70
    58
 90
        2
176
     1
 90
        2
176
     1
 90
        3
176
     1
 90
        0
176
     1
 40
0.6
176
     1
 40
30.0
176
     1
 62
     8
420
  8421504
176
     1
 90
        1
176
     1
 90
        4
176
     1
 62
     7
176
     1
 62
   257
176
     1
 90
        1
176
     1
 90
        1
176
     1
 40
1.0
176
     1
 90
        8
176
     1
 62
     8
420
  8421504
176
     1
 40
1.0
176
     1
 90
        1
176
     1
 90
        6
176
     1
 90
        2
176
     1
 62
     7
176
     1
 90
        5
176
     1
 90
        0
176
     1
 90
        0
176
     1
290
     0
176
     1
 90
        1
176
     1
 40
0.0
176
     1
 90
        0
176
     1
290
     0
176
     1
290
     1
176
     1
290
     1
176
     1
290
     0
176
     1
290
     0
176
     1
290
     0
176
     1
290
     0
176
     1
290
     0
176
     1
290
     0
176
     1
 90
       50
176
     1
 40
0.0
176
     1
 40
1.0
176
     1
 90
        0
176
     1
 62
    18
420
        0
176
     1
 90
       50
176
     1
 90
        3
176
     1
 62
     5
420
      255
176
     1
290
     0
176
     1
 90
       50
176
     1
 90
       50
176
     1
 90
       50
176
     1
290
     0
176
     1
 90
       50
176
     1
 62
   256
176
     0
 40
1.0
176
     0
 90
        2
176
     1
  1
strokes_ogs.tif
176
     1
290
     0
176
     1
 40
1.0
176
     1
 40
1.0
176
     1
  0
VISUALSTYLE
  5
34
102
{ACAD_REACTORS
330
2A
102
}
330
2A
100
AcDbVisualStyle
  2
Conceptual
 70
     9
177
     3
291
     0
 70
    58
 90
        3
176
     1
 90
        2
176
     1
 90
        0
176
     1
 90
        0
176
     1
 40
0.6
176
     1
 40
30.0
176
     1
 62
     7
420
 16777215
176
     1
 90
        2
176
     1
 90
        2
176
     1
 62
     7
176
     1
 62
   257
176
     1
 90
        1
176
     1
 90
        1
176
     1
 40
179.0
176
     1
 90
        8
176
     1
 62
     7
176
     1
 40
1.0
176
     1
 90
        1
176
     1
 90
        6
176
     1
 90
        2
176
     1
 62
     7
176
     1
 90
        3
176
     1
 90
        0
176
     1
 90
        0
176
     1
290
     0
176
     1
 90
        1
176
     1
 40
0.0
176
     1
 90
        0
176
     1
290
     0
176
     1
290
     1
176
     1
290
     1
176
     1
290
     0
176
     1
290
     0
176
     1
290
     0
176
     1
290
     0
176
     1
290
     0
176
     1
290
     0
176
     1
 90
       50
176
     1
 40
0.0
176
     1
 40
1.0
176
     1
 90
        0
176
     1
 62
    18
420
        0
176
     1
 90
       50
176
     1
 90
        3
176
     1
 62
     5
420
      255
176
     1
290
     0
176
     1
 90
       50
176
     1
 90
       50
176
     1
 90
       50
176
     1
290
     0
176
     1
 90
       50
176
     1
 62
   256
176
     0
 40
1.0
176
     0
 90
        2
176
     1
  1
strokes_ogs.tif
176
     1
290
     0
176
     1
 40
1.0
176
     1
 40
1.0
176
     1
  0
VISUALSTYLE
  5
35
102
{ACAD_REACTORS
330
2A
102
}
330
2A
100
AcDbVisualStyle
  2
Dim
 70
    11
177
     3
291
     1
 70
    58
 90
        2
176
     1
 90
        2
176
     1
 90
        0
176
     1
 90
        0
176
     1
 40
0.6
176
     1
 40
30.0
176
     1
 62
     7
420
 16777215
176
     1
 90
        1
176
     1
 90
        4
176
     1
 62
     7
176
     1
 62
   257
176
     1
 90
        1
176
     1
 90
        1
176
     1
 40
1.0
176
     1
 90
        8
176
     1
 62
     7
176
     1
 40
1.0
176
     1
 90
        1
176
     1
 90
        6
176
     1
 90
        2
176
     1
 62
     7
176
     1
 90
        5
176
     1
 90
        0
176
     1
 90
        0
176
     1
290
     0
176
     1
 90
        1
176
     1
 40
-50.0
176
     1
 90
        0
176
     1
290
     0
176
     1
290
     1
176
     1
290
     1
176
     1
290
     0
176
     1
290
     0
176
     1
290
     0
176
     1
290
     0
176
     1
290
     0
176
     1
290
     0
176
     1
 90
       50
176
     1
 40
0.0
176
     1
 40
1.0
176
     1
 90
        0
176
     1
 62
    18
420
        0
176
     1
 90
       50
176
     1
 90
        3
176
     1
 62
     5
420
      255
176
     1
290
     0
176
     1
 90
       50
176
     1
 90
       50
176
     1
 90
       50
176
     1
290
     0
176
     1
 90
       50
176
     1
 62
   256
176
     0
 40
1.0
176
     0
 90
        2
176
     1
  1
strokes_ogs.tif
176
     1
290
     0
176
     1
 40
1.0
176
     1
 40
1.0
176
     1
  0
VISUALSTYLE
  5
3D
102
{ACAD_REACTORS
330
2A
102
}
330
2A
100
AcDbVisualStyle
  2
EdgeColorOff
 70
    22
177
     3
291
     1
 70
    58
 90
        2
176
     0
 90
        2
176
     0
 90
        0
176
     0
 90
        0
176
     0
 40
0.6
176
     0
 40
30.0
176
     0
 62
     7
420
 16777215
176
     0
 90
        1
176
     0
 90
        4
176
     0
 62
     7
176
     0
 62
   257
176
     0
 90
        1
176
     0
 90
        1
176
     0
 40
1.0
176
     0
 90
        8
176
     2
 62
     7
176
     0
 40
1.0
176
     0
 90
        1
176
     0
 90
        6
176
     0
 90
        2
176
     0
 62
     7
176
     0
 90
        5
176
     0
 90
        0
176
     0
 90
        0
176
     0
290
     0
176
     0
 90
        1
176
     0
 40
0.0
176
     0
 90
        0
176
     0
290
     0
176
     0
290
     1
176
     0
290
     1
176
     0
290
     0
176
     0
290
     0
176
     0
290
     0
176
     0
290
     0
176
     0
290
     0
176
     0
290
     0
176
     0
 90
       50
176
     0
 40
0.0
176
     0
 40
1.0
176
     0
 90
        0
176
     0
 62
    18
420
        0
176
     0
 90
       50
176
     0
 90
        3
176
     0
 62
     5
420
      255
176
     0
290
     0
176
     0
 90
       50
176
     0
 90
       50
176
     0
 90
       50
176
     0
290
     0
176
     0
 90
       50
176
     0
 62
   256
176
     0
 40
1.0
176
     0
 90
        2
176
     0
  1
strokes_ogs.tif
176
     0
290
     0
176
     0
 40
1.0
176
     0
 40
1.0
176
     0
  0
VISUALSTYLE
  5
39
102
{ACAD_REACTORS
330
2A
102
}
330
2A
100
AcDbVisualStyle
  2
Facepattern
 70
    15
177
     3
291
     1
 70
    58
 90
        2
176
     1
 90
        2
176
     1
 90
        0
176
     1
 90
        0
176
     1
 40
0.6
176
     1
 40
30.0
176
     1
 62
     7
420
 16777215
176
     1
 90
        1
176
     1
 90
        4
176
     1
 62
     7
176
     1
 62
   257
176
     1
 90
        1
176
     1
 90
        1
176
     1
 40
1.0
176
     1
 90
        8
176
     1
 62
     7
176
     1
 40
1.0
176
     1
 90
        1
176
     1
 90
        6
176
     1
 90
        2
176
     1
 62
     7
176
     1
 90
        5
176
     1
 90
        0
176
     1
 90
        0
176
     1
290
     0
176
     1
 90
        1
176
     1
 40
0.0
176
     1
 90
        0
176
     1
290
     0
176
     1
290
     1
176
     1
290
     1
176
     1
290
     0
176
     1
290
     0
176
     1
290
     0
176
     1
290
     0
176
     1
290
     0
176
     1
290
     0
176
     1
 90
       50
176
     1
 40
0.0
176
     1
 40
1.0
176
     1
 90
        0
176
     1
 62
    18
420
        0
176
     1
 90
       50
176
     1
 90
        3
176
     1
 62
     5
420
      255
176
     1
290
     0
176
     1
 90
       50
176
     1
 90
       50
176
     1
 90
       50
176
     1
290
     0
176
     1
 90
       50
176
     1
 62
   256
176
     0
 40
1.0
176
     0
 90
        2
176
     1
  1
strokes_ogs.tif
176
     1
290
     0
176
     1
 40
1.0
176
     1
 40
1.0
176
     1
  0
VISUALSTYLE
  5
2B
102
{ACAD_REACTORS
330
2A
102
}
330
2A
100
AcDbVisualStyle
  2
Flat
 70
     0
177
     3
291
     1
 70
    58
 90
        2
176
     1
 90
        1
176
     1
 90
        1
176
     1
 90
        2
176
     1
 40
0.6
176
     1
 40
30.0
176
     1
 62
     7
420
 16777215
176
     1
 90
        0
176
     1
 90
        0
176
     1
 62
     7
176
     1
 62
   257
176
     1
 90
        1
176
     1
 90
        1
176
     1
 40
1.0
176
     1
 90
        8
176
     1
 62
     7
176
     1
 40
1.0
176
     1
 90
        1
176
     1
 90
        6
176
     1
 90
        2
176
     1
 62
     7
176
     1
 90
        5
176
     1
 90
        0
176
     1
 90
        0
176
     1
290
     0
176
     1
 90
       13
176
     1
 40
0.0
176
     1
 90
        0
176
     1
290
     0
176
     1
290
     1
176
     1
290
     1
176
     1
290
     0
176
     1
290
     0
176
     1
290
     0
176
     1
290
     0
176
     1
290
     0
176
     1
290
     0
176
     1
 90
       50
176
     1
 40
0.0
176
     1
 40
1.0
176
     1
 90
        0
176
     1
 62
    18
420
        0
176
     1
 90
       50
176
     1
 90
        3
176
     1
 62
     5
420
      255
176
     1
290
     0
176
     1
 90
       50
176
     1
 90
       50
176
     1
 90
       50
176
     1
290
     0
176
     1
 90
       50
176
     1
 62
   256
176
     0
 40
1.0
176
     0
 90
        2
176
     1
  1
strokes_ogs.tif
176
     1
290
     0
176
     1
 40
1.0
176
     1
 40
1.0
176
     1
  0
VISUALSTYLE
  5
2C
102
{ACAD_REACTORS
330
2A
102
}
330
2A
100
AcDbVisualStyle
  2
FlatWithEdges
 70
     1
177
     3
291
     1
 70
    58
 90
        2
176
     1
 90
        1
176
     1
 90
        1
176
     1
 90
        2
176
     1
 40
0.6
176
     1
 40
30.0
176
     1
 62
     7
420
 16777215
176
     1
 90
        1
176
     1
 90
        0
176
     1
 62
     7
176
     1
 62
   257
176
     1
 90
        1
176
     1
 90
        1
176
     1
 40
1.0
176
     1
 90
        0
176
     1
 62
   257
176
     1
 40
1.0
176
     1
 90
        1
176
     1
 90
        6
176
     1
 90
        2
176
     1
 62
     7
176
     1
 90
        5
176
     1
 90
        0
176
     1
 90
        0
176
     1
290
     0
176
     1
 90
       13
176
     1
 40
0.0
176
     1
 90
        0
176
     1
290
     0
176
     1
290
     1
176
     1
290
     1
176
     1
290
     0
176
     1
290
     0
176
     1
290
     0
176
     1
290
     0
176
     1
290
     0
176
     1
290
     0
176
     1
 90
       50
176
     1
 40
0.0
176
     1
 40
1.0
176
     1
 90
        0
176
     1
 62
    18
420
        0
176
     1
 90
       50
176
     1
 90
        3
176
     1
 62
     5
420
      255
176
     1
290
     0
176
     1
 90
       50
176
     1
 90
       50
176
     1
 90
       50
176
     1
290
     0
176
     1
 90
       50
176
     1
 62
   256
176
     0
 40
1.0
176
     0
 90
        2
176
     1
  1
strokes_ogs.tif
176
     1
290
     0
176
     1
 40
1.0
176
     1
 40
1.0
176
     1
  0
VISUALSTYLE
  5
2D
102
{ACAD_REACTORS
330
2A
102
}
330
2A
100
AcDbVisualStyle
  2
Gouraud
 70
     2
177
     3
291
     1
 70
    58
 90
        2
176
     1
 90
        2
176
     1
 90
        1
176
     1
 90
        2
176
     1
 40
0.6
176
     1
 40
30.0
176
     1
 62
     7
420
 16777215
176
     1
 90
        0
176
     1
 90
        0
176
     1
 62
     7
176
     1
 62
   257
176
     1
 90
        1
176
     1
 90
        1
176
     1
 40
1.0
176
     1
 90
        0
176
     1
 62
     7
176
     1
 40
1.0
176
     1
 90
        1
176
     1
 90
        6
176
     1
 90
        2
176
     1
 62
     7
176
     1
 90
        5
176
     1
 90
        0
176
     1
 90
        0
176
     1
290
     0
176
     1
 90
       13
176
     1
 40
0.0
176
     1
 90
        0
176
     1
290
     0
176
     1
290
     1
176
     1
290
     1
176
     1
290
     0
176
     1
290
     0
176
     1
290
     0
176
     1
290
     0
176
     1
290
     0
176
     1
290
     0
176
     1
 90
       50
176
     1
 40
0.0
176
     1
 40
1.0
176
     1
 90
        0
176
     1
 62
    18
420
        0
176
     1
 90
       50
176
     1
 90
        3
176
     1
 62
     5
420
      255
176
     1
290
     0
176
     1
 90
       50
176
     1
 90
       50
176
     1
 90
       50
176
     1
290
     0
176
     1
 90
       50
176
     1
 62
   256
176
     0
 40
1.0
176
     0
 90
        2
176
     1
  1
strokes_ogs.tif
176
     1
290
     0
176
     1
 40
1.0
176
     1
 40
1.0
176
     1
  0
VISUALSTYLE
  5
2E
102
{ACAD_REACTORS
330
2A
102
}
330
2A
100
AcDbVisualStyle
  2
GouraudWithEdges
 70
     3
177
     3
291
     1
 70
    58
 90
        2
176
     1
 90
        2
176
     1
 90
        1
176
     1
 90
        2
176
     1
 40
0.6
176
     1
 40
30.0
176
     1
 62
     7
420
 16777215
176
     1
 90
        1
176
     1
 90
        0
176
     1
 62
     7
176
     1
 62
   257
176
     1
 90
        1
176
     1
 90
        1
176
     1
 40
1.0
176
     1
 90
        0
176
     1
 62
   257
176
     1
 40
1.0
176
     1
 90
        1
176
     1
 90
        6
176
     1
 90
        2
176
     1
 62
     7
176
     1
 90
        5
176
     1
 90
        0
176
     1
 90
        0
176
     1
290
     0
176
     1
 90
       13
176
     1
 40
0.0
176
     1
 90
        0
176
     1
290
     0
176
     1
290
     1
176
     1
290
     1
176
     1
290
     0
176
     1
290
     0
176
     1
290
     0
176
     1
290
     0
176
     1
290
     0
176
     1
290
     0
176
     1
 90
       50
176
     1
 40
0.0
176
     1
 40
1.0
176
     1
 90
        0
176
     1
 62
    18
420
        0
176
     1
 90
       50
176
     1
 90
        3
176
     1
 62
     5
420
      255
176
     1
290
     0
176
     1
 90
       50
176
     1
 90
       50
176
     1
 90
       50
176
     1
290
     0
176
     1
 90
       50
176
     1
 62
   256
176
     0
 40
1.0
176
     0
 90
        2
176
     1
  1
strokes_ogs.tif
176
     1
290
     0
176
     1
 40
1.0
176
     1
 40
1.0
176
     1
  0
VISUALSTYLE
  5
31
102
{ACAD_REACTORS
330
2A
102
}
330
2A
100
AcDbVisualStyle
  2
Hidden
 70
     6
177
     3
291
     0
 70
    58
 90
        1
176
     1
 90
        2
176
     1
 90
        2
176
     1
 90
        0
176
     1
 40
0.6
176
     1
 40
30.0
176
     1
 62
     7
420
 16777215
176
     1
 90
        2
176
     1
 90
        2
176
     1
 62
     7
176
     1
 62
   257
176
     1
 90
        2
176
     1
 90
        1
176
     1
 40
40.0
176
     1
 90
        0
176
     1
 62
   257
176
     1
 40
1.0
176
     1
 90
        1
176
     1
 90
        6
176
     1
 90
        2
176
     1
 62
     7
176
     1
 90
        3
176
     1
 90
        0
176
     1
 90
        0
176
     1
290
     0
176
     1
 90
        1
176
     1
 40
0.0
176
     1
 90
        0
176
     1
290
     0
176
     1
290
     1
176
     1
290
     1
176
     1
290
     0
176
     1
290
     0
176
     1
290
     0
176
     1
290
     0
176
     1
290
     0
176
     1
290
     0
176
     1
 90
       50
176
     1
 40
0.0
176
     1
 40
1.0
176
     1
 90
        0
176
     1
 62
    18
420
        0
176
     1
 90
       50
176
     1
 90
        3
176
     1
 62
     5
420
      255
176
     1
290
     0
176
     1
 90
       50
176
     1
 90
       50
176
     1
 90
       50
176
     1
290
     0
176
     1
 90
       50
176
     1
 62
   256
176
     0
 40
1.0
176
     0
 90
        2
176
     1
  1
strokes_ogs.tif
176
     1
290
     0
176
     1
 40
1.0
176
     1
 40
1.0
176
     1
  0
VISUALSTYLE
  5
3B
102
{ACAD_REACTORS
330
2A
102
}
330
2A
100
AcDbVisualStyle
  2
JitterOff
 70
    20
177
     3
291
     1
 70
    58
 90
        2
176
     0
 90
        2
176
     0
 90
        0
176
     0
 90
        0
176
     0
 40
0.6
176
     0
 40
30.0
176
     0
 62
     7
420
 16777215
176
     0
 90
        1
176
     0
 90
        4
176
     0
 62
     7
176
     0
 62
   257
176
     0
 90
        1
176
     0
 90
        1
176
     0
 40
1.0
176
     0
 90
       10
176
     2
 62
     7
176
     0
 40
1.0
176
     0
 90
        1
176
     0
 90
        6
176
     0
 90
        2
176
     0
 62
     7
176
     0
 90
        5
176
     0
 90
        0
176
     0
 90
        0
176
     0
290
     0
176
     0
 90
        1
176
     0
 40
0.0
176
     0
 90
        0
176
     0
290
     0
176
     0
290
     1
176
     0
290
     1
176
     0
290
     0
176
     0
290
     0
176
     0
290
     0
176
     0
290
     0
176
     0
290
     0
176
     0
290
     0
176
     0
 90
       50
176
     0
 40
0.0
176
     0
 40
1.0
176
     0
 90
        0
176
     0
 62
    18
420
        0
176
     0
 90
       50
176
     0
 90
        3
176
     0
 62
     5
420
      255
176
     0
290
     0
176
     0
 90
       50
176
     0
 90
       50
176
     0
 90
       50
176
     0
290
     0
176
     0
 90
       50
176
     0
 62
   256
176
     0
 40
1.0
176
     0
 90
        2
176
     0
  1
strokes_ogs.tif
176
     0
290
     0
176
     0
 40
1.0
176
     0
 40
1.0
176
     0
  0
VISUALSTYLE
  5
38
102
{ACAD_REACTORS
330
2A
102
}
330
2A
100
AcDbVisualStyle
  2
Linepattern
 70
    14
177
     3
291
     1
 70
    58
 90
        2
176
     1
 90
        2
176
     1
 90
        0
176
     1
 90
        0
176
     1
 40
0.6
176
     1
 40
30.0
176
     1
 62
     7
420
 16777215
176
     1
 90
        1
176
     1
 90
        4
176
     1
 62
     7
176
     1
 62
   257
176
     1
 90
        7
176
     1
 90
        7
176
     1
 40
1.0
176
     1
 90
        8
176
     1
 62
     7
176
     1
 40
1.0
176
     1
 90
        1
176
     1
 90
        6
176
     1
 90
        2
176
     1
 62
     7
176
     1
 90
        5
176
     1
 90
        0
176
     1
 90
        0
176
     1
290
     0
176
     1
 90
        1
176
     1
 40
0.0
176
     1
 90
        0
176
     1
290
     0
176
     1
290
     1
176
     1
290
     1
176
     1
290
     0
176
     1
290
     0
176
     1
290
     0
176
     1
290
     0
176
     1
290
     0
176
     1
290
     0
176
     1
 90
       50
176
     1
 40
0.0
176
     1
 40
1.0
176
     1
 90
        0
176
     1
 62
    18
420
        0
176
     1
 90
       50
176
     1
 90
        3
176
     1
 62
     5
420
      255
176
     1
290
     0
176
     1
 90
       50
176
     1
 90
       50
176
     1
 90
       50
176
     1
290
     0
176
     1
 90
       50
176
     1
 62
   256
176
     0
 40
1.0
176
     0
 90
        2
176
     1
  1
strokes_ogs.tif
176
     1
290
     0
176
     1
 40
1.0
176
     1
 40
1.0
176
     1
  0
VISUALSTYLE
  5
3C
102
{ACAD_REACTORS
330
2A
102
}
330
2A
100
AcDbVisualStyle
  2
OverhangOff
 70
    21
177
     3
291
     1
 70
    58
 90
        2
176
     0
 90
        2
176
     0
 90
        0
176
     0
 90
        0
176
     0
 40
0.6
176
     0
 40
30.0
176
     0
 62
     7
420
 16777215
176
     0
 90
        1
176
     0
 90
        4
176
     0
 62
     7
176
     0
 62
   257
176
     0
 90
        1
176
     0
 90
        1
176
     0
 40
1.0
176
     0
 90
        9
176
     2
 62
     7
176
     0
 40
1.0
176
     0
 90
        1
176
     0
 90
        6
176
     0
 90
        2
176
     0
 62
     7
176
     0
 90
        5
176
     0
 90
        0
176
     0
 90
        0
176
     0
290
     0
176
     0
 90
        1
176
     0
 40
0.0
176
     0
 90
        0
176
     0
290
     0
176
     0
290
     1
176
     0
290
     1
176
     0
290
     0
176
     0
290
     0
176
     0
290
     0
176
     0
290
     0
176
     0
290
     0
176
     0
290
     0
176
     0
 90
       50
176
     0
 40
0.0
176
     0
 40
1.0
176
     0
 90
        0
176
     0
 62
    18
420
        0
176
     0
 90
       50
176
     0
 90
        3
176
     0
 62
     5
420
      255
176
     0
290
     0
176
     0
 90
       50
176
     0
 90
       50
176
     0
 90
       50
176
     0
290
     0
176
     0
 90
       50
176
     0
 62
   256
176
     0
 40
1.0
176
     0
 90
        2
176
     0
  1
strokes_ogs.tif
176
     0
290
     0
176
     0
 40
1.0
176
     0
 40
1.0
176
     0
  0
VISUALSTYLE
  5
33
102
{ACAD_REACTORS
330
2A
102
}
330
2A
100
AcDbVisualStyle
  2
Realistic
 70
     8
177
     3
291
     0
 70
    58
 90
        2
176
     1
 90
        3
176
     1
 90
        0
176
     1
 90
        2
176
     1
 40
0.6
176
     1
 40
30.0
176
     1
 62
     7
420
 16777215
176
     1
 90
        0
176
     1
 90
        0
176
     1
 62
     7
176
     1
 62
   257
176
     1
 90
        1
176
     1
 90
        1
176
     1
 40
1.0
176
     1
 90
        8
176
     1
 62
   257
176
     1
 40
1.0
176
     1
 90
        1
176
     1
 90
        6
176
     1
 90
        2
176
     1
 62
     7
176
     1
 90
        3
176
     1
 90
        0
176
     1
 90
        0
176
     1
290
     0
176
     1
 90
       13
176
     1
 40
0.0
176
     1
 90
        0
176
     1
290
     0
176
     1
290
     1
176
     1
290
     1
176
     1
290
     0
176
     1
290
     0
176
     1
290
     0
176
     1
290
     0
176
     1
290
     0
176
     1
290
     0
176
     1
 90
       50
176
     1
 40
0.0
176
     1
 40
1.0
176
     1
 90
        0
176
     1
 62
    18
420
        0
176
     1
 90
       50
176
     1
 90
        3
176
     1
 62
     5
420
      255
176
     1
290
     0
176
     1
 90
       50
176
     1
 90
       50
176
     1
 90
       50
176
     1
290
     0
176
     1
 90
       50
176
     1
 62
   256
176
     0
 40
1.0
176
     0
 90
        2
176
     1
  1
strokes_ogs.tif
176
     1
290
     0
176
     1
 40
1.0
176
     1
 40
1.0
176
     1
  0
VISUALSTYLE
  5
42
102
{ACAD_REACTORS
330
2A
102
}
330
2A
100
AcDbVisualStyle
  2
Shaded
 70
    27
177
     3
291
     0
 70
    58
 90
        2
176
     1
 90
        2
176
     1
 90
        1
176
     1
 90
        2
176
     1
 40
0.6
176
     1
 40
30.0
176
     1
 62
     7
420
 16777215
176
     1
 90
        0
176
     1
 90
        4
176
     1
 62
     7
176
     1
 62
   257
176
     1
 90
        1
176
     1
 90
        1
176
     1
 40
1.0
176
     1
 90
        8
176
     1
 62
   257
176
     1
 40
1.0
176
     1
 90
        1
176
     1
 90
        6
176
     1
 90
        2
176
     1
 62
     8
420
  7895160
176
     1
 90
        3
176
     1
 90
        0
176
     1
 90
        0
176
     1
290
     0
176
     1
 90
        5
176
     1
 40
0.0
176
     1
 90
        0
176
     1
290
     0
176
     1
290
     1
176
     1
290
     1
176
     1
290
     0
176
     1
290
     0
176
     1
290
     0
176
     1
290
     0
176
     1
290
     0
176
     1
290
     0
176
     1
 90
       50
176
     1
 40
0.0
176
     1
 40
1.0
176
     1
 90
        0
176
     1
 62
    18
420
        0
176
     1
 90
       50
176
     1
 90
        3
176
     1
 62
     5
420
      255
176
     1
290
     0
176
     1
 90
       50
176
     1
 90
       50
176
     1
 90
       50
176
     1
290
     0
176
     1
 90
       50
176
     1
 62
   256
176
     0
 40
1.0
176
     0
 90
        2
176
     1
  1
strokes_ogs.tif
176
     1
290
     0
176
     1
 40
1.0
176
     1
 40
1.0
176
     1
  0
VISUALSTYLE
  5
41
102
{ACAD_REACTORS
330
2A
102
}
330
2A
100
AcDbVisualStyle
  2
Shaded with edges
 70
    26
177
     3
291
     0
 70
    58
 90
        2
176
     1
 90
        2
176
     1
 90
        1
176
     1
 90
        2
176
     1
 40
0.6
176
     1
 40
30.0
176
     1
 62
     7
420
 16777215
176
     1
 90
        1
176
     1
 90
       10
176
     1
 62
     7
176
     1
 62
   257
176
     1
 90
        2
176
     1
 90
        1
176
     1
 40
1.0
176
     1
 90
        8
176
     1
 62
   257
176
     1
 40
1.0
176
     1
 90
        1
176
     1
 90
        6
176
     1
 90
        2
176
     1
 62
     7
176
     1
 90
        3
176
     1
 90
        0
176
     1
 90
        0
176
     1
290
     0
176
     1
 90
        5
176
     1
 40
0.0
176
     1
 90
        0
176
     1
290
     0
176
     1
290
     1
176
     1
290
     1
176
     1
290
     0
176
     1
290
     0
176
     1
290
     0
176
     1
290
     0
176
     1
290
     0
176
     1
290
     0
176
     1
 90
       50
176
     1
 40
0.0
176
     1
 40
1.0
176
     1
 90
        0
176
     1
 62
    18
420
        0
176
     1
 90
       50
176
     1
 90
        3
176
     1
 62
     5
420
      255
176
     1
290
     0
176
     1
 90
       50
176
     1
 90
       50
176
     1
 90
       50
176
     1
290
     0
176
     1
 90
       50
176
     1
 62
   256
176
     0
 40
1.0
176
     0
 90
        2
176
     1
  1
strokes_ogs.tif
176
     1
290
     0
176
     1
 40
1.0
176
     1
 40
1.0
176
     1
  0
VISUALSTYLE
  5
3E
102
{ACAD_REACTORS
330
2A
102
}
330
2A
100
AcDbVisualStyle
  2
Shades of Gray
 70
    23
177
     3
291
     0
 70
    58
 90
        2
176
     1
 90
        2
176
     1
 90
        3
176
     1
 90
        0
176
     1
 40
0.6
176
     1
 40
30.0
176
     1
 62
     7
420
 16777215
176
     1
 90
        2
176
     1
 90
        2
176
     1
 62
     7
176
     1
 62
     7
176
     1
 90
        1
176
     1
 90
        1
176
     1
 40
40.0
176
     1
 90
        8
176
     1
 62
     7
176
     1
 40
1.0
176
     1
 90
        1
176
     1
 90
        6
176
     1
 90
        2
176
     1
 62
     7
176
     1
 90
        3
176
     1
 90
        0
176
     1
 90
        0
176
     1
290
     0
176
     1
 90
        1
176
     1
 40
0.0
176
     1
 90
        0
176
     1
290
     0
176
     1
290
     1
176
     1
290
     1
176
     1
290
     0
176
     1
290
     0
176
     1
290
     0
176
     1
290
     0
176
     1
290
     0
176
     1
290
     0
176
     1
 90
       50
176
     1
 40
0.0
176
     1
 40
1.0
176
     1
 90
        0
176
     1
 62
    18
420
        0
176
     1
 90
       50
176
     1
 90
        3
176
     1
 62
     5
420
      255
176
     1
290
     0
176
     1
 90
       50
176
     1
 90
       50
176
     1
 90
       50
176
     1
290
     0
176
     1
 90
       50
176
     1
 62
   256
176
     0
 40
1.0
176
     0
 90
        2
176
     1
  1
strokes_ogs.tif
176
     1
290
     0
176
     1
 40
1.0
176
     1
 40
1.0
176
     1
  0
VISUALSTYLE
  5
3F
102
{ACAD_REACTORS
330
2A
102
}
330
2A
100
AcDbVisualStyle
  2
Sketchy
 70
    24
177
     3
291
     0
 70
    58
 90
        1
176
     1
 90
        2
176
     1
 90
        2
176
     1
 90
        0
176
     1
 40
0.6
176
     1
 40
30.0
176
     1
 62
     7
420
 16777215
176
     1
 90
        2
176
     1
 90
        2
176
     1
 62
     7
176
     1
 62
     7
176
     1
 90
        1
176
     1
 90
        1
176
     1
 40
40.0
176
     1
 90
       11
176
     1
 62
     7
176
     1
 40
1.0
176
     1
 90
        1
176
     1
 90
        6
176
     1
 90
        2
176
     1
 62
     7
176
     1
 90
        6
176
     1
 90
        0
176
     1
 90
        0
176
     1
290
     0
176
     1
 90
        1
176
     1
 40
0.0
176
     1
 90
        0
176
     1
290
     0
176
     1
290
     1
176
     1
290
     1
176
     1
290
     0
176
     1
290
     0
176
     1
290
     0
176
     1
290
     0
176
     1
290
     0
176
     1
290
     0
176
     1
 90
       50
176
     1
 40
0.0
176
     1
 40
1.0
176
     1
 90
        0
176
     1
 62
    18
420
        0
176
     1
 90
       50
176
     1
 90
        3
176
     1
 62
     5
420
      255
176
     1
290
     0
176
     1
 90
       50
176
     1
 90
       50
176
     1
 90
       50
176
     1
290
     0
176
     1
 90
       50
176
     1
 62
   256
176
     0
 40
1.0
176
     0
 90
        2
176
     1
  1
strokes_ogs.tif
176
     1
290
     0
176
     1
 40
1.0
176
     1
 40
1.0
176
     1
  0
VISUALSTYLE
  5
37
102
{ACAD_REACTORS
330
2A
102
}
330
2A
100
AcDbVisualStyle
  2
Thicken
 70
    13
177
     3
291
     1
 70
    58
 90
        2
176
     1
 90
        2
176
     1
 90
        0
176
     1
 90
        0
176
     1
 40
0.6
176
     1
 40
30.0
176
     1
 62
     7
420
 16777215
176
     1
 90
        1
176
     1
 90
        4
176
     1
 62
     7
176
     1
 62
   257
176
     1
 90
        1
176
     1
 90
        1
176
     1
 40
1.0
176
     1
 90
       12
176
     1
 62
     7
176
     1
 40
1.0
176
     1
 90
        1
176
     1
 90
        6
176
     1
 90
        2
176
     1
 62
     7
176
     1
 90
        5
176
     1
 90
        0
176
     1
 90
        0
176
     1
290
     0
176
     1
 90
        1
176
     1
 40
0.0
176
     1
 90
        0
176
     1
290
     0
176
     1
290
     1
176
     1
290
     1
176
     1
290
     0
176
     1
290
     0
176
     1
290
     0
176
     1
290
     0
176
     1
290
     0
176
     1
290
     0
176
     1
 90
       50
176
     1
 40
0.0
176
     1
 40
1.0
176
     1
 90
        0
176
     1
 62
    18
420
        0
176
     1
 90
       50
176
     1
 90
        3
176
     1
 62
     5
420
      255
176
     1
290
     0
176
     1
 90
       50
176
     1
 90
       50
176
     1
 90
       50
176
     1
290
     0
176
     1
 90
       50
176
     1
 62
   256
176
     0
 40
1.0
176
     0
 90
        2
176
     1
  1
strokes_ogs.tif
176
     1
290
     0
176
     1
 40
1.0
176
     1
 40
1.0
176
     1
  0
VISUALSTYLE
  5
30
102
{ACAD_REACTORS
330
2A
102
}
330
2A
100
AcDbVisualStyle
  2
Wireframe
 70
     5
177
     3
291
     0
 70
    58
 90
        0
176
     1
 90
        2
176
     1
 90
        0
176
     1
 90
        0
176
     1
 40
0.6
176
     1
 40
30.0
176
     1
 62
     7
420
 16777215
176
     1
 90
        1
176
     1
 90
        4
176
     1
 62
     7
176
     1
 62
   257
176
     1
 90
        1
176
     1
 90
        1
176
     1
 40
1.0
176
     1
 90
        0
176
     1
 62
   257
176
     1
 40
1.0
176
     1
 90
        1
176
     1
 90
        6
176
     1
 90
        2
176
     1
 62
     7
176
     1
 90
        3
176
     1
 90
        0
176
     1
 90
        0
176
     1
290
     0
176
     1
 90
        1
176
     1
 40
0.0
176
     1
 90
        0
176
     1
290
     0
176
     1
290
     1
176
     1
290
     1
176
     1
290
     0
176
     1
290
     0
176
     1
290
     0
176
     1
290
     0
176
     1
290
     0
176
     1
290
     0
176
     1
 90
       50
176
     1
 40
0.0
176
     1
 40
1.0
176
     1
 90
        0
176
     1
 62
    18
420
        0
176
     1
 90
       50
176
     1
 90
        3
176
     1
 62
     5
420
      255
176
     1
290
     0
176
     1
 90
       50
176
     1
 90
       50
176
     1
 90
       50
176
     1
290
     0
176
     1
 90
       50
176
     1
 62
   256
176
     0
 40
1.0
176
     0
 90
        2
176
     1
  1
strokes_ogs.tif
176
     1
290
     0
176
     1
 40
1.0
176
     1
 40
1.0
176
     1
  0
VISUALSTYLE
  5
40
102
{ACAD_REACTORS
330
2A
102
}
330
2A
100
AcDbVisualStyle
  2
X-Ray
 70
    25
177
     3
291
     0
 70
    58
 90
        2
176
     1
 90
        2
176
     1
 90
        1
176
     1
 90
        1
176
     1
 40
0.5
176
     1
 40
30.0
176
     1
 62
     7
420
 16777215
176
     1
 90
        1
176
     1
 90
        0
176
     1
 62
     7
176
     1
 62
   257
176
     1
 90
        1
176
     1
 90
        1
176
     1
 40
1.0
176
     1
 90
        8
176
     1
 62
     7
176
     1
 40
1.0
176
     1
 90
        1
176
     1
 90
        6
176
     1
 90
        2
176
     1
 62
     7
176
     1
 90
        3
176
     1
 90
        0
176
     1
 90
        0
176
     1
290
     0
176
     1
 90
       13
176
     1
 40
0.0
176
     1
 90
        0
176
     1
290
     0
176
     1
290
     1
176
     1
290
     1
176
     1
290
     0
176
     1
290
     0
176
     1
290
     0
176
     1
290
     0
176
     1
290
     0
176
     1
290
     0
176
     1
 90
       50
176
     1
 40
0.0
176
     1
 40
1.0
176
     1
 90
        0
176
     1
 62
    18
420
        0
176
     1
 90
       50
176
     1
 90
        3
176
     1
 62
     5
420
      255
176
     1
290
     0
176
     1
 90
       50
176
     1
 90
       50
176
     1
 90
       50
176
     1
290
     0
176
     1
 90
       50
176
     1
 62
   256
176
     0
 40
1.0
176
     0
 90
        2
176
     1
  1
strokes_ogs.tif
176
     1
290
     0
176
     1
 40
1.0
176
     1
 40
1.0
176
     1
  0
DICTIONARYVAR
  5
40D
102
{ACAD_REACTORS
330
40C
102
}
330
40C
100
DictionaryVariables
280
     0
  1
1:1
  0
ENDSEC
  0
EOF
