  0
SECTION
  2
HEADER
  9
$ACADVER
  1
AC1027
  9
$ACADMAINTVER
 70
     8
  9
$DWGCODEPAGE
  3
ANSI_932
  9
$REQUIREDVERSIONS
160
                 0
  9
$INSBASE
 10
0.0
 20
0.0
 30
0.0
  9
$EXTMIN
 10
41.0
 20
24.0
 30
0.0
  9
$EXTMAX
 10
403.0
 20
570.0
 30
0.0
  9
$LIMMIN
 10
0.0
 20
0.0
  9
$LIMMAX
 10
210.0
 20
297.0
  9
$ORTHOMODE
 70
     0
  9
$REGENMODE
 70
     1
  9
$FILLMODE
 70
     1
  9
$QTEXTMODE
 70
     0
  9
$MIRRTEXT
 70
     1
  9
$LTSCALE
 40
0.5
  9
$ATTMODE
 70
     1
  9
$TEXTSIZE
 40
6.6
  9
$TRACEWID
 40
0.05
  9
$TEXTSTYLE
  7
Standard
  9
$CLAYER
  8
0
  9
$CELTYPE
  6
ByLayer
  9
$CECOLOR
 62
   256
  9
$CELTSCALE
 40
1.0
  9
$DISPSILH
 70
     0
  9
$DIMSCALE
 40
1.0
  9
$DIMASZ
 40
2.3
  9
$DIMEXO
 40
1.0
  9
$DIMDLI
 40
10.0
  9
$DIMRND
 40
0.0
  9
$DIMDLE
 40
0.0
  9
$DIMEXE
 40
1.0
  9
$DIMTP
 40
0.0
  9
$DIMTM
 40
0.0
  9
$DIMTXT
 40
3.3
  9
$DIMCEN
 40
0.09
  9
$DIMTSZ
 40
0.0
  9
$DIMTOL
 70
     0
  9
$DIMLIM
 70
     0
  9
$DIMTIH
 70
     0
  9
$DIMTOH
 70
     0
  9
$DIMSE1
 70
     0
  9
$DIMSE2
 70
     0
  9
$DIMTAD
 70
     3
  9
$DIMZIN
 70
     8
  9
$DIMBLK
  1

  9
$DIMASO
 70
     1
  9
$DIMSHO
 70
     1
  9
$DIMPOST
  1

  9
$DIMAPOST
  1

  9
$DIMALT
 70
     0
  9
$DIMALTD
 70
     2
  9
$DIMALTF
 40
25.4
  9
$DIMLFAC
 40
1.0
  9
$DIMTOFL
 70
     1
  9
$DIMTVP
 40
0.7
  9
$DIMTIX
 70
     0
  9
$DIMSOXD
 70
     0
  9
$DIMSAH
 70
     0
  9
$DIMBLK1
  1

  9
$DIMBLK2
  1

  9
$DIMSTYLE
  2
Standard
  9
$DIMCLRD
 70
     0
  9
$DIMCLRE
 70
     0
  9
$DIMCLRT
 70
     0
  9
$DIMTFAC
 40
0.5
  9
$DIMGAP
 40
0.09
  9
$DIMJUST
 70
     0
  9
$DIMSD1
 70
     0
  9
$DIMSD2
 70
     0
  9
$DIMTOLJ
 70
     1
  9
$DIMTZIN
 70
     8
  9
$DIMALTZ
 70
     0
  9
$DIMALTTZ
 70
     0
  9
$DIMUPT
 70
     1
  9
$DIMDEC
 70
     1
  9
$DIMTDEC
 70
     4
  9
$DIMALTU
 70
     2
  9
$DIMALTTD
 70
     2
  9
$DIMTXSTY
  7
Standard
  9
$DIMAUNIT
 70
     0
  9
$DIMADEC
 70
     0
  9
$DIMALTRND
 40
0.0
  9
$DIMAZIN
 70
     0
  9
$DIMDSEP
 70
    46
  9
$DIMATFIT
 70
     2
  9
$DIMFRAC
 70
     0
  9
$DIMLDRBLK
  1

  9
$DIMLUNIT
 70
     2
  9
$DIMLWD
 70
    -2
  9
$DIMLWE
 70
    -2
  9
$DIMTMOVE
 70
     2
  9
$DIMFXL
 40
1.0
  9
$DIMFXLON
 70
     0
  9
$DIMJOGANG
 40
0.7853981633974483
  9
$DIMTFILL
 70
     0
  9
$DIMTFILLCLR
 70
     0
  9
$DIMARCSYM
 70
     0
  9
$DIMLTYPE
  6

  9
$DIMLTEX1
  6

  9
$DIMLTEX2
  6

  9
$DIMTXTDIRECTION
 70
     0
  9
$LUNITS
 70
     2
  9
$LUPREC
 70
     4
  9
$SKETCHINC
 40
0.1
  9
$FILLETRAD
 40
0.5
  9
$AUNITS
 70
     0
  9
$AUPREC
 70
     0
  9
$MENU
  1
.
  9
$ELEVATION
 40
0.0
  9
$PELEVATION
 40
0.0
  9
$THICKNESS
 40
0.0
  9
$LIMCHECK
 70
     0
  9
$CHAMFERA
 40
0.0
  9
$CHAMFERB
 40
0.0
  9
$CHAMFERC
 40
0.0
  9
$CHAMFERD
 40
0.0
  9
$SKPOLY
 70
     0
  9
$TDCREATE
 40
2458653.079814815
  9
$TDUCREATE
 40
2458652.704814815
  9
$TDUPDATE
 40
2458652.704825081
  9
$TDUUPDATE
 40
2458652.329825081
  9
$TDINDWG
 40
0.0000000116
  9
$TDUSRTIMER
 40
0.0000000116
  9
$USRTIMER
 70
     1
  9
$ANGBASE
 50
0.0
  9
$ANGDIR
 70
     0
  9
$PDMODE
 70
     0
  9
$PDSIZE
 40
0.0
  9
$PLINEWID
 40
0.0
  9
$SPLFRAME
 70
     0
  9
$SPLINETYPE
 70
     6
  9
$SPLINESEGS
 70
     8
  9
$HANDSEED
  5
3B5
  9
$SURFTAB1
 70
     6
  9
$SURFTAB2
 70
     6
  9
$SURFTYPE
 70
     6
  9
$SURFU
 70
     6
  9
$SURFV
 70
     6
  9
$UCSBASE
  2

  9
$UCSNAME
  2

  9
$UCSORG
 10
0.0
 20
0.0
 30
0.0
  9
$UCSXDIR
 10
1.0
 20
0.0
 30
0.0
  9
$UCSYDIR
 10
0.0
 20
1.0
 30
0.0
  9
$UCSORTHOREF
  2

  9
$UCSORTHOVIEW
 70
     0
  9
$UCSORGTOP
 10
0.0
 20
0.0
 30
0.0
  9
$UCSORGBOTTOM
 10
0.0
 20
0.0
 30
0.0
  9
$UCSORGLEFT
 10
0.0
 20
0.0
 30
0.0
  9
$UCSORGRIGHT
 10
0.0
 20
0.0
 30
0.0
  9
$UCSORGFRONT
 10
0.0
 20
0.0
 30
0.0
  9
$UCSORGBACK
 10
0.0
 20
0.0
 30
0.0
  9
$PUCSBASE
  2

  9
$PUCSNAME
  2

  9
$PUCSORG
 10
0.0
 20
0.0
 30
0.0
  9
$PUCSXDIR
 10
1.0
 20
0.0
 30
0.0
  9
$PUCSYDIR
 10
0.0
 20
1.0
 30
0.0
  9
$PUCSORTHOREF
  2

  9
$PUCSORTHOVIEW
 70
     0
  9
$PUCSORGTOP
 10
0.0
 20
0.0
 30
0.0
  9
$PUCSORGBOTTOM
 10
0.0
 20
0.0
 30
0.0
  9
$PUCSORGLEFT
 10
0.0
 20
0.0
 30
0.0
  9
$PUCSORGRIGHT
 10
0.0
 20
0.0
 30
0.0
  9
$PUCSORGFRONT
 10
0.0
 20
0.0
 30
0.0
  9
$PUCSORGBACK
 10
0.0
 20
0.0
 30
0.0
  9
$USERI1
 70
     0
  9
$USERI2
 70
     0
  9
$USERI3
 70
     0
  9
$USERI4
 70
     0
  9
$USERI5
 70
     0
  9
$USERR1
 40
0.0
  9
$USERR2
 40
0.0
  9
$USERR3
 40
0.0
  9
$USERR4
 40
0.0
  9
$USERR5
 40
0.0
  9
$WORLDVIEW
 70
     1
  9
$SHADEDGE
 70
     3
  9
$SHADEDIF
 70
    70
  9
$TILEMODE
 70
     1
  9
$MAXACTVP
 70
    64
  9
$PINSBASE
 10
0.0
 20
0.0
 30
0.0
  9
$PLIMCHECK
 70
     0
  9
$PEXTMIN
 10
0.0
 20
0.0
 30
0.0
  9
$PEXTMAX
 10
210.0
 20
297.0
 30
0.0
  9
$PLIMMIN
 10
0.0
 20
0.0
  9
$PLIMMAX
 10
210.0
 20
297.0
  9
$UNITMODE
 70
     0
  9
$VISRETAIN
 70
     1
  9
$PLINEGEN
 70
     0
  9
$PSLTSCALE
 70
     1
  9
$TREEDEPTH
 70
  3020
  9
$CMLSTYLE
  2
Standard
  9
$CMLJUST
 70
     0
  9
$CMLSCALE
 40
1.0
  9
$PROXYGRAPHICS
 70
     1
  9
$MEASUREMENT
 70
     1
  9
$CELWEIGHT
370
    -1
  9
$ENDCAPS
280
     0
  9
$JOINSTYLE
280
     0
  9
$LWDISPLAY
290
     0
  9
$INSUNITS
 70
     4
  9
$HYPERLINKBASE
  1

  9
$STYLESHEET
  1

  9
$XEDIT
290
     1
  9
$CEPSNTYPE
380
     0
  9
$PSTYLEMODE
290
     1
  9
$FINGERPRINTGUID
  2
{DB57BFA0-C038-46DF-BDE9-5D40C0D50993}
  9
$VERSIONGUID
  2
{FAEB1C32-E019-11D5-929B-00C0DF256EC4}
  9
$EXTNAMES
290
     1
  9
$PSVPSCALE
 40
0.0
  9
$OLESTARTUP
290
     0
  9
$SORTENTS
280
   127
  9
$INDEXCTL
280
     0
  9
$HIDETEXT
280
     1
  9
$XCLIPFRAME
280
     2
  9
$HALOGAP
280
     0
  9
$OBSCOLOR
 70
   257
  9
$OBSLTYPE
280
     0
  9
$INTERSECTIONDISPLAY
280
     0
  9
$INTERSECTIONCOLOR
 70
   257
  9
$DIMASSOC
280
     1
  9
$PROJECTNAME
  1

  9
$CAMERADISPLAY
290
     0
  9
$LENSLENGTH
 40
50.0
  9
$CAMERAHEIGHT
 40
0.0
  9
$STEPSPERSEC
 40
2.0
  9
$STEPSIZE
 40
6.0
  9
$3DDWFPREC
 40
2.0
  9
$PSOLWIDTH
 40
0.25
  9
$PSOLHEIGHT
 40
4.0
  9
$LOFTANG1
 40
1.570796326794897
  9
$LOFTANG2
 40
1.570796326794897
  9
$LOFTMAG1
 40
0.0
  9
$LOFTMAG2
 40
0.0
  9
$LOFTPARAM
 70
     7
  9
$LOFTNORMALS
280
     1
  9
$LATITUDE
 40
37.795
  9
$LONGITUDE
 40
-122.394
  9
$NORTHDIRECTION
 40
0.0
  9
$TIMEZONE
 70
 -8000
  9
$LIGHTGLYPHDISPLAY
280
     1
  9
$TILEMODELIGHTSYNCH
280
     1
  9
$CMATERIAL
347
44
  9
$SOLIDHIST
280
     1
  9
$SHOWHIST
280
     1
  9
$DWFFRAME
280
     2
  9
$DGNFRAME
280
     2
  9
$REALWORLDSCALE
290
     1
  9
$INTERFERECOLOR
 62
   256
  9
$CSHADOW
280
     0
  9
$SHADOWPLANELOCATION
 40
0.0
  0
ENDSEC
  0
SECTION
  2
CLASSES
  0
CLASS
  1
ACDBDICTIONARYWDFLT
  2
AcDbDictionaryWithDefault
  3
ObjectDBX Classes
 90
        0
 91
        4
280
     0
281
     0
  0
CLASS
  1
VISUALSTYLE
  2
AcDbVisualStyle
  3
ObjectDBX Classes
 90
     4095
 91
        4
280
     0
281
     0
  0
CLASS
  1
MATERIAL
  2
AcDbMaterial
  3
ObjectDBX Classes
 90
     1153
 91
        4
280
     0
281
     0
  0
CLASS
  1
SCALE
  2
AcDbScale
  3
ObjectDBX Classes
 90
     1153
 91
        4
280
     0
281
     0
  0
CLASS
  1
SUN
  2
AcDbSun
  3
SCENEOE
 90
     1153
 91
        4
280
     0
281
     0
  0
CLASS
  1
DICTIONARYVAR
  2
AcDbDictionaryVar
  3
ObjectDBX Classes
 90
        0
 91
        4
280
     0
281
     0
  0
ENDSEC
  0
SECTION
  2
TABLES
  0
TABLE
  2
VPORT
  5
8
330
0
100
AcDbSymbolTable
 70
     1
  0
VPORT
  5
29
330
8
100
AcDbSymbolTableRecord
100
AcDbViewportTableRecord
  2
*Active
 70
     0
 10
0.0
 20
0.0
 11
1.0
 21
1.0
 12
10.42990654205607
 22
4.5
 13
0.0
 23
0.0
 14
0.5
 24
0.5
 15
0.5
 25
0.5
 16
0.0
 26
0.0
 36
1.0
 17
0.0
 27
0.0
 37
0.0
 40
9.0
 41
1.972972972850329
 42
50.0
 43
0.0
 44
0.0
 50
0.0
 51
0.0
 71
     0
 72
   100
 73
     1
 74
     3
 75
     0
 76
     0
 77
     0
 78
     0
281
     0
 65
     1
110
0.0
120
0.0
130
0.0
111
1.0
121
0.0
131
0.0
112
0.0
122
1.0
132
0.0
 79
     0
146
0.0
 60
     3
 61
     5
292
     1
282
     1
141
0.0
142
0.0
 63
   250
361
69
  0
ENDTAB
  0
TABLE
  2
LTYPE
  5
5
330
0
100
AcDbSymbolTable
 70
     9
  0
LTYPE
  5
14
330
5
100
AcDbSymbolTableRecord
100
AcDbLinetypeTableRecord
  2
ByBlock
 70
     0
  3

 72
    65
 73
     0
 40
0.0
  0
LTYPE
  5
15
330
5
100
AcDbSymbolTableRecord
100
AcDbLinetypeTableRecord
  2
ByLayer
 70
     0
  3

 72
    65
 73
     0
 40
0.0
  0
LTYPE
  5
16
330
5
100
AcDbSymbolTableRecord
100
AcDbLinetypeTableRecord
  2
Continuous
 70
     0
  3
Solid line
 72
    65
 73
     0
 40
0.0
  0
LTYPE
  5
B9
330
5
100
AcDbSymbolTableRecord
100
AcDbLinetypeTableRecord
  2
DOT
 70
     0
  3
DOT
 72
    65
 73
     2
 40
4.0
 49
6.0
 74
     0
 49
-2.0
 74
     0
  0
LTYPE
  5
BA
330
5
100
AcDbSymbolTableRecord
100
AcDbLinetypeTableRecord
  2
HIDDEN
 70
     0
  3
HIDDEN
 72
    65
 73
     2
 40
4.2
 49
8.4
 74
     0
 49
-4.2
 74
     0
  0
LTYPE
  5
BB
330
5
100
AcDbSymbolTableRecord
100
AcDbLinetypeTableRecord
  2
DASHDOT
 70
     0
  3
DASHDOT
 72
    65
 73
     4
 40
14.5
 49
30.0
 74
     0
 49
-9.0
 74
     0
 49
2.5
 74
     0
 49
-9.0
 74
     0
  0
LTYPE
  5
BC
330
5
100
AcDbSymbolTableRecord
100
AcDbLinetypeTableRecord
  2
PHANTOM
 70
     0
  3
PHANTOM
 72
    65
 73
     6
 40
12.0
 49
30.0
 74
     0
 49
-9.0
 74
     0
 49
2.5
 74
     0
 49
-5.0
 74
     0
 49
2.5
 74
     0
 49
-9.0
 74
     0
  0
LTYPE
  5
BD
330
5
100
AcDbSymbolTableRecord
100
AcDbLinetypeTableRecord
  2
ACAD_ISO14W100
 70
     0
  3
ACAD_ISO14W100
 72
    65
 73
     8
 40
1.5
 49
12.0
 74
     0
 49
-3.0
 74
     0
 49
0.5
 74
     0
 49
-3.0
 74
     0
 49
0.5
 74
     0
 49
-3.0
 74
     0
 49
0.5
 74
     0
 49
-3.0
 74
     0
  0
LTYPE
  5
BE
330
5
100
AcDbSymbolTableRecord
100
AcDbLinetypeTableRecord
  2
ACAD_ISO06W100
 70
     0
  3
ACAD_ISO06W100
 72
    65
 73
     8
 40
13.5
 49
24.0
 74
     0
 49
-3.0
 74
     0
 49
0.5
 74
     0
 49
-3.0
 74
     0
 49
0.5
 74
     0
 49
-3.0
 74
     0
 49
0.5
 74
     0
 49
-3.0
 74
     0
  0
LTYPE
  5
BF
330
5
100
AcDbSymbolTableRecord
100
AcDbLinetypeTableRecord
  2
ACAD_ISO11W100
 70
     0
  3
ACAD_ISO11W100
 72
    65
 73
     6
 40
15.5
 49
12.0
 74
     0
 49
-3.0
 74
     0
 49
12.0
 74
     0
 49
-3.0
 74
     0
 49
0.5
 74
     0
 49
-3.0
 74
     0
  0
LTYPE
  5
C0
330
5
100
AcDbSymbolTableRecord
100
AcDbLinetypeTableRecord
  2
ACAD_ISO13W100
 70
     0
  3
ACAD_ISO13W100
 72
    65
 73
     8
 40
13.0
 49
12.0
 74
     0
 49
-3.0
 74
     0
 49
12.0
 74
     0
 49
-3.0
 74
     0
 49
0.5
 74
     0
 49
-3.0
 74
     0
 49
0.5
 74
     0
 49
-3.0
 74
     0
  0
ENDTAB
  0
TABLE
  2
LAYER
  5
2
330
0
100
AcDbSymbolTable
 70
    35
  0
LAYER
  5
10
330
2
100
AcDbSymbolTableRecord
100
AcDbLayerTableRecord
  2
0
 70
     0
 62
     7
  6
Continuous
370
    -3
390
F
347
46
348
0
  0
LAYER
  5
C1
330
2
100
AcDbSymbolTableRecord
100
AcDbLayerTableRecord
  2
1
 70
     0
 62
     6
  6
Continuous
370
    53
390
F
347
46
348
0
  0
LAYER
  5
C2
330
2
100
AcDbSymbolTableRecord
100
AcDbLayerTableRecord
  2
2
 70
     0
 62
     2
  6
HIDDEN
370
    25
390
F
347
46
348
0
  0
LAYER
  5
C3
330
2
100
AcDbSymbolTableRecord
100
AcDbLayerTableRecord
  2
3
 70
     0
 62
     1
  6
DASHDOT
370
    25
390
F
347
46
348
0
  0
LAYER
  5
C4
330
2
100
AcDbSymbolTableRecord
100
AcDbLayerTableRecord
  2
4
 70
     0
 62
     2
  6
PHANTOM
370
    25
390
F
347
46
348
0
  0
LAYER
  5
C5
330
2
100
AcDbSymbolTableRecord
100
AcDbLayerTableRecord
  2
5
 70
     0
 62
     4
  6
Continuous
370
    25
390
F
347
46
348
0
  0
LAYER
  5
C6
330
2
100
AcDbSymbolTableRecord
100
AcDbLayerTableRecord
  2
6
 70
     0
 62
     3
  6
Continuous
370
    25
390
F
347
46
348
0
  0
LAYER
  5
C7
330
2
100
AcDbSymbolTableRecord
100
AcDbLayerTableRecord
  2
7
 70
     0
 62
     3
  6
Continuous
370
    25
390
F
347
46
348
0
  0
LAYER
  5
C8
330
2
100
AcDbSymbolTableRecord
100
AcDbLayerTableRecord
  2
8
 70
     0
 62
     4
  6
Continuous
370
    25
390
F
347
46
348
0
  0
LAYER
  5
C9
330
2
100
AcDbSymbolTableRecord
100
AcDbLayerTableRecord
  2
9
 70
     0
 62
     7
  6
Continuous
370
    35
390
F
347
46
348
0
  0
LAYER
  5
CA
330
2
100
AcDbSymbolTableRecord
100
AcDbLayerTableRecord
  2
10
 70
     0
 62
     6
  6
Continuous
370
    53
390
F
347
46
348
0
  0
LAYER
  5
CB
330
2
100
AcDbSymbolTableRecord
100
AcDbLayerTableRecord
  2
11
 70
     0
 62
     2
  6
HIDDEN
370
    25
390
F
347
46
348
0
  0
LAYER
  5
CC
330
2
100
AcDbSymbolTableRecord
100
AcDbLayerTableRecord
  2
12
 70
     0
 62
     5
  6
Continuous
370
    53
390
F
347
46
348
0
  0
LAYER
  5
CD
330
2
100
AcDbSymbolTableRecord
100
AcDbLayerTableRecord
  2
13
 70
     0
 62
     7
  6
Continuous
370
     9
390
F
347
46
348
0
  0
LAYER
  5
CE
330
2
100
AcDbSymbolTableRecord
100
AcDbLayerTableRecord
  2
14
 70
     0
 62
     7
  6
Continuous
370
     9
390
F
347
46
348
0
  0
LAYER
  5
CF
330
2
100
AcDbSymbolTableRecord
100
AcDbLayerTableRecord
  2
15
 70
     0
 62
     7
  6
Continuous
370
    35
390
F
347
46
348
0
  0
LAYER
  5
D0
330
2
100
AcDbSymbolTableRecord
100
AcDbLayerTableRecord
  2
16
 70
     0
 62
     7
  6
HIDDEN
370
     9
390
F
347
46
348
0
  0
LAYER
  5
D1
330
2
100
AcDbSymbolTableRecord
100
AcDbLayerTableRecord
  2
17
 70
     0
 62
     7
  6
Continuous
370
     9
390
F
347
46
348
0
  0
LAYER
  5
D2
330
2
100
AcDbSymbolTableRecord
100
AcDbLayerTableRecord
  2
18
 70
     0
 62
     4
  6
Continuous
370
     9
390
F
347
46
348
0
  0
LAYER
  5
D3
330
2
100
AcDbSymbolTableRecord
100
AcDbLayerTableRecord
  2
19
 70
     0
 62
     7
  6
Continuous
370
     9
390
F
347
46
348
0
  0
LAYER
  5
D4
330
2
100
AcDbSymbolTableRecord
100
AcDbLayerTableRecord
  2
20
 70
     0
 62
     6
  6
PHANTOM
370
     9
390
F
347
46
348
0
  0
LAYER
  5
D5
330
2
100
AcDbSymbolTableRecord
100
AcDbLayerTableRecord
  2
21
 70
     0
 62
     1
  6
Continuous
370
     9
390
F
347
46
348
0
  0
LAYER
  5
D6
330
2
100
AcDbSymbolTableRecord
100
AcDbLayerTableRecord
  2
22
 70
     0
 62
     7
  6
Continuous
370
     9
390
F
347
46
348
0
  0
LAYER
  5
D7
330
2
100
AcDbSymbolTableRecord
100
AcDbLayerTableRecord
  2
23
 70
     0
 62
     4
  6
Continuous
370
     9
390
F
347
46
348
0
  0
LAYER
  5
D8
330
2
100
AcDbSymbolTableRecord
100
AcDbLayerTableRecord
  2
24
 70
     0
 62
     1
  6
DASHDOT
370
     9
390
F
347
46
348
0
  0
LAYER
  5
D9
330
2
100
AcDbSymbolTableRecord
100
AcDbLayerTableRecord
  2
25
 70
     0
 62
     1
  6
HIDDEN
370
     9
390
F
347
46
348
0
  0
LAYER
  5
DA
330
2
100
AcDbSymbolTableRecord
100
AcDbLayerTableRecord
  2
26
 70
     0
 62
     2
  6
Continuous
370
     9
390
F
347
46
348
0
  0
LAYER
  5
DB
330
2
100
AcDbSymbolTableRecord
100
AcDbLayerTableRecord
  2
27
 70
     0
 62
     5
  6
HIDDEN
370
     9
390
F
347
46
348
0
  0
LAYER
  5
DC
330
2
100
AcDbSymbolTableRecord
100
AcDbLayerTableRecord
  2
28
 70
     0
 62
     3
  6
Continuous
370
     9
390
F
347
46
348
0
  0
LAYER
  5
DD
330
2
100
AcDbSymbolTableRecord
100
AcDbLayerTableRecord
  2
29
 70
     0
 62
     7
  6
HIDDEN
370
    50
390
F
347
46
348
0
  0
LAYER
  5
DE
330
2
100
AcDbSymbolTableRecord
100
AcDbLayerTableRecord
  2
30
 70
     0
 62
     7
  6
DASHDOT
370
    50
390
F
347
46
348
0
  0
LAYER
  5
DF
330
2
100
AcDbSymbolTableRecord
100
AcDbLayerTableRecord
  2
31
 70
     0
 62
     7
  6
Continuous
370
     9
390
F
347
46
348
0
  0
LAYER
  5
E0
330
2
100
AcDbSymbolTableRecord
100
AcDbLayerTableRecord
  2
32
 70
     0
 62
     7
  6
Continuous
370
     9
390
F
347
46
348
0
  0
LAYER
  5
E1
330
2
100
AcDbSymbolTableRecord
100
AcDbLayerTableRecord
  2
33
 70
     0
 62
     1
  6
DASHDOT
370
     9
390
F
347
46
348
0
  0
LAYER
  5
E2
330
2
100
AcDbSymbolTableRecord
100
AcDbLayerTableRecord
  2
34
 70
     0
 62
     7
  6
Continuous
370
     9
390
F
347
46
348
0
  0
ENDTAB
  0
TABLE
  2
STYLE
  5
3
330
0
100
AcDbSymbolTable
 70
     3
  0
STYLE
  5
11
330
3
100
AcDbSymbolTableRecord
100
AcDbTextStyleTableRecord
  2
Standard
 70
     0
 40
0.0
 41
1.0
 50
0.0
 71
     0
 42
6.6
  3
txt
  4
bigfont
  0
STYLE
  5
6C
330
3
100
AcDbSymbolTableRecord
100
AcDbTextStyleTableRecord
  2
T_STANDARD
 70
     4
 40
10.0
 41
1.0
 50
0.0
 71
     0
 42
6.6
  3
txt
  4
bigfont
1001
ACAD
1000

1071
      256
  0
STYLE
  5
347
330
3
100
AcDbSymbolTableRecord
100
AcDbTextStyleTableRecord
  2
ＭＳ Ｐゴシック
 70
     0
 40
0.0
 41
1.0
 50
0.0
 71
     0
 42
6.6
  3

  4

1001
ACAD
1000
ＭＳ Ｐゴシック
1071
      256
  0
ENDTAB
  0
TABLE
  2
VIEW
  5
6
330
0
100
AcDbSymbolTable
 70
     0
  0
ENDTAB
  0
TABLE
  2
UCS
  5
7
330
0
100
AcDbSymbolTable
 70
     0
  0
ENDTAB
  0
TABLE
  2
APPID
  5
9
330
0
100
AcDbSymbolTable
 70
     2
  0
APPID
  5
12
330
9
100
AcDbSymbolTableRecord
100
AcDbRegAppTableRecord
  2
ACAD
 70
     0
  0
APPID
  5
6B
330
9
100
AcDbSymbolTableRecord
100
AcDbRegAppTableRecord
  2
ODA
 70
     0
  0
ENDTAB
  0
TABLE
  2
DIMSTYLE
  5
A
330
0
100
AcDbSymbolTable
 70
     1
100
AcDbDimStyleTable
  0
DIMSTYLE
105
27
102
{ACAD_REACTORS
330
350
330
359
330
385
330
38F
330
39B
102
}
330
A
100
AcDbSymbolTableRecord
100
AcDbDimStyleTableRecord
  2
Standard
 70
     0
178
     0
340
11
  0
ENDTAB
  0
TABLE
  2
BLOCK_RECORD
  5
1
330
0
100
AcDbSymbolTable
 70
    21
  0
BLOCK_RECORD
  5
1F
330
1
100
AcDbSymbolTableRecord
100
AcDbBlockTableRecord
  2
*Model_Space
340
22
 70
     0
280
     1
281
     0
  0
BLOCK_RECORD
  5
1B
330
1
100
AcDbSymbolTableRecord
100
AcDbBlockTableRecord
  2
*Paper_Space
340
1E
 70
     0
280
     1
281
     0
  0
BLOCK_RECORD
  5
23
330
1
100
AcDbSymbolTableRecord
100
AcDbBlockTableRecord
  2
*Paper_Space0
340
26
 70
     0
280
     1
281
     0
  0
BLOCK_RECORD
  5
6D
330
1
100
AcDbSymbolTableRecord
100
AcDbBlockTableRecord
  2
_ORIGIN
340
0
 70
     0
280
     1
281
     0
  0
BLOCK_RECORD
  5
72
330
1
100
AcDbSymbolTableRecord
100
AcDbBlockTableRecord
  2
_DOTBLANK
340
0
 70
     0
280
     1
281
     0
  0
BLOCK_RECORD
  5
77
330
1
100
AcDbSymbolTableRecord
100
AcDbBlockTableRecord
  2
_DOT
340
0
 70
     0
280
     1
281
     0
  0
BLOCK_RECORD
  5
7C
330
1
100
AcDbSymbolTableRecord
100
AcDbBlockTableRecord
  2
_OPEN
340
0
102
{BLKREFS
331
34E
331
34F
331
357
331
358
331
383
331
384
331
38D
331
38E
331
399
331
39A
102
}
 70
     0
280
     1
281
     0
  0
BLOCK_RECORD
  5
82
330
1
100
AcDbSymbolTableRecord
100
AcDbBlockTableRecord
  2
_CLOSED
340
0
 70
     0
280
     1
281
     0
  0
BLOCK_RECORD
  5
89
330
1
100
AcDbSymbolTableRecord
100
AcDbBlockTableRecord
  2
_CLOSEDBLANK
340
0
 70
     0
280
     1
281
     0
  0
BLOCK_RECORD
  5
8F
330
1
100
AcDbSymbolTableRecord
100
AcDbBlockTableRecord
  2
_ARROWFILLED
340
0
 70
     0
280
     1
281
     0
  0
BLOCK_RECORD
  5
93
330
1
100
AcDbSymbolTableRecord
100
AcDbBlockTableRecord
  2
_BOXBLANK
340
0
 70
     0
280
     1
281
     0
  0
BLOCK_RECORD
  5
9B
330
1
100
AcDbSymbolTableRecord
100
AcDbBlockTableRecord
  2
_BOXFILLED
340
0
 70
     0
280
     1
281
     0
  0
BLOCK_RECORD
  5
A0
330
1
100
AcDbSymbolTableRecord
100
AcDbBlockTableRecord
  2
_INTEGRAL
340
0
 70
     0
280
     1
281
     0
  0
BLOCK_RECORD
  5
A5
330
1
100
AcDbSymbolTableRecord
100
AcDbBlockTableRecord
  2
_OBLIQUE
340
0
 70
     0
280
     1
281
     0
  0
BLOCK_RECORD
  5
A9
330
1
100
AcDbSymbolTableRecord
100
AcDbBlockTableRecord
  2
_NONE
340
0
 70
     0
280
     1
281
     0
  0
BLOCK_RECORD
  5
AC
330
1
100
AcDbSymbolTableRecord
100
AcDbBlockTableRecord
  2
MARK_OPEN
340
0
 70
     0
280
     1
281
     0
  0
BLOCK_RECORD
  5
B1
330
1
100
AcDbSymbolTableRecord
100
AcDbBlockTableRecord
  2
MARK_ORIGIN
340
0
 70
     0
280
     1
281
     0
  0
BLOCK_RECORD
  5
B5
330
1
100
AcDbSymbolTableRecord
100
AcDbBlockTableRecord
  2
MARK_DOT
340
0
 70
     0
280
     1
281
     0
  0
BLOCK_RECORD
  5
348
330
1
100
AcDbSymbolTableRecord
100
AcDbBlockTableRecord
  2
Dim1
340
0
 70
     0
280
     1
281
     0
  0
BLOCK_RECORD
  5
351
330
1
100
AcDbSymbolTableRecord
100
AcDbBlockTableRecord
  2
Dim2
340
0
 70
     0
280
     1
281
     0
  0
BLOCK_RECORD
  5
37C
330
1
100
AcDbSymbolTableRecord
100
AcDbBlockTableRecord
  2
Dim3
340
0
 70
     0
280
     1
281
     0
  0
BLOCK_RECORD
  5
386
330
1
100
AcDbSymbolTableRecord
100
AcDbBlockTableRecord
  2
Dim4
340
0
 70
     0
280
     1
281
     0
  0
BLOCK_RECORD
  5
392
330
1
100
AcDbSymbolTableRecord
100
AcDbBlockTableRecord
  2
Dim5
340
0
 70
     0
280
     1
281
     0
  0
ENDTAB
  0
ENDSEC
  0
SECTION
  2
BLOCKS
  0
BLOCK
  5
20
330
1F
100
AcDbEntity
  8
0
100
AcDbBlockBegin
  2
*Model_Space
 70
     0
 10
0.0
 20
0.0
 30
0.0
  3
*Model_Space
  1
*Model_Space
  0
ENDBLK
  5
21
330
1F
100
AcDbEntity
  8
0
100
AcDbBlockEnd
  0
BLOCK
  5
1C
330
1B
100
AcDbEntity
 67
     1
  8
0
100
AcDbBlockBegin
  2
*Paper_Space
 70
     0
 10
0.0
 20
0.0
 30
0.0
  3
*Paper_Space
  1
*Paper_Space
  0
ENDBLK
  5
1D
330
1B
100
AcDbEntity
 67
     1
  8
0
100
AcDbBlockEnd
  0
BLOCK
  5
24
330
23
100
AcDbEntity
  8
0
100
AcDbBlockBegin
  2
*Paper_Space0
 70
     0
 10
0.0
 20
0.0
 30
0.0
  3
*Paper_Space0
  1
*Paper_Space0
  0
ENDBLK
  5
25
330
23
100
AcDbEntity
  8
0
100
AcDbBlockEnd
  0
BLOCK
  5
70
330
6D
100
AcDbEntity
  8
0
100
AcDbBlockBegin
  2
_ORIGIN
 70
     0
 10
0.0
 20
0.0
 30
0.0
  3
_ORIGIN
  1
_ORIGIN
  0
CIRCLE
  5
6E
330
6D
100
AcDbEntity
  8
0
 62
     0
100
AcDbCircle
 10
0.0
 20
0.0
 30
0.0
 40
0.5
  0
LINE
  5
6F
330
6D
100
AcDbEntity
  8
0
 62
     0
100
AcDbLine
 10
0.0
 20
0.0
 30
0.0
 11
-1.0
 21
0.0
 31
0.0
  0
ENDBLK
  5
71
330
6D
100
AcDbEntity
  8
0
100
AcDbBlockEnd
  0
BLOCK
  5
75
330
72
100
AcDbEntity
  8
0
100
AcDbBlockBegin
  2
_DOTBLANK
 70
     0
 10
0.0
 20
0.0
 30
0.0
  3
_DOTBLANK
  1
_DOTBLANK
  0
CIRCLE
  5
73
330
72
100
AcDbEntity
  8
0
 62
     0
100
AcDbCircle
 10
0.0
 20
0.0
 30
0.0
 40
0.5
  0
LINE
  5
74
330
72
100
AcDbEntity
  8
0
 62
     0
100
AcDbLine
 10
-0.5
 20
0.0
 30
0.0
 11
-1.0
 21
0.0
 31
0.0
  0
ENDBLK
  5
76
330
72
100
AcDbEntity
  8
0
100
AcDbBlockEnd
  0
BLOCK
  5
7A
330
77
100
AcDbEntity
  8
0
100
AcDbBlockBegin
  2
_DOT
 70
     0
 10
0.0
 20
0.0
 30
0.0
  3
_DOT
  1
_DOT
  0
LWPOLYLINE
  5
78
330
77
100
AcDbEntity
  8
0
 62
     0
100
AcDbPolyline
 90
        2
 70
     1
 43
0.5
 10
-0.25
 20
0.0
 42
1.0
 10
0.25
 20
0.0
 42
1.0
  0
LINE
  5
79
330
77
100
AcDbEntity
  8
0
 62
     0
100
AcDbLine
 10
-0.5
 20
0.0
 30
0.0
 11
-1.0
 21
0.0
 31
0.0
  0
ENDBLK
  5
7B
330
77
100
AcDbEntity
  8
0
100
AcDbBlockEnd
  0
BLOCK
  5
80
330
7C
100
AcDbEntity
  8
0
100
AcDbBlockBegin
  2
_OPEN
 70
     0
 10
0.0
 20
0.0
 30
0.0
  3
_OPEN
  1
_OPEN
  0
LINE
  5
7D
330
7C
100
AcDbEntity
  8
0
 62
     0
100
AcDbLine
 10
0.0
 20
0.0
 30
0.0
 11
-1.0
 21
0.1666666666666667
 31
0.0
  0
LINE
  5
7E
330
7C
100
AcDbEntity
  8
0
 62
     0
100
AcDbLine
 10
0.0
 20
0.0
 30
0.0
 11
-1.0
 21
-0.1666666666666667
 31
0.0
  0
LINE
  5
7F
330
7C
100
AcDbEntity
  8
0
 62
     0
100
AcDbLine
 10
0.0
 20
0.0
 30
0.0
 11
-1.0
 21
0.0
 31
0.0
  0
ENDBLK
  5
81
330
7C
100
AcDbEntity
  8
0
100
AcDbBlockEnd
  0
BLOCK
  5
87
330
82
100
AcDbEntity
  8
0
100
AcDbBlockBegin
  2
_CLOSED
 70
     0
 10
0.0
 20
0.0
 30
0.0
  3
_CLOSED
  1
_CLOSED
  0
LINE
  5
83
330
82
100
AcDbEntity
  8
0
 62
     0
100
AcDbLine
 10
0.0
 20
0.0
 30
0.0
 11
-1.0
 21
0.1666666666666667
 31
0.0
  0
LINE
  5
84
330
82
100
AcDbEntity
  8
0
 62
     0
100
AcDbLine
 10
0.0
 20
0.0
 30
0.0
 11
-1.0
 21
-0.1666666666666667
 31
0.0
  0
LINE
  5
85
330
82
100
AcDbEntity
  8
0
 62
     0
100
AcDbLine
 10
-1.0
 20
0.1666666666666667
 30
0.0
 11
-1.0
 21
-0.1666666666666667
 31
0.0
  0
LINE
  5
86
330
82
100
AcDbEntity
  8
0
 62
     0
100
AcDbLine
 10
0.0
 20
0.0
 30
0.0
 11
-1.0
 21
0.0
 31
0.0
  0
ENDBLK
  5
88
330
82
100
AcDbEntity
  8
0
100
AcDbBlockEnd
  0
BLOCK
  5
8D
330
89
100
AcDbEntity
  8
0
100
AcDbBlockBegin
  2
_CLOSEDBLANK
 70
     0
 10
0.0
 20
0.0
 30
0.0
  3
_CLOSEDBLANK
  1
_CLOSEDBLANK
  0
LINE
  5
8A
330
89
100
AcDbEntity
  8
0
 62
     0
100
AcDbLine
 10
0.0
 20
0.0
 30
0.0
 11
-1.0
 21
0.1666666666666667
 31
0.0
  0
LINE
  5
8B
330
89
100
AcDbEntity
  8
0
 62
     0
100
AcDbLine
 10
0.0
 20
0.0
 30
0.0
 11
-1.0
 21
-0.1666666666666667
 31
0.0
  0
LINE
  5
8C
330
89
100
AcDbEntity
  8
0
 62
     0
100
AcDbLine
 10
-1.0
 20
0.1666666666666667
 30
0.0
 11
-1.0
 21
-0.1666666666666667
 31
0.0
  0
ENDBLK
  5
8E
330
89
100
AcDbEntity
  8
0
100
AcDbBlockEnd
  0
BLOCK
  5
91
330
8F
100
AcDbEntity
  8
0
100
AcDbBlockBegin
  2
_ARROWFILLED
 70
     0
 10
0.0
 20
0.0
 30
0.0
  3
_ARROWFILLED
  1
_ARROWFILLED
  0
SOLID
  5
90
330
8F
100
AcDbEntity
  8
0
 62
     0
100
AcDbTrace
 10
0.0
 20
0.0
 30
0.0
 11
-1.0
 21
-0.1666666666666667
 31
0.0
 12
-1.0
 22
0.1666666666666667
 32
0.0
 13
0.0
 23
0.0
 33
0.0
  0
ENDBLK
  5
92
330
8F
100
AcDbEntity
  8
0
100
AcDbBlockEnd
  0
BLOCK
  5
99
330
93
100
AcDbEntity
  8
0
100
AcDbBlockBegin
  2
_BOXBLANK
 70
     0
 10
0.0
 20
0.0
 30
0.0
  3
_BOXBLANK
  1
_BOXBLANK
  0
LINE
  5
94
330
93
100
AcDbEntity
  8
0
 62
     0
100
AcDbLine
 10
-0.5
 20
-0.5
 30
0.0
 11
0.5
 21
-0.5
 31
0.0
  0
LINE
  5
95
330
93
100
AcDbEntity
  8
0
 62
     0
100
AcDbLine
 10
0.5
 20
-0.5
 30
0.0
 11
0.5
 21
0.5
 31
0.0
  0
LINE
  5
96
330
93
100
AcDbEntity
  8
0
 62
     0
100
AcDbLine
 10
0.5
 20
0.5
 30
0.0
 11
-0.5
 21
0.5
 31
0.0
  0
LINE
  5
97
330
93
100
AcDbEntity
  8
0
 62
     0
100
AcDbLine
 10
-0.5
 20
0.5
 30
0.0
 11
-0.5
 21
-0.5
 31
0.0
  0
LINE
  5
98
330
93
100
AcDbEntity
  8
0
 62
     0
100
AcDbLine
 10
-0.5
 20
0.0
 30
0.0
 11
-1.0
 21
0.0
 31
0.0
  0
ENDBLK
  5
9A
330
93
100
AcDbEntity
  8
0
100
AcDbBlockEnd
  0
BLOCK
  5
9E
330
9B
100
AcDbEntity
  8
0
100
AcDbBlockBegin
  2
_BOXFILLED
 70
     0
 10
0.0
 20
0.0
 30
0.0
  3
_BOXFILLED
  1
_BOXFILLED
  0
SOLID
  5
9C
330
9B
100
AcDbEntity
  8
0
 62
     0
100
AcDbTrace
 10
-0.5
 20
0.5
 30
0.0
 11
0.5
 21
0.5
 31
0.0
 12
-0.5
 22
-0.5
 32
0.0
 13
0.5
 23
-0.5
 33
0.0
  0
LINE
  5
9D
330
9B
100
AcDbEntity
  8
0
 62
     0
100
AcDbLine
 10
-0.5
 20
0.0
 30
0.0
 11
-1.0
 21
0.0
 31
0.0
  0
ENDBLK
  5
9F
330
9B
100
AcDbEntity
  8
0
100
AcDbBlockEnd
  0
BLOCK
  5
A3
330
A0
100
AcDbEntity
  8
0
100
AcDbBlockBegin
  2
_INTEGRAL
 70
     0
 10
0.0
 20
0.0
 30
0.0
  3
_INTEGRAL
  1
_INTEGRAL
  0
ARC
  5
A1
330
A0
100
AcDbEntity
  8
0
 62
     0
100
AcDbCircle
 10
0.444888
 20
-0.0913346
 30
0.0
 40
0.4541666
100
AcDbArc
 50
101.9999999999999
 51
167.9999999999998
  0
ARC
  5
A2
330
A0
100
AcDbEntity
  8
0
 62
     0
100
AcDbCircle
 10
-0.444888
 20
0.0913346
 30
0.0
 40
0.4541666
100
AcDbArc
 50
281.9999999999997
 51
347.9999999999997
  0
ENDBLK
  5
A4
330
A0
100
AcDbEntity
  8
0
100
AcDbBlockEnd
  0
BLOCK
  5
A7
330
A5
100
AcDbEntity
  8
0
100
AcDbBlockBegin
  2
_OBLIQUE
 70
     0
 10
0.0
 20
0.0
 30
0.0
  3
_OBLIQUE
  1
_OBLIQUE
  0
LINE
  5
A6
330
A5
100
AcDbEntity
  8
0
 62
     0
100
AcDbLine
 10
-0.5
 20
-0.5
 30
0.0
 11
0.5
 21
0.5
 31
0.0
  0
ENDBLK
  5
A8
330
A5
100
AcDbEntity
  8
0
100
AcDbBlockEnd
  0
BLOCK
  5
AA
330
A9
100
AcDbEntity
  8
0
100
AcDbBlockBegin
  2
_NONE
 70
     0
 10
0.0
 20
0.0
 30
0.0
  3
_NONE
  1
_NONE
  0
ENDBLK
  5
AB
330
A9
100
AcDbEntity
  8
0
100
AcDbBlockEnd
  0
BLOCK
  5
AF
330
AC
100
AcDbEntity
  8
0
100
AcDbBlockBegin
  2
MARK_OPEN
 70
     0
 10
0.0
 20
0.0
 30
0.0
  3
MARK_OPEN
  1
MARK_OPEN
  0
LINE
  5
AD
330
AC
100
AcDbEntity
  8
0
 62
     0
100
AcDbLine
 10
0.0
 20
0.0
 30
0.0
 11
-1.0
 21
0.1666666666666667
 31
0.0
  0
LINE
  5
AE
330
AC
100
AcDbEntity
  8
0
 62
     0
100
AcDbLine
 10
0.0
 20
0.0
 30
0.0
 11
-1.0
 21
-0.1666666666666667
 31
0.0
  0
ENDBLK
  5
B0
330
AC
100
AcDbEntity
  8
0
100
AcDbBlockEnd
  0
BLOCK
  5
B3
330
B1
100
AcDbEntity
  8
0
100
AcDbBlockBegin
  2
MARK_ORIGIN
 70
     0
 10
0.0
 20
0.0
 30
0.0
  3
MARK_ORIGIN
  1
MARK_ORIGIN
  0
CIRCLE
  5
B2
330
B1
100
AcDbEntity
  8
0
 62
     0
100
AcDbCircle
 10
0.0
 20
0.0
 30
0.0
 40
0.5
  0
ENDBLK
  5
B4
330
B1
100
AcDbEntity
  8
0
100
AcDbBlockEnd
  0
BLOCK
  5
B7
330
B5
100
AcDbEntity
  8
0
100
AcDbBlockBegin
  2
MARK_DOT
 70
     0
 10
0.0
 20
0.0
 30
0.0
  3
MARK_DOT
  1
MARK_DOT
  0
LWPOLYLINE
  5
B6
330
B5
100
AcDbEntity
  8
0
 62
     0
100
AcDbPolyline
 90
        2
 70
     1
 43
0.5
 10
-0.25
 20
0.0
 42
1.0
 10
0.25
 20
0.0
 42
1.0
  0
ENDBLK
  5
B8
330
B5
100
AcDbEntity
  8
0
100
AcDbBlockEnd
  0
BLOCK
  5
349
330
348
100
AcDbEntity
  8
0
100
AcDbBlockBegin
  2
Dim1
 70
     0
 10
0.0
 20
0.0
 30
0.0
  3
Dim1
  1
Dim1
  0
LINE
  5
34B
330
348
100
AcDbEntity
  8
6
  6
Continuous
 62
     3
370
     9
100
AcDbLine
 10
226.3425625489219
 20
295.3692597350947
 30
0.0
 11
226.3425625489219
 21
312.3005835691736
 31
0.0
  0
LINE
  5
34C
330
348
100
AcDbEntity
  8
6
  6
Continuous
 62
     3
370
     9
100
AcDbLine
 10
226.3425625489219
 20
310.3005835691736
 30
0.0
 11
353.8425625489219
 21
310.3005835691736
 31
0.0
  0
MTEXT
  5
34D
330
348
100
AcDbEntity
  8
6
  6
Continuous
 62
     3
370
     9
100
AcDbMText
 10
290.0925625489218
 20
311.9005835691736
 30
0.0
 40
6.6
 41
364.881
 46
6.6
 71
     8
 72
     1
  1
(全閉時：127.5)
  7
ＭＳ Ｐゴシック
 73
     1
 44
1.0
1001
ACAD
1000
ACAD_MTEXT_DEFINED_HEIGHT_BEGIN
1070
    46
1040
6.6
1000
ACAD_MTEXT_DEFINED_HEIGHT_END
  0
INSERT
  5
34E
330
348
100
AcDbEntity
  8
6
  6
Continuous
 62
     3
370
     9
100
AcDbBlockReference
  2
_OPEN
 10
226.3425625489219
 20
310.3005835691736
 30
0.0
 41
4.6
 42
4.6
 43
4.6
 50
179.9999999999998
  0
INSERT
  5
34F
330
348
100
AcDbEntity
  8
6
  6
Continuous
 62
     3
370
     9
100
AcDbBlockReference
  2
_OPEN
 10
353.8425625489219
 20
310.3005835691736
 30
0.0
 41
4.6
 42
4.6
 43
4.6
 50
359.9999999999997
  0
ENDBLK
  5
34A
330
348
100
AcDbEntity
  8
0
100
AcDbBlockEnd
  0
BLOCK
  5
352
330
351
100
AcDbEntity
  8
0
100
AcDbBlockBegin
  2
Dim2
 70
     0
 10
0.0
 20
0.0
 30
0.0
  3
Dim2
  1
Dim2
  0
LINE
  5
354
330
351
100
AcDbEntity
  8
6
  6
Continuous
 62
     3
370
     9
100
AcDbLine
 10
201.8425625489217
 20
236.3692597350947
 30
0.0
 11
201.8425625489216
 21
220.5422413153142
 31
0.0
  0
LINE
  5
355
330
351
100
AcDbEntity
  8
6
  6
Continuous
 62
     3
370
     9
100
AcDbLine
 10
201.8425625489216
 20
222.5422413153142
 30
0.0
 11
353.8425625489209
 21
222.5422413153142
 31
0.0
  0
MTEXT
  5
356
330
351
100
AcDbEntity
  8
6
  6
Continuous
 62
     3
370
     9
100
AcDbMText
 10
277.8425625489213
 20
224.1422413153142
 30
0.0
 40
6.6
 41
320.859
 46
6.6
 71
     8
 72
     1
  1
(全開時：152)
  7
ＭＳ Ｐゴシック
 73
     1
 44
1.0
1001
ACAD
1000
ACAD_MTEXT_DEFINED_HEIGHT_BEGIN
1070
    46
1040
6.6
1000
ACAD_MTEXT_DEFINED_HEIGHT_END
  0
INSERT
  5
357
330
351
100
AcDbEntity
  8
6
  6
Continuous
 62
     3
370
     9
100
AcDbBlockReference
  2
_OPEN
 10
201.8425625489216
 20
222.5422413153142
 30
0.0
 41
4.6
 42
4.6
 43
4.6
 50
179.9999999999998
  0
INSERT
  5
358
330
351
100
AcDbEntity
  8
6
  6
Continuous
 62
     3
370
     9
100
AcDbBlockReference
  2
_OPEN
 10
353.8425625489209
 20
222.5422413153142
 30
0.0
 41
4.6
 42
4.6
 43
4.6
 50
359.9999999999997
  0
ENDBLK
  5
353
330
351
100
AcDbEntity
  8
0
100
AcDbBlockEnd
  0
BLOCK
  5
37D
330
37C
100
AcDbEntity
  8
0
100
AcDbBlockBegin
  2
Dim3
 70
     0
 10
0.0
 20
0.0
 30
0.0
  3
Dim3
  1
Dim3
  0
LINE
  5
37F
330
37C
100
AcDbEntity
  8
6
  6
Continuous
 62
     3
370
     9
100
AcDbLine
 10
120.7507668999531
 20
422.5311487829663
 30
0.0
 11
120.7507668999531
 21
444.6018324541041
 31
0.0
  0
LINE
  5
380
330
37C
100
AcDbEntity
  8
6
  6
Continuous
 62
     3
370
     9
100
AcDbLine
 10
211.580766899953
 20
353.3092596329552
 30
0.0
 11
211.5807668999531
 21
444.6018324541041
 31
0.0
  0
LINE
  5
381
330
37C
100
AcDbEntity
  8
6
  6
Continuous
 62
     3
370
     9
100
AcDbLine
 10
120.7507668999531
 20
442.6018324541041
 30
0.0
 11
211.5807668999531
 21
442.6018324541041
 31
0.0
  0
MTEXT
  5
382
330
37C
100
AcDbEntity
  8
6
  6
Continuous
 62
     3
370
     9
100
AcDbMText
 10
166.1657668999532
 20
444.2018324541041
 30
0.0
 40
6.6
 41
88.737
 46
6.6
 71
     8
 72
     1
  1
(91)
  7
ＭＳ Ｐゴシック
 73
     1
 44
1.0
1001
ACAD
1000
ACAD_MTEXT_DEFINED_HEIGHT_BEGIN
1070
    46
1040
6.6
1000
ACAD_MTEXT_DEFINED_HEIGHT_END
  0
INSERT
  5
383
330
37C
100
AcDbEntity
  8
6
  6
Continuous
 62
     3
370
     9
100
AcDbBlockReference
  2
_OPEN
 10
120.7507668999531
 20
442.6018324541041
 30
0.0
 41
4.6
 42
4.6
 43
4.6
 50
179.9999999999998
  0
INSERT
  5
384
330
37C
100
AcDbEntity
  8
6
  6
Continuous
 62
     3
370
     9
100
AcDbBlockReference
  2
_OPEN
 10
211.5807668999531
 20
442.6018324541041
 30
0.0
 41
4.6
 42
4.6
 43
4.6
 50
359.9999999999997
  0
ENDBLK
  5
37E
330
37C
100
AcDbEntity
  8
0
100
AcDbBlockEnd
  0
BLOCK
  5
387
330
386
100
AcDbEntity
  8
0
100
AcDbBlockBegin
  2
Dim4
 70
     0
 10
0.0
 20
0.0
 30
0.0
  3
Dim4
  1
Dim4
  0
LINE
  5
389
330
386
100
AcDbEntity
  8
6
  6
Continuous
 62
     3
370
     9
100
AcDbLine
 10
85.7507668999533
 20
267.8692597350944
 30
0.0
 11
85.75076689995353
 21
444.6018324541041
 31
0.0
  0
LINE
  5
38A
330
386
100
AcDbEntity
  8
6
  6
Continuous
 62
     3
370
     9
100
AcDbLine
 10
120.7507668999531
 20
422.5311487829663
 30
0.0
 11
120.7507668999531
 21
444.6018324541041
 31
0.0
  0
LINE
  5
38B
330
386
100
AcDbEntity
  8
6
  6
Continuous
 62
     3
370
     9
100
AcDbLine
 10
85.75076689995353
 20
442.6018324541041
 30
0.0
 11
120.7507668999531
 21
442.6018324541041
 31
0.0
  0
MTEXT
  5
38C
330
386
100
AcDbEntity
  8
6
  6
Continuous
 62
     3
370
     9
100
AcDbMText
 10
103.2507668999533
 20
444.2018324541041
 30
0.0
 40
6.6
 41
99.72599999999998
 46
6.6
 71
     8
 72
     1
  1
(35)
  7
ＭＳ Ｐゴシック
 73
     1
 44
1.0
1001
ACAD
1000
ACAD_MTEXT_DEFINED_HEIGHT_BEGIN
1070
    46
1040
6.6
1000
ACAD_MTEXT_DEFINED_HEIGHT_END
  0
INSERT
  5
38D
330
386
100
AcDbEntity
  8
6
  6
Continuous
 62
     3
370
     9
100
AcDbBlockReference
  2
_OPEN
 10
85.75076689995353
 20
442.6018324541041
 30
0.0
 41
4.6
 42
4.6
 43
4.6
 50
179.9999999999998
  0
INSERT
  5
38E
330
386
100
AcDbEntity
  8
6
  6
Continuous
 62
     3
370
     9
100
AcDbBlockReference
  2
_OPEN
 10
120.7507668999531
 20
442.6018324541041
 30
0.0
 41
4.6
 42
4.6
 43
4.6
 50
359.9999999999997
  0
ENDBLK
  5
388
330
386
100
AcDbEntity
  8
0
100
AcDbBlockEnd
  0
BLOCK
  5
393
330
392
100
AcDbEntity
  8
0
100
AcDbBlockBegin
  2
Dim5
 70
     0
 10
0.0
 20
0.0
 30
0.0
  3
Dim5
  1
Dim5
  0
LINE
  5
395
330
392
100
AcDbEntity
  8
6
  6
Continuous
 62
     3
370
     9
100
AcDbLine
 10
100.7507668999531
 20
211.3692597350936
 30
0.0
 11
68.57245859612829
 21
211.3692597350937
 31
0.0
  0
LINE
  5
396
330
392
100
AcDbEntity
  8
6
  6
Continuous
 62
     3
370
     9
100
AcDbLine
 10
180.7306387782282
 20
427.4092597347156
 30
0.0
 11
68.57245859612829
 21
427.409259734716
 31
0.0
  0
LINE
  5
397
330
392
100
AcDbEntity
  8
6
  6
Continuous
 62
     3
370
     9
100
AcDbLine
 10
70.57245859612829
 20
211.3692597350937
 30
0.0
 11
70.57245859612829
 21
427.409259734716
 31
0.0
  0
MTEXT
  5
398
330
392
100
AcDbEntity
  8
6
  6
Continuous
 62
     3
370
     9
100
AcDbMText
 10
68.97245859612826
 20
319.3892597349048
 30
0.0
 40
6.6
 41
121.737
 46
6.6
 71
     8
 72
     1
  1
(216)
  7
ＭＳ Ｐゴシック
 11
1.615544574432587E-15
 21
1.0
 31
0.0
 73
     1
 44
1.0
1001
ACAD
1000
ACAD_MTEXT_DEFINED_HEIGHT_BEGIN
1070
    46
1040
6.6
1000
ACAD_MTEXT_DEFINED_HEIGHT_END
  0
INSERT
  5
399
330
392
100
AcDbEntity
  8
6
  6
Continuous
 62
     3
370
     9
100
AcDbBlockReference
  2
_OPEN
 10
70.57245859612829
 20
211.3692597350937
 30
0.0
 41
4.6
 42
4.6
 43
4.6
 50
269.9999999999998
  0
INSERT
  5
39A
330
392
100
AcDbEntity
  8
6
  6
Continuous
 62
     3
370
     9
100
AcDbBlockReference
  2
_OPEN
 10
70.57245859612829
 20
427.409259734716
 30
0.0
 41
4.6
 42
4.6
 43
4.6
 50
89.99999999999991
  0
ENDBLK
  5
394
330
392
100
AcDbEntity
  8
0
100
AcDbBlockEnd
  0
ENDSEC
  0
SECTION
  2
ENTITIES
  0
POLYLINE
  5
E3
330
1F
100
AcDbEntity
  8
12
  6
Continuous
 62
     5
370
    53
100
AcDb2dPolyline
 66
     1
 10
0.0
 20
0.0
 30
0.0
  0
VERTEX
  5
E4
330
E3
100
AcDbEntity
  8
12
  6
Continuous
 62
     5
370
    53
100
AcDbVertex
100
AcDb2dVertex
 10
41.0
 20
24.0
 30
0.0
  0
VERTEX
  5
E5
330
E3
100
AcDbEntity
  8
12
  6
Continuous
 62
     5
370
    53
100
AcDbVertex
100
AcDb2dVertex
 10
403.0
 20
24.0
 30
0.0
  0
VERTEX
  5
E6
330
E3
100
AcDbEntity
  8
12
  6
Continuous
 62
     5
370
    53
100
AcDbVertex
100
AcDb2dVertex
 10
403.0
 20
570.0
 30
0.0
  0
VERTEX
  5
E7
330
E3
100
AcDbEntity
  8
12
  6
Continuous
 62
     5
370
    53
100
AcDbVertex
100
AcDb2dVertex
 10
41.0
 20
570.0
 30
0.0
  0
VERTEX
  5
E8
330
E3
100
AcDbEntity
  8
12
  6
Continuous
 62
     5
370
    53
100
AcDbVertex
100
AcDb2dVertex
 10
41.0
 20
24.0
 30
0.0
  0
SEQEND
  5
E9
330
E3
100
AcDbEntity
  8
12
  6
Continuous
 62
     5
370
    53
  0
LINE
  5
EA
330
1F
100
AcDbEntity
  8
9
  6
Continuous
 62
     7
370
    35
100
AcDbLine
 10
138.2507168999541
 20
238.9054087350944
 30
0.0
 11
138.2507168999541
 21
233.3692597350943
 31
0.0
  0
LINE
  5
EB
330
1F
100
AcDbEntity
  8
9
  6
Continuous
 62
     7
370
    35
100
AcDbLine
 10
127.999506899954
 20
234.8678347350944
 30
0.0
 11
127.999506899954
 21
233.3692597350943
 31
0.0
  0
ARC
  5
EC
330
1F
100
AcDbEntity
  8
9
  6
Continuous
 62
     7
370
    35
100
AcDbCircle
 10
140.9627518999539
 20
217.0732107350943
 30
0.0
 40
22.0
100
AcDbArc
 50
90.81598899999726
 51
134.1840109999997
  0
ARC
  5
ED
330
1F
100
AcDbEntity
  8
9
  6
Continuous
 62
     7
370
    35
100
AcDbCircle
 10
100.5387818999541
 20
217.0732107350943
 30
0.0
 40
22.0
100
AcDbArc
 50
45.81598900000013
 51
89.18401100000273
  0
LINE
  5
EE
330
1F
100
AcDbEntity
  8
9
  6
Continuous
 62
     7
370
    35
100
AcDbLine
 10
103.2508068999541
 20
238.9505277350943
 30
0.0
 11
103.2508068999541
 21
233.3692597350943
 31
0.0
  0
LINE
  5
EF
330
1F
100
AcDbEntity
  8
9
  6
Continuous
 62
     7
370
    35
100
AcDbLine
 10
113.502016899954
 20
234.8678347350944
 30
0.0
 11
113.502016899954
 21
233.3692597350943
 31
0.0
  0
LINE
  5
F0
330
1F
100
AcDbEntity
  8
9
  6
Continuous
 62
     7
370
    35
100
AcDbLine
 10
138.2507168999541
 20
233.3692597350943
 30
0.0
 11
126.1830768999541
 21
233.3692597350943
 31
0.0
  0
ARC
  5
F1
330
1F
100
AcDbEntity
  8
9
  6
Continuous
 62
     7
370
    35
100
AcDbCircle
 10
135.1522004640872
 20
214.2755441728685
 30
0.0
 40
13.13024489804019
100
AcDbArc
 50
94.27486931879967
 51
118.7650793645159
  0
ARC
  5
F2
330
1F
100
AcDbEntity
  8
9
  6
Continuous
 62
     7
370
    35
100
AcDbCircle
 10
135.1522004640872
 20
230.4629752973184
 30
0.0
 40
13.13024489804019
100
AcDbArc
 50
241.2349206354837
 51
265.7251306812
  0
LINE
  5
F3
330
1F
100
AcDbEntity
  8
8
  6
Continuous
 62
     4
370
    25
100
AcDbLine
 10
134.1140793999527
 20
229.2692597350936
 30
0.0
 11
107.3874543999534
 21
229.2692597350934
 31
0.0
  0
LINE
  5
F4
330
1F
100
AcDbEntity
  8
8
  6
Continuous
 62
     4
370
    25
100
AcDbLine
 10
132.9520793999534
 20
229.2692597350936
 30
0.0
 11
134.1526267142533
 21
228.0357456774903
 31
0.0
  0
LINE
  5
F5
330
1F
100
AcDbEntity
  8
8
  6
Continuous
 62
     4
370
    25
100
AcDbLine
 10
132.9520793999534
 20
215.4692597350935
 30
0.0
 11
134.1526267142533
 21
216.7027737926968
 31
0.0
  0
LINE
  5
F6
330
1F
100
AcDbEntity
  8
8
  6
Continuous
 62
     4
370
    25
100
AcDbLine
 10
107.3874543999534
 20
215.4692597350935
 30
0.0
 11
134.1140793999527
 21
215.4692597350935
 31
0.0
  0
LINE
  5
F7
330
1F
100
AcDbEntity
  8
9
  6
Continuous
 62
     7
370
    35
100
AcDbLine
 10
134.1734543999526
 20
227.3692597350936
 30
0.0
 11
107.3280793999527
 21
227.3692597350936
 31
0.0
  0
LINE
  5
F8
330
1F
100
AcDbEntity
  8
9
  6
Continuous
 62
     7
370
    35
100
AcDbLine
 10
134.1734543999526
 20
217.3692597350936
 30
0.0
 11
107.3280793999527
 21
217.3692597350936
 31
0.0
  0
LINE
  5
F9
330
1F
100
AcDbEntity
  8
9
  6
Continuous
 62
     7
370
    35
100
AcDbLine
 10
136.250766899954
 20
233.3692597350943
 30
0.0
 11
126.1830771068605
 21
233.3692597350943
 31
0.0
  0
LINE
  5
FA
330
1F
100
AcDbEntity
  8
9
  6
Continuous
 62
     7
370
    35
100
AcDbLine
 10
107.3280793999527
 20
217.3692597350936
 30
0.0
 11
107.5155793999527
 21
211.3692597350936
 31
0.0
  0
LINE
  5
FB
330
1F
100
AcDbEntity
  8
8
  6
Continuous
 62
     4
370
    25
100
AcDbLine
 10
108.5494543999528
 20
215.4692597350935
 30
0.0
 11
107.3489070856529
 21
216.7027737926968
 31
0.0
  0
LINE
  5
FC
330
1F
100
AcDbEntity
  8
8
  6
Continuous
 62
     4
370
    25
100
AcDbLine
 10
108.6775793999529
 20
211.3692597350936
 30
0.0
 11
108.5494543999528
 21
215.4692597350935
 31
0.0
  0
LINE
  5
FD
330
1F
100
AcDbEntity
  8
8
  6
Continuous
 62
     4
370
    25
100
AcDbLine
 10
132.8239543999532
 20
211.3692597350936
 30
0.0
 11
132.9520793999534
 21
215.4692597350935
 31
0.0
  0
LINE
  5
FE
330
1F
100
AcDbEntity
  8
9
  6
Continuous
 62
     7
370
    35
100
AcDbLine
 10
115.3184568999541
 20
233.3692597350943
 30
0.0
 11
103.2508068999541
 21
233.3692597350943
 31
0.0
  0
ARC
  5
FF
330
1F
100
AcDbEntity
  8
9
  6
Continuous
 62
     7
370
    35
100
AcDbCircle
 10
120.7507668999531
 20
205.9511221606832
 30
0.0
 40
21.41813757441027
100
AcDbArc
 50
89.99999999999991
 51
112.1718548551823
  0
LINE
  5
100
330
1F
100
AcDbEntity
  8
9
  6
Continuous
 62
     7
370
    35
100
AcDbLine
 10
105.250766899954
 20
233.3692597350943
 30
0.0
 11
115.3184566930474
 21
233.3692597350943
 31
0.0
  0
LINE
  5
101
330
1F
100
AcDbEntity
  8
9
  6
Continuous
 62
     7
370
    35
100
AcDbLine
 10
105.750766899954
 20
233.3692597350943
 30
0.0
 11
115.3184566930474
 21
233.3692597350943
 31
0.0
  0
ARC
  5
102
330
1F
100
AcDbEntity
  8
9
  6
Continuous
 62
     7
370
    35
100
AcDbCircle
 10
120.7507668999522
 20
238.7873973095041
 30
0.0
 40
21.41813757441062
100
AcDbArc
 50
247.8281451448172
 51
269.9999999999998
  0
ARC
  5
103
330
1F
100
AcDbEntity
  8
9
  6
Continuous
 62
     7
370
    35
100
AcDbCircle
 10
106.349333335819
 20
214.2755441728683
 30
0.0
 40
13.13024489804019
100
AcDbArc
 50
61.23492063548367
 51
85.72513068120035
  0
LINE
  5
104
330
1F
100
AcDbEntity
  8
8
  6
Continuous
 62
     4
370
    25
100
AcDbLine
 10
108.6775793999529
 20
233.3692597350936
 30
0.0
 11
108.5494543999528
 21
229.2692597350936
 31
0.0
  0
LINE
  5
105
330
1F
100
AcDbEntity
  8
9
  6
Continuous
 62
     7
370
    35
100
AcDbLine
 10
107.5155793999527
 20
233.3692597350936
 30
0.0
 11
107.3280793999527
 21
227.3692597350936
 31
0.0
  0
LINE
  5
106
330
1F
100
AcDbEntity
  8
9
  6
Continuous
 62
     7
370
    35
100
AcDbLine
 10
107.3280793999527
 20
227.3692597350936
 30
0.0
 11
104.5849593626433
 21
225.7855186431335
 31
0.0
  0
LINE
  5
107
330
1F
100
AcDbEntity
  8
8
  6
Continuous
 62
     4
370
    25
100
AcDbLine
 10
108.5494543999528
 20
229.2692597350936
 30
0.0
 11
107.3489070856529
 21
228.0357456774903
 31
0.0
  0
ARC
  5
108
330
1F
100
AcDbEntity
  8
9
  6
Continuous
 62
     7
370
    35
100
AcDbCircle
 10
106.3493333358181
 20
230.4629752973181
 30
0.0
 40
13.13024489804019
100
AcDbArc
 50
274.2748693187993
 51
298.765079364516
  0
LINE
  5
109
330
1F
100
AcDbEntity
  8
9
  6
Continuous
 62
     7
370
    35
100
AcDbLine
 10
107.3280793999527
 20
217.3692597350936
 30
0.0
 11
104.5849593626433
 21
218.9530008270536
 31
0.0
  0
LINE
  5
10A
330
1F
100
AcDbEntity
  8
9
  6
Continuous
 62
     7
370
    35
100
AcDbLine
 10
112.6678631312977
 20
225.7855186431333
 30
0.0
 11
112.6678631312977
 21
218.9530008270534
 31
0.0
  0
LINE
  5
10B
330
1F
100
AcDbEntity
  8
9
  6
Continuous
 62
     7
370
    35
100
AcDbLine
 10
104.5849593626433
 20
225.7855186431335
 30
0.0
 11
104.5849593626433
 21
218.9530008270536
 31
0.0
  0
ARC
  5
10C
330
1F
100
AcDbEntity
  8
9
  6
Continuous
 62
     7
370
    35
100
AcDbCircle
 10
120.750766899954
 20
237.8692597350943
 30
0.0
 40
7.0
100
AcDbArc
 50
225.8159890000004
 51
314.1840109999996
  0
LINE
  5
10D
330
1F
100
AcDbEntity
  8
8
  6
Continuous
 62
     4
370
    25
100
AcDbLine
 10
132.8239543999532
 20
233.3692597350936
 30
0.0
 11
132.9520793999534
 21
229.2692597350936
 31
0.0
  0
ARC
  5
10E
330
1F
100
AcDbEntity
  8
9
  6
Continuous
 62
     7
370
    35
100
AcDbCircle
 10
120.7507668999531
 20
205.9511221606832
 30
0.0
 40
21.41813757441027
100
AcDbArc
 50
67.8281451448176
 51
89.99999999999991
  0
ARC
  5
10F
330
1F
100
AcDbEntity
  8
9
  6
Continuous
 62
     7
370
    35
100
AcDbCircle
 10
120.7507668999531
 20
238.7873973095041
 30
0.0
 40
21.41813757441062
100
AcDbArc
 50
269.9999999999998
 51
292.1718548551821
  0
LINE
  5
110
330
1F
100
AcDbEntity
  8
9
  6
Continuous
 62
     7
370
    35
100
AcDbLine
 10
128.8336706686075
 20
225.7855186431335
 30
0.0
 11
128.8336706686075
 21
218.9530008270536
 31
0.0
  0
LINE
  5
111
330
1F
100
AcDbEntity
  8
9
  6
Continuous
 62
     7
370
    35
100
AcDbLine
 10
133.9859543999535
 20
211.3692597350936
 30
0.0
 11
134.1734543999526
 21
217.3692597350936
 31
0.0
  0
LINE
  5
112
330
1F
100
AcDbEntity
  8
9
  6
Continuous
 62
     7
370
    35
100
AcDbLine
 10
134.1734543999526
 20
227.3692597350936
 30
0.0
 11
136.9165744372629
 21
225.7855186431335
 31
0.0
  0
LINE
  5
113
330
1F
100
AcDbEntity
  8
9
  6
Continuous
 62
     7
370
    35
100
AcDbLine
 10
134.1734543999526
 20
227.3692597350936
 30
0.0
 11
133.9859543999526
 21
233.3692597350936
 31
0.0
  0
LINE
  5
114
330
1F
100
AcDbEntity
  8
9
  6
Continuous
 62
     7
370
    35
100
AcDbLine
 10
134.1734543999526
 20
217.3692597350936
 30
0.0
 11
136.9165744372629
 21
218.9530008270536
 31
0.0
  0
LINE
  5
115
330
1F
100
AcDbEntity
  8
9
  6
Continuous
 62
     7
370
    35
100
AcDbLine
 10
136.9165744372629
 20
225.7855186431335
 30
0.0
 11
136.9165744372629
 21
218.9530008270536
 31
0.0
  0
LINE
  5
116
330
1F
100
AcDbEntity
  8
11
  6
HIDDEN
 62
     2
370
    25
100
AcDbLine
 10
108.6640989467305
 20
381.3092597350957
 30
0.0
 11
107.3105724713232
 21
383.6536363598906
 31
0.0
  0
LINE
  5
117
330
1F
100
AcDbEntity
  8
11
  6
HIDDEN
 62
     2
370
    25
100
AcDbLine
 10
134.1805960103729
 20
383.6536363598906
 30
0.0
 11
132.8270695349659
 21
381.3092597350957
 31
0.0
  0
LINE
  5
118
330
1F
100
AcDbEntity
  8
11
  6
HIDDEN
 62
     2
370
    25
100
AcDbLine
 10
107.1455842408482
 20
388.9332597350964
 30
0.0
 11
107.5400842408482
 21
376.3092597350957
 31
0.0
  0
LINE
  5
119
330
1F
100
AcDbEntity
  8
11
  6
HIDDEN
 62
     2
370
    25
100
AcDbLine
 10
133.9510842408481
 20
376.3092597350956
 30
0.0
 11
134.3455842408482
 21
388.9332597350952
 31
0.0
  0
LINE
  5
11A
330
1F
100
AcDbEntity
  8
9
  6
Continuous
 62
     7
370
    35
100
AcDbLine
 10
111.5131625929191
 20
317.8392597350954
 30
0.0
 11
111.5131625929191
 21
306.8392597350954
 31
0.0
  0
LINE
  5
11B
330
1F
100
AcDbEntity
  8
9
  6
Continuous
 62
     7
370
    35
100
AcDbLine
 10
129.9883712069873
 20
306.8392597350954
 30
0.0
 11
129.9883712069873
 21
317.8392597350954
 31
0.0
  0
LINE
  5
11C
330
1F
100
AcDbEntity
  8
9
  6
Continuous
 62
     7
370
    35
100
AcDbLine
 10
102.2755582858852
 20
317.8392597350954
 30
0.0
 11
102.2755582858852
 21
306.8392597350954
 31
0.0
  0
LINE
  5
11D
330
1F
100
AcDbEntity
  8
9
  6
Continuous
 62
     7
370
    35
100
AcDbLine
 10
139.2259755140212
 20
306.8392597350954
 30
0.0
 11
139.2259755140212
 21
317.8392597350954
 31
0.0
  0
ARC
  5
11E
330
1F
100
AcDbEntity
  8
9
  6
Continuous
 62
     7
370
    35
100
AcDbCircle
 10
140.9627518999539
 20
314.6653087350944
 30
0.0
 40
22.0
100
AcDbArc
 50
225.8159889999999
 51
269.1840110000024
  0
LINE
  5
11F
330
1F
100
AcDbEntity
  8
9
  6
Continuous
 62
     7
370
    35
100
AcDbLine
 10
138.2507168999541
 20
298.3692597350944
 30
0.0
 11
126.1830768999541
 21
298.3692597350944
 31
0.0
  0
LINE
  5
120
330
1F
100
AcDbEntity
  8
9
  6
Continuous
 62
     7
370
    35
100
AcDbLine
 10
130.4112278999539
 20
270.5535137350944
 30
0.0
 11
140.2939878999541
 21
270.1192597350944
 31
0.0
  0
LINE
  5
121
330
1F
100
AcDbEntity
  8
9
  6
Continuous
 62
     7
370
    35
100
AcDbLine
 10
130.4112278999539
 20
261.1850057350944
 30
0.0
 11
140.2939878999541
 21
261.6192597350944
 31
0.0
  0
CIRCLE
  5
122
330
1F
100
AcDbEntity
  8
9
  6
Continuous
 62
     7
370
    35
100
AcDbCircle
 10
120.750766899954
 20
265.8692597350944
 30
0.0
 40
20.0
  0
LINE
  5
123
330
1F
100
AcDbEntity
  8
9
  6
Continuous
 62
     7
370
    35
100
AcDbLine
 10
135.750766899954
 20
298.3692597350944
 30
0.0
 11
126.1830771068605
 21
298.3692597350944
 31
0.0
  0
LINE
  5
124
330
1F
100
AcDbEntity
  8
9
  6
Continuous
 62
     7
370
    35
100
AcDbLine
 10
102.2755582858852
 20
306.8392597350954
 30
0.0
 11
139.2259755140212
 21
306.8392597350954
 31
0.0
  0
LINE
  5
125
330
1F
100
AcDbEntity
  8
9
  6
Continuous
 62
     7
370
    35
100
AcDbLine
 10
125.750766899954
 20
268.7560107350944
 30
0.0
 11
120.750766899954
 21
271.6427627350943
 31
0.0
  0
ARC
  5
126
330
1F
100
AcDbEntity
  8
9
  6
Continuous
 62
     7
370
    35
100
AcDbCircle
 10
71.95471789995395
 20
286.0812447350943
 30
0.0
 40
22.0
100
AcDbArc
 50
315.8159889999976
 51
359.1840109999989
  0
LINE
  5
127
330
1F
100
AcDbEntity
  8
9
  6
Continuous
 62
     7
370
    35
100
AcDbLine
 10
120.750766899954
 20
271.6427627350943
 30
0.0
 11
115.750766899954
 21
268.7560107350944
 31
0.0
  0
CIRCLE
  5
128
330
1F
100
AcDbEntity
  8
9
  6
Continuous
 62
     7
370
    35
100
AcDbCircle
 10
120.750766899954
 20
265.8692597350944
 30
0.0
 40
10.5
  0
ARC
  5
129
330
1F
100
AcDbEntity
  8
9
  6
Continuous
 62
     7
370
    35
100
AcDbCircle
 10
100.951776899954
 20
246.0702697350943
 30
0.0
 40
7.0
100
AcDbArc
 50
180.8159890000006
 51
269.1840110000024
  0
ARC
  5
12A
330
1F
100
AcDbEntity
  8
9
  6
Continuous
 62
     7
370
    35
100
AcDbCircle
 10
71.95471789995395
 20
245.6572747350944
 30
0.0
 40
22.0
100
AcDbArc
 50
0.8159890000005245
 51
44.18401100000202
  0
ARC
  5
12B
330
1F
100
AcDbEntity
  8
9
  6
Continuous
 62
     7
370
    35
100
AcDbCircle
 10
92.75076689995399
 20
265.8692597350944
 30
0.0
 40
7.0
100
AcDbArc
 50
135.8159889999978
 51
224.1840110000025
  0
LINE
  5
12C
330
1F
100
AcDbEntity
  8
9
  6
Continuous
 62
     7
370
    35
100
AcDbLine
 10
125.435020899954
 20
256.2087987350944
 30
0.0
 11
125.000766899954
 21
246.3260387350944
 31
0.0
  0
LINE
  5
12D
330
1F
100
AcDbEntity
  8
9
  6
Continuous
 62
     7
370
    35
100
AcDbLine
 10
116.066512899954
 20
256.2087987350944
 30
0.0
 11
116.500766899954
 21
246.3260387350944
 31
0.0
  0
ARC
  5
12E
330
1F
100
AcDbEntity
  8
9
  6
Continuous
 62
     7
370
    35
100
AcDbCircle
 10
110.9586118999539
 20
273.5506217350944
 30
0.0
 40
3.0
100
AcDbArc
 50
272.5159900000008
 51
277.8046129999997
  0
LINE
  5
12F
330
1F
100
AcDbEntity
  8
9
  6
Continuous
 62
     7
370
    35
100
AcDbLine
 10
111.090305899954
 20
270.5535137350944
 30
0.0
 11
101.2075458999541
 21
270.1192597350944
 31
0.0
  0
ARC
  5
130
330
1F
100
AcDbEntity
  8
9
  6
Continuous
 62
     7
370
    35
100
AcDbCircle
 10
110.9586118999539
 20
258.1878977350943
 30
0.0
 40
3.0
100
AcDbArc
 50
82.19538699999994
 51
87.48400999999868
  0
LINE
  5
131
330
1F
100
AcDbEntity
  8
9
  6
Continuous
 62
     7
370
    35
100
AcDbLine
 10
111.090305899954
 20
261.1850057350944
 30
0.0
 11
101.2075458999541
 21
261.6192597350944
 31
0.0
  0
ARC
  5
132
330
1F
100
AcDbEntity
  8
9
  6
Continuous
 62
     7
370
    35
100
AcDbCircle
 10
130.5429218999541
 20
273.5506217350944
 30
0.0
 40
3.0
100
AcDbArc
 50
262.1953869999995
 51
267.4840099999984
  0
ARC
  5
133
330
1F
100
AcDbEntity
  8
9
  6
Continuous
 62
     7
370
    35
100
AcDbCircle
 10
130.5429218999541
 20
258.1878977350943
 30
0.0
 40
3.0
100
AcDbArc
 50
92.51599000000132
 51
97.80461300000006
  0
ARC
  5
134
330
1F
100
AcDbEntity
  8
9
  6
Continuous
 62
     7
370
    35
100
AcDbCircle
 10
128.432128899954
 20
256.0771047350943
 30
0.0
 40
3.0
100
AcDbArc
 50
172.1953869999999
 51
177.4840100000009
  0
LINE
  5
135
330
1F
100
AcDbEntity
  8
9
  6
Continuous
 62
     7
370
    35
100
AcDbLine
 10
120.750766899954
 20
260.0957567350945
 30
0.0
 11
125.750766899954
 21
262.9825087350944
 31
0.0
  0
ARC
  5
136
330
1F
100
AcDbEntity
  8
9
  6
Continuous
 62
     7
370
    35
100
AcDbCircle
 10
113.069404899954
 20
256.0771047350943
 30
0.0
 40
3.0
100
AcDbArc
 50
2.515989999999062
 51
7.804613000000072
  0
LINE
  5
137
330
1F
100
AcDbEntity
  8
9
  6
Continuous
 62
     7
370
    35
100
AcDbLine
 10
115.750766899954
 20
262.9825087350944
 30
0.0
 11
120.750766899954
 21
260.0957567350945
 31
0.0
  0
LINE
  5
138
330
1F
100
AcDbEntity
  8
9
  6
Continuous
 62
     7
370
    35
100
AcDbLine
 10
125.750766899954
 20
262.9825087350944
 30
0.0
 11
125.750766899954
 21
268.7560107350944
 31
0.0
  0
CIRCLE
  5
139
330
1F
100
AcDbEntity
  8
9
  6
Continuous
 62
     7
370
    35
100
AcDbCircle
 10
120.750766899954
 20
265.8692597350944
 30
0.0
 40
3.0
  0
LINE
  5
13A
330
1F
100
AcDbEntity
  8
9
  6
Continuous
 62
     7
370
    35
100
AcDbLine
 10
115.750766899954
 20
268.7560107350944
 30
0.0
 11
115.750766899954
 21
262.9825087350944
 31
0.0
  0
CIRCLE
  5
13B
330
1F
100
AcDbEntity
  8
9
  6
Continuous
 62
     7
370
    35
100
AcDbCircle
 10
120.750766899954
 20
265.8692597350944
 30
0.0
 40
4.900000000000006
  0
CIRCLE
  5
13C
330
1F
100
AcDbEntity
  8
9
  6
Continuous
 62
     7
370
    35
100
AcDbCircle
 10
120.750766899954
 20
265.8692597350944
 30
0.0
 40
2.400000000000006
  0
ARC
  5
13D
330
1F
100
AcDbEntity
  8
9
  6
Continuous
 62
     7
370
    35
100
AcDbCircle
 10
100.951776899954
 20
285.6682497350944
 30
0.0
 40
7.0
100
AcDbArc
 50
90.81598899999729
 51
179.1840109999999
  0
ARC
  5
13E
330
1F
100
AcDbEntity
  8
9
  6
Continuous
 62
     7
370
    35
100
AcDbCircle
 10
128.432128899954
 20
275.6614147350945
 30
0.0
 40
3.0
100
AcDbArc
 50
182.515990000001
 51
187.8046129999997
  0
LINE
  5
13F
330
1F
100
AcDbEntity
  8
9
  6
Continuous
 62
     7
370
    35
100
AcDbLine
 10
125.435020899954
 20
275.5297207350943
 30
0.0
 11
125.000766899954
 21
285.4124807350943
 31
0.0
  0
ARC
  5
140
330
1F
100
AcDbEntity
  8
9
  6
Continuous
 62
     7
370
    35
100
AcDbCircle
 10
113.069404899954
 20
275.6614147350945
 30
0.0
 40
3.0
100
AcDbArc
 50
352.1953869999995
 51
357.4840099999984
  0
LINE
  5
141
330
1F
100
AcDbEntity
  8
9
  6
Continuous
 62
     7
370
    35
100
AcDbLine
 10
116.066512899954
 20
275.5297207350943
 30
0.0
 11
116.500766899954
 21
285.4124807350943
 31
0.0
  0
ARC
  5
142
330
1F
100
AcDbEntity
  8
9
  6
Continuous
 62
     7
370
    35
100
AcDbCircle
 10
100.5387818999541
 20
314.6653087350944
 30
0.0
 40
22.0
100
AcDbArc
 50
270.8159889999969
 51
314.1840109999995
  0
LINE
  5
143
330
1F
100
AcDbEntity
  8
9
  6
Continuous
 62
     7
370
    35
100
AcDbLine
 10
115.3184568999541
 20
298.3692597350944
 30
0.0
 11
103.2508068999541
 21
298.3692597350944
 31
0.0
  0
LINE
  5
144
330
1F
100
AcDbEntity
  8
9
  6
Continuous
 62
     7
370
    35
100
AcDbLine
 10
105.750766899954
 20
298.3692597350944
 30
0.0
 11
115.3184566930474
 21
298.3692597350944
 31
0.0
  0
LINE
  5
145
330
1F
100
AcDbEntity
  8
9
  6
Continuous
 62
     7
370
    35
100
AcDbLine
 10
103.2508068999541
 20
298.3692597350944
 30
0.0
 11
103.2508068999541
 21
292.8331097350944
 31
0.0
  0
LINE
  5
146
330
1F
100
AcDbEntity
  8
9
  6
Continuous
 62
     7
370
    35
100
AcDbLine
 10
113.502016899954
 20
296.8706847350943
 30
0.0
 11
113.502016899954
 21
298.3692597350944
 31
0.0
  0
LINE
  5
147
330
1F
100
AcDbEntity
  8
9
  6
Continuous
 62
     7
370
    35
100
AcDbLine
 10
107.2805793999532
 20
306.8392597350954
 30
0.0
 11
107.5452668999532
 21
298.3692597350955
 31
0.0
  0
LINE
  5
148
330
1F
100
AcDbEntity
  8
9
  6
Continuous
 62
     7
370
    35
100
AcDbLine
 10
127.999506899954
 20
296.8706847350943
 30
0.0
 11
127.999506899954
 21
298.3692597350944
 31
0.0
  0
ARC
  5
149
330
1F
100
AcDbEntity
  8
9
  6
Continuous
 62
     7
370
    35
100
AcDbCircle
 10
169.5468159745733
 20
286.081244920338
 30
0.0
 40
22.0
100
AcDbArc
 50
180.8159890000002
 51
224.1840110000018
  0
ARC
  5
14A
330
1F
100
AcDbEntity
  8
9
  6
Continuous
 62
     7
370
    35
100
AcDbCircle
 10
169.5468159745733
 20
245.6572749203382
 30
0.0
 40
22.0
100
AcDbArc
 50
135.8159889999978
 51
179.1840109999995
  0
ARC
  5
14B
330
1F
100
AcDbEntity
  8
9
  6
Continuous
 62
     7
370
    35
100
AcDbCircle
 10
140.549756899954
 20
246.0702697350943
 30
0.0
 40
7.0
100
AcDbArc
 50
270.8159889999969
 51
359.1840109999987
  0
ARC
  5
14C
330
1F
100
AcDbEntity
  8
9
  6
Continuous
 62
     7
370
    35
100
AcDbCircle
 10
140.549756899954
 20
285.6682497350944
 30
0.0
 40
7.0
100
AcDbArc
 50
0.8159890000000518
 51
89.18401100000273
  0
LINE
  5
14D
330
1F
100
AcDbEntity
  8
9
  6
Continuous
 62
     7
370
    35
100
AcDbLine
 10
138.2507168999541
 20
298.3692597350944
 30
0.0
 11
138.2507168999541
 21
292.8331107350944
 31
0.0
  0
LINE
  5
14E
330
1F
100
AcDbEntity
  8
9
  6
Continuous
 62
     7
370
    35
100
AcDbLine
 10
133.9562668999531
 20
298.3692597350955
 30
0.0
 11
134.2209543999531
 21
306.8392597350954
 31
0.0
  0
LINE
  5
14F
330
1F
100
AcDbEntity
  8
9
  6
Continuous
 62
     7
370
    35
100
AcDbLine
 10
139.2259755140212
 20
317.8392597350954
 30
0.0
 11
102.2755582858852
 21
317.8392597350954
 31
0.0
  0
LINE
  5
150
330
1F
100
AcDbEntity
  8
9
  6
Continuous
 62
     7
370
    35
100
AcDbLine
 10
102.7507668999531
 20
326.3092597350955
 30
0.0
 11
138.7507668999533
 21
326.3092597350955
 31
0.0
  0
LINE
  5
151
330
1F
100
AcDbEntity
  8
9
  6
Continuous
 62
     7
370
    35
100
AcDbLine
 10
138.7507668999533
 20
376.3092597350957
 30
0.0
 11
102.7507668999531
 21
376.3092597350957
 31
0.0
  0
LINE
  5
152
330
1F
100
AcDbEntity
  8
11
  6
HIDDEN
 62
     2
370
    25
100
AcDbLine
 10
107.3838342408483
 20
381.3092597350957
 30
0.0
 11
134.1073342408481
 21
381.3092597350957
 31
0.0
  0
LINE
  5
153
330
1F
100
AcDbEntity
  8
9
  6
Continuous
 62
     7
370
    35
100
AcDbLine
 10
102.7507668999531
 20
351.3092597350957
 30
0.0
 11
102.7507668999531
 21
326.3092597350955
 31
0.0
  0
LINE
  5
154
330
1F
100
AcDbEntity
  8
9
  6
Continuous
 62
     7
370
    35
100
AcDbLine
 10
107.5452668999534
 20
326.3092597350955
 30
0.0
 11
107.2805793999532
 21
317.8392597350954
 31
0.0
  0
LINE
  5
155
330
1F
100
AcDbEntity
  8
9
  6
Continuous
 62
     7
370
    35
100
AcDbLine
 10
102.7507668999531
 20
376.3092597350957
 30
0.0
 11
102.7507668999531
 21
351.3092597350957
 31
0.0
  0
LINE
  5
156
330
1F
100
AcDbEntity
  8
11
  6
HIDDEN
 62
     2
370
    25
100
AcDbLine
 10
108.8203489467305
 20
376.3092597350956
 30
0.0
 11
108.6640989467305
 21
381.3092597350957
 31
0.0
  0
LINE
  5
157
330
1F
100
AcDbEntity
  8
11
  6
HIDDEN
 62
     2
370
    25
100
AcDbLine
 10
132.8270695349659
 20
381.3092597350957
 30
0.0
 11
132.6708195349659
 21
376.3092597350956
 31
0.0
  0
LINE
  5
158
330
1F
100
AcDbEntity
  8
9
  6
Continuous
 62
     7
370
    35
100
AcDbLine
 10
147.7507668999531
 20
362.3092597350957
 30
0.0
 11
147.7507668999531
 21
340.3092597350957
 31
0.0
  0
LINE
  5
159
330
1F
100
AcDbEntity
  8
9
  6
Continuous
 62
     7
370
    35
100
AcDbLine
 10
147.7507668999531
 20
359.0193646374697
 30
0.0
 11
147.7507668999531
 21
343.0193646374697
 31
0.0
  0
LINE
  5
15A
330
1F
100
AcDbEntity
  8
9
  6
Continuous
 62
     7
370
    35
100
AcDbLine
 10
138.7507668999533
 20
326.3092597350955
 30
0.0
 11
138.7507668999534
 21
338.3092597350957
 31
0.0
  0
LINE
  5
15B
330
1F
100
AcDbEntity
  8
9
  6
Continuous
 62
     7
370
    35
100
AcDbLine
 10
134.2209543999531
 20
317.8392597350954
 30
0.0
 11
133.9562668999531
 21
326.3092597350955
 31
0.0
  0
LINE
  5
15C
330
1F
100
AcDbEntity
  8
9
  6
Continuous
 62
     7
370
    35
100
AcDbLine
 10
140.7507668999534
 20
340.3092597350957
 30
0.0
 11
147.7507668999531
 21
340.3092597350957
 31
0.0
  0
ARC
  5
15D
330
1F
100
AcDbEntity
  8
9
  6
Continuous
 62
     7
370
    35
100
AcDbCircle
 10
140.7507668999534
 20
338.3092597350957
 30
0.0
 40
2.0
100
AcDbArc
 50
89.99999999999991
 51
179.9999999999998
  0
ARC
  5
15E
330
1F
100
AcDbEntity
  8
9
  6
Continuous
 62
     7
370
    35
100
AcDbCircle
 10
143.7507668999533
 20
367.3092597350957
 30
0.0
 40
5.0
100
AcDbArc
 50
179.9999999999998
 51
269.9999999999998
  0
LINE
  5
15F
330
1F
100
AcDbEntity
  8
9
  6
Continuous
 62
     7
370
    35
100
AcDbLine
 10
143.7507668999533
 20
362.3092597350957
 30
0.0
 11
147.7507668999531
 21
362.3092597350957
 31
0.0
  0
LINE
  5
160
330
1F
100
AcDbEntity
  8
9
  6
Continuous
 62
     7
370
    35
100
AcDbLine
 10
138.7507668999533
 20
367.3092597350957
 30
0.0
 11
138.7507668999533
 21
376.3092597350957
 31
0.0
  0
LINE
  5
161
330
1F
100
AcDbEntity
  8
11
  6
HIDDEN
 62
     2
370
    25
100
AcDbLine
 10
107.1455842408482
 20
388.9332597350964
 30
0.0
 11
107.1455842408482
 21
415.5350921908508
 31
0.0
  0
LINE
  5
162
330
1F
100
AcDbEntity
  8
11
  6
HIDDEN
 62
     2
370
    25
100
AcDbLine
 10
134.3455842408482
 20
388.9332597350952
 30
0.0
 11
134.3455842408483
 21
415.5350921908511
 31
0.0
  0
MTEXT
  5
163
330
1F
100
AcDbEntity
  8
7
  6
Continuous
 62
     3
370
     9
100
AcDbMText
 10
120.853137294926
 20
222.3353381668996
 30
0.0
 40
4.0
 41
8.8040035216
 46
4.0
 71
     5
 72
     1
  1
{\fＭＳ Ｐゴシック;\W0.714286;K50}
 11
1.615544574432587E-15
 21
1.0
 31
0.0
 73
     1
 44
1.0
1001
ACAD
1000
ACAD_MTEXT_DEFINED_HEIGHT_BEGIN
1070
    46
1040
4.0
1000
ACAD_MTEXT_DEFINED_HEIGHT_END
  0
LINE
  5
164
330
1F
100
AcDbEntity
  8
9
  6
Continuous
 62
     7
370
    35
100
AcDbLine
 10
210.080766899953
 20
356.3092597350958
 30
0.0
 11
210.7355263741797
 21
356.3092597350958
 31
0.0
  0
LINE
  5
165
330
1F
100
AcDbEntity
  8
9
  6
Continuous
 62
     7
370
    35
100
AcDbLine
 10
210.080766899953
 20
346.3092597350958
 30
0.0
 11
210.7355263741797
 21
346.3092597350958
 31
0.0
  0
LINE
  5
166
330
1F
100
AcDbEntity
  8
9
  6
Continuous
 62
     7
370
    35
100
AcDbLine
 10
194.580766899953
 20
343.8006083666537
 30
0.0
 11
194.580766899953
 21
351.3092597350958
 31
0.0
  0
LINE
  5
167
330
1F
100
AcDbEntity
  8
9
  6
Continuous
 62
     7
370
    35
100
AcDbLine
 10
200.5805254122547
 20
344.5056840743
 30
0.0
 11
200.5805254122547
 21
351.3092597350958
 31
0.0
  0
ARC
  5
168
330
1F
100
AcDbEntity
  8
9
  6
Continuous
 62
     7
370
    35
100
AcDbCircle
 10
196.7190775271051
 20
351.3092592629894
 30
0.0
 40
7.348782531471301
100
AcDbArc
 50
130.3577368868314
 51
228.694015928461
  0
LINE
  5
169
330
1F
100
AcDbEntity
  8
9
  6
Continuous
 62
     7
370
    35
100
AcDbLine
 10
188.2676678922051
 20
361.231909465906
 30
0.0
 11
188.2676678922051
 21
341.8866100042853
 31
0.0
  0
LINE
  5
16A
330
1F
100
AcDbEntity
  8
9
  6
Continuous
 62
     7
370
    35
100
AcDbLine
 10
186.3793967797849
 20
361.231909465906
 30
0.0
 11
186.3793967797849
 21
341.8700325435889
 31
0.0
  0
LINE
  5
16B
330
1F
100
AcDbEntity
  8
9
  6
Continuous
 62
     7
370
    35
100
AcDbLine
 10
161.7307668999531
 20
359.3092597350958
 30
0.0
 11
161.7307668999531
 21
343.3092597350958
 31
0.0
  0
LINE
  5
16C
330
1F
100
AcDbEntity
  8
9
  6
Continuous
 62
     7
370
    35
100
AcDbLine
 10
162.2307668999531
 20
342.8092597350958
 30
0.0
 11
162.2307668999531
 21
351.3092597350958
 31
0.0
  0
LINE
  5
16D
330
1F
100
AcDbEntity
  8
9
  6
Continuous
 62
     7
370
    35
100
AcDbLine
 10
173.7307668999531
 20
351.3092597350958
 30
0.0
 11
173.7307668999531
 21
347.3092597350958
 31
0.0
  0
LINE
  5
16E
330
1F
100
AcDbEntity
  8
9
  6
Continuous
 62
     7
370
    35
100
AcDbLine
 10
210.0807668999532
 20
327.541072934391
 30
0.0
 11
210.080766899953
 21
351.3092597350958
 31
0.0
  0
LINE
  5
16F
330
1F
100
AcDbEntity
  8
8
  6
Continuous
 62
     4
370
    25
100
AcDbLine
 10
151.4507668999531
 20
358.0033847350958
 30
0.0
 11
151.4507668999531
 21
344.6151347350957
 31
0.0
  0
LINE
  5
170
330
1F
100
AcDbEntity
  8
8
  6
Continuous
 62
     4
370
    25
100
AcDbLine
 10
158.0307668999531
 20
344.6151347350957
 30
0.0
 11
158.0307668999531
 21
358.0033847350958
 31
0.0
  0
LINE
  5
171
330
1F
100
AcDbEntity
  8
9
  6
Continuous
 62
     7
370
    35
100
AcDbLine
 10
162.2307668999531
 20
342.8092597350958
 30
0.0
 11
173.4807668999531
 21
342.8092597350958
 31
0.0
  0
LINE
  5
172
330
1F
100
AcDbEntity
  8
9
  6
Continuous
 62
     7
370
    35
100
AcDbLine
 10
147.7507668999531
 20
344.7307597350957
 30
0.0
 11
154.7407668999531
 21
344.5123222350958
 31
0.0
  0
LINE
  5
173
330
1F
100
AcDbEntity
  8
8
  6
Continuous
 62
     4
370
    25
100
AcDbLine
 10
153.0182446110889
 20
344.5661510566227
 30
0.0
 11
151.4507668999531
 21
345.4711347350957
 31
0.0
  0
LINE
  5
174
330
1F
100
AcDbEntity
  8
8
  6
Continuous
 62
     4
370
    25
100
AcDbLine
 10
151.4507668999531
 20
345.4711347350957
 30
0.0
 11
147.7507668999531
 21
345.5867597350957
 31
0.0
  0
LINE
  5
175
330
1F
100
AcDbEntity
  8
9
  6
Continuous
 62
     7
370
    35
100
AcDbLine
 10
162.2307668999531
 20
342.8092597350958
 30
0.0
 11
161.7307668999531
 21
343.3092597350958
 31
0.0
  0
LINE
  5
176
330
1F
100
AcDbEntity
  8
8
  6
Continuous
 62
     4
370
    25
100
AcDbLine
 10
161.7307668999529
 20
345.5867597350957
 30
0.0
 11
158.0307668999531
 21
345.4711347350957
 31
0.0
  0
LINE
  5
177
330
1F
100
AcDbEntity
  8
8
  6
Continuous
 62
     4
370
    25
100
AcDbLine
 10
158.0307668999531
 20
345.4711347350957
 30
0.0
 11
156.4632891888173
 21
344.5661510566227
 31
0.0
  0
LINE
  5
178
330
1F
100
AcDbEntity
  8
9
  6
Continuous
 62
     7
370
    35
100
AcDbLine
 10
154.7407668999531
 20
344.5123222350958
 30
0.0
 11
161.7307668999529
 21
344.7307597350957
 31
0.0
  0
LINE
  5
179
330
1F
100
AcDbEntity
  8
9
  6
Continuous
 62
     7
370
    35
100
AcDbLine
 10
198.5931161039068
 20
343.2392239192263
 30
0.0
 11
201.4327709357997
 21
327.1347410971227
 31
0.0
  0
ARC
  5
17A
330
1F
100
AcDbEntity
  8
9
  6
Continuous
 62
     7
370
    35
100
AcDbCircle
 10
209.080766899953
 20
327.541072934391
 30
0.0
 40
1.0
100
AcDbArc
 50
272.0000000000031
 51
0.0
  0
ARC
  5
17B
330
1F
100
AcDbEntity
  8
9
  6
Continuous
 62
     7
370
    35
100
AcDbCircle
 10
202.4175786888118
 20
327.3083892747898
 30
0.0
 40
1.0
100
AcDbArc
 50
189.9999999999994
 51
272.0000000000031
  0
LINE
  5
17C
330
1F
100
AcDbEntity
  8
9
  6
Continuous
 62
     7
370
    35
100
AcDbLine
 10
202.4524781855143
 20
326.3089984477706
 30
0.0
 11
209.1156663966558
 21
326.541682107372
 31
0.0
  0
ARC
  5
17D
330
1F
100
AcDbEntity
  8
9
  6
Continuous
 62
     7
370
    35
100
AcDbCircle
 10
190.1242173960791
 20
345.6498598315313
 30
0.0
 40
4.196287087724158
100
AcDbArc
 50
243.7411822110688
 51
296.2588177889319
  0
LINE
  5
17E
330
1F
100
AcDbEntity
  8
9
  6
Continuous
 62
     7
370
    35
100
AcDbLine
 10
190.9807668999531
 20
341.3092597350958
 30
0.0
 11
191.9807668999531
 21
341.8866100042856
 31
0.0
  0
LINE
  5
17F
330
1F
100
AcDbEntity
  8
9
  6
Continuous
 62
     7
370
    35
100
AcDbLine
 10
190.9807668999531
 20
341.3092597350958
 30
0.0
 11
182.7307668999531
 21
341.3092597350958
 31
0.0
  0
LINE
  5
180
330
1F
100
AcDbEntity
  8
9
  6
Continuous
 62
     7
370
    35
100
AcDbLine
 10
188.2676678922051
 20
341.8866100042853
 30
0.0
 11
186.3793967797847
 21
341.8866100042853
 31
0.0
  0
LINE
  5
181
330
1F
100
AcDbEntity
  8
9
  6
Continuous
 62
     7
370
    35
100
AcDbLine
 10
179.0821370201215
 20
341.8866100042853
 30
0.0
 11
177.1938659077011
 21
341.8866100042853
 31
0.0
  0
LINE
  5
182
330
1F
100
AcDbEntity
  8
9
  6
Continuous
 62
     7
370
    35
100
AcDbLine
 10
174.4807668999531
 20
341.3092597350958
 30
0.0
 11
173.4807668999531
 21
341.8866100042856
 31
0.0
  0
LINE
  5
183
330
1F
100
AcDbEntity
  8
9
  6
Continuous
 62
     7
370
    35
100
AcDbLine
 10
173.4807668999531
 20
341.8866100042856
 30
0.0
 11
173.4807668999531
 21
342.809259735096
 31
0.0
  0
ARC
  5
184
330
1F
100
AcDbEntity
  8
9
  6
Continuous
 62
     7
370
    35
100
AcDbCircle
 10
175.3373164038271
 20
345.6498598315313
 30
0.0
 40
4.196287087724158
100
AcDbArc
 50
243.7411822110757
 51
296.2588177889249
  0
ARC
  5
185
330
1F
100
AcDbEntity
  8
9
  6
Continuous
 62
     7
370
    35
100
AcDbCircle
 10
178.0821370201215
 20
345.3092597350958
 30
0.0
 40
1.0
100
AcDbArc
 50
0.0
 51
89.99999999999991
  0
ARC
  5
186
330
1F
100
AcDbEntity
  8
9
  6
Continuous
 62
     7
370
    35
100
AcDbCircle
 10
174.7307668999531
 20
347.3092597350958
 30
0.0
 40
1.0
100
AcDbArc
 50
179.9999999999998
 51
269.9999999999998
  0
LINE
  5
187
330
1F
100
AcDbEntity
  8
9
  6
Continuous
 62
     7
370
    35
100
AcDbLine
 10
174.7307668999531
 20
346.3092597350958
 30
0.0
 11
178.0821370201215
 21
346.3092597350958
 31
0.0
  0
LINE
  5
188
330
1F
100
AcDbEntity
  8
9
  6
Continuous
 62
     7
370
    35
100
AcDbLine
 10
179.0821370201215
 20
345.3092597350958
 30
0.0
 11
179.0821370201215
 21
341.8700325435889
 31
0.0
  0
LINE
  5
189
330
1F
100
AcDbEntity
  8
9
  6
Continuous
 62
     7
370
    35
100
AcDbLine
 10
177.1938659077011
 20
341.8866100042853
 30
0.0
 11
177.1938659077011
 21
345.270770769496
 31
0.0
  0
ARC
  5
18A
330
1F
100
AcDbEntity
  8
9
  6
Continuous
 62
     7
370
    35
100
AcDbCircle
 10
169.8132635561469
 20
351.3092597350958
 30
0.0
 40
9.268873463974444
100
AcDbArc
 50
298.3761738439579
 51
323.7872627839051
  0
ARC
  5
18B
330
1F
100
AcDbEntity
  8
9
  6
Continuous
 62
     7
370
    35
100
AcDbCircle
 10
182.7307668999531
 20
357.0420545705115
 30
0.0
 40
15.58845726811833
100
AcDbArc
 50
256.4637972626164
 51
283.5362027373833
  0
LINE
  5
18C
330
1F
100
AcDbEntity
  8
9
  6
Continuous
 62
     7
370
    35
100
AcDbLine
 10
174.4807668999531
 20
341.3092597350958
 30
0.0
 11
182.7307668999531
 21
341.3092597350958
 31
0.0
  0
POLYLINE
  5
18D
330
1F
100
AcDbEntity
  8
9
  6
Continuous
 62
     7
370
    35
100
AcDb2dPolyline
 66
     1
 10
0.0
 20
0.0
 30
0.0
  0
VERTEX
  5
18E
330
18D
100
AcDbEntity
  8
9
  6
Continuous
 62
     7
370
    35
100
AcDbVertex
100
AcDb2dVertex
 10
210.080766899953
 20
346.8092609061414
 30
0.0
  0
VERTEX
  5
18F
330
18D
100
AcDbEntity
  8
9
  6
Continuous
 62
     7
370
    35
100
AcDbVertex
100
AcDb2dVertex
 10
210.080766899953
 20
343.8092597350958
 30
0.0
  0
SEQEND
  5
190
330
18D
100
AcDbEntity
  8
9
  6
Continuous
 62
     7
370
    35
  0
LINE
  5
191
330
1F
100
AcDbEntity
  8
9
  6
Continuous
 62
     7
370
    35
100
AcDbLine
 10
210.080766899953
 20
346.8092597350958
 30
0.0
 11
210.080766899953
 21
346.3092597350958
 31
0.0
  0
ARC
  5
192
330
1F
100
AcDbEntity
  8
9
  6
Continuous
 62
     7
370
    35
100
AcDbCircle
 10
209.080766899953
 20
346.3092597350958
 30
0.0
 40
1.0
100
AcDbArc
 50
269.9999999999998
 51
315.3757911072009
  0
ARC
  5
193
330
1F
100
AcDbEntity
  8
9
  6
Continuous
 62
     7
370
    35
100
AcDbCircle
 10
199.3931440548572
 20
344.6688223714523
 30
0.0
 40
1.198536020273423
100
AcDbArc
 50
265.8912338381623
 51
352.1769210358505
  0
LINE
  5
194
330
1F
100
AcDbEntity
  8
9
  6
Continuous
 62
     7
370
    35
100
AcDbLine
 10
200.5805254122549
 20
345.1608874680223
 30
0.0
 11
209.0807668999532
 21
345.3092597350958
 31
0.0
  0
ARC
  5
195
330
1F
100
AcDbEntity
  8
9
  6
Continuous
 62
     7
370
    35
100
AcDbCircle
 10
193.4807668999531
 20
344.3092597350958
 30
0.0
 40
1.5
100
AcDbArc
 50
89.99999999999991
 51
179.9999999999998
  0
LINE
  5
196
330
1F
100
AcDbEntity
  8
9
  6
Continuous
 62
     7
370
    35
100
AcDbLine
 10
191.9807668999533
 20
341.8866100042856
 30
0.0
 11
191.9807668999533
 21
344.3092597350958
 31
0.0
  0
LINE
  5
197
330
1F
100
AcDbEntity
  8
9
  6
Continuous
 62
     7
370
    35
100
AcDbLine
 10
193.4807668999533
 20
345.8092597350958
 30
0.0
 11
194.5807668999532
 21
345.8092597350958
 31
0.0
  0
ARC
  5
198
330
1F
100
AcDbEntity
  8
9
  6
Continuous
 62
     7
370
    35
100
AcDbCircle
 10
195.080766899953
 20
343.8006083666537
 30
0.0
 40
0.5
100
AcDbArc
 50
179.9999999999998
 51
268.9999999999979
  0
LINE
  5
199
330
1F
100
AcDbEntity
  8
9
  6
Continuous
 62
     7
370
    35
100
AcDbLine
 10
195.0720406967343
 20
343.3006845190755
 30
0.0
 11
198.5931161039068
 21
343.2392239192263
 31
0.0
  0
LINE
  5
19A
330
1F
100
AcDbEntity
  8
9
  6
Continuous
 62
     7
370
    35
100
AcDbLine
 10
162.2307668999531
 20
359.809259735096
 30
0.0
 11
173.4807668999531
 21
359.8092597350958
 31
0.0
  0
LINE
  5
19B
330
1F
100
AcDbEntity
  8
9
  6
Continuous
 62
     7
370
    35
100
AcDbLine
 10
154.7407668999531
 20
358.1061972350957
 30
0.0
 11
147.7507668999531
 21
357.8877597350956
 31
0.0
  0
LINE
  5
19C
330
1F
100
AcDbEntity
  8
8
  6
Continuous
 62
     4
370
    25
100
AcDbLine
 10
151.4507668999531
 20
357.1473847350958
 30
0.0
 11
153.0182446110889
 21
358.0523684135687
 31
0.0
  0
LINE
  5
19D
330
1F
100
AcDbEntity
  8
8
  6
Continuous
 62
     4
370
    25
100
AcDbLine
 10
147.7507668999531
 20
357.0317597350958
 30
0.0
 11
151.4507668999531
 21
357.1473847350958
 31
0.0
  0
LINE
  5
19E
330
1F
100
AcDbEntity
  8
9
  6
Continuous
 62
     7
370
    35
100
AcDbLine
 10
162.2307668999531
 20
359.809259735096
 30
0.0
 11
161.7307668999531
 21
359.3092597350958
 31
0.0
  0
LINE
  5
19F
330
1F
100
AcDbEntity
  8
9
  6
Continuous
 62
     7
370
    35
100
AcDbLine
 10
162.2307668999531
 20
359.8092597350958
 30
0.0
 11
162.2307668999531
 21
351.3092597350958
 31
0.0
  0
LINE
  5
1A0
330
1F
100
AcDbEntity
  8
8
  6
Continuous
 62
     4
370
    25
100
AcDbLine
 10
158.0307668999531
 20
357.1473847350958
 30
0.0
 11
161.7307668999529
 21
357.0317597350958
 31
0.0
  0
LINE
  5
1A1
330
1F
100
AcDbEntity
  8
8
  6
Continuous
 62
     4
370
    25
100
AcDbLine
 10
156.4632891888173
 20
358.0523684135687
 30
0.0
 11
158.0307668999531
 21
357.1473847350958
 31
0.0
  0
LINE
  5
1A2
330
1F
100
AcDbEntity
  8
9
  6
Continuous
 62
     7
370
    35
100
AcDbLine
 10
161.7307668999529
 20
357.8877597350956
 30
0.0
 11
154.7407668999531
 21
358.1061972350957
 31
0.0
  0
LINE
  5
1A3
330
1F
100
AcDbEntity
  8
9
  6
Continuous
 62
     7
370
    35
100
AcDbLine
 10
190.9807668999533
 20
365.8092597350958
 30
0.0
 11
190.9807668999531
 21
373.8092597350958
 31
0.0
  0
LINE
  5
1A4
330
1F
100
AcDbEntity
  8
9
  6
Continuous
 62
     7
370
    35
100
AcDbLine
 10
174.4807668999531
 20
365.8092597350958
 30
0.0
 11
174.4807668999531
 21
373.8092597350957
 31
0.0
  0
ARC
  5
1A5
330
1F
100
AcDbEntity
  8
9
  6
Continuous
 62
     7
370
    35
100
AcDbCircle
 10
190.1718648931496
 20
361.3224496857224
 30
0.0
 40
4.343207156153397
100
AcDbArc
 50
68.96557724462171
 51
111.0344227553769
  0
LINE
  5
1A6
330
1F
100
AcDbEntity
  8
9
  6
Continuous
 62
     7
370
    35
100
AcDbLine
 10
190.9807668999533
 20
365.8092597350958
 30
0.0
 11
191.7307668999531
 21
365.3762470332038
 31
0.0
  0
ARC
  5
1A7
330
1F
100
AcDbEntity
  8
9
  6
Continuous
 62
     7
370
    35
100
AcDbCircle
 10
190.1718648931496
 20
366.2960697844693
 30
0.0
 40
4.343207156153397
100
AcDbArc
 50
248.9655772446228
 51
291.0344227553779
  0
ARC
  5
1A8
330
1F
100
AcDbEntity
  8
9
  6
Continuous
 62
     7
370
    35
100
AcDbCircle
 10
190.1242173960791
 20
357.4686596386603
 30
0.0
 40
4.196287087724158
100
AcDbArc
 50
63.74118221109553
 51
116.2588177889017
  0
LINE
  5
1A9
330
1F
100
AcDbEntity
  8
9
  6
Continuous
 62
     7
370
    35
100
AcDbLine
 10
190.9807668999533
 20
361.8092597350958
 30
0.0
 11
191.9807668999531
 21
361.2319094659063
 31
0.0
  0
LINE
  5
1AA
330
1F
100
AcDbEntity
  8
9
  6
Continuous
 62
     7
370
    35
100
AcDbLine
 10
190.9807668999533
 20
361.8092597350958
 30
0.0
 11
191.7307668999531
 21
362.2422724369881
 31
0.0
  0
LINE
  5
1AB
330
1F
100
AcDbEntity
  8
9
  6
Continuous
 62
     7
370
    35
100
AcDbLine
 10
188.6129628863459
 20
365.3762470332038
 30
0.0
 11
188.6129628863459
 21
362.2422724369881
 31
0.0
  0
LINE
  5
1AC
330
1F
100
AcDbEntity
  8
9
  6
Continuous
 62
     7
370
    35
100
AcDbLine
 10
185.6888067915031
 20
365.3762470332038
 30
0.0
 11
185.6888067915031
 21
362.2422724369881
 31
0.0
  0
ARC
  5
1AD
330
1F
100
AcDbEntity
  8
9
  6
Continuous
 62
     7
370
    35
100
AcDbCircle
 10
182.7307668999533
 20
350.3651400342746
 30
0.0
 40
15.29978213352393
100
AcDbArc
 50
78.85230898154256
 51
89.99999999999991
  0
LINE
  5
1AE
330
1F
100
AcDbEntity
  8
9
  6
Continuous
 62
     7
370
    35
100
AcDbLine
 10
190.9807668999533
 20
365.8092597350958
 30
0.0
 11
182.7307668999533
 21
365.8092597350958
 31
0.0
  0
LINE
  5
1AF
330
1F
100
AcDbEntity
  8
9
  6
Continuous
 62
     7
370
    35
100
AcDbLine
 10
188.6129628863459
 20
365.3762470332038
 30
0.0
 11
185.6888067915031
 21
365.3762470332038
 31
0.0
  0
ARC
  5
1B0
330
1F
100
AcDbEntity
  8
9
  6
Continuous
 62
     7
370
    35
100
AcDbCircle
 10
182.7307668999531
 20
377.2533794359172
 30
0.0
 40
15.29978213352393
100
AcDbArc
 50
269.9999999999998
 51
281.1476910184566
  0
LINE
  5
1B1
330
1F
100
AcDbEntity
  8
9
  6
Continuous
 62
     7
370
    35
100
AcDbLine
 10
190.9807668999533
 20
361.8092597350958
 30
0.0
 11
182.7307668999531
 21
361.8092597350958
 31
0.0
  0
LINE
  5
1B2
330
1F
100
AcDbEntity
  8
9
  6
Continuous
 62
     7
370
    35
100
AcDbLine
 10
188.6129628863462
 20
362.2422724369881
 30
0.0
 11
185.6888067915031
 21
362.2422724369881
 31
0.0
  0
LINE
  5
1B3
330
1F
100
AcDbEntity
  8
9
  6
Continuous
 62
     7
370
    35
100
AcDbLine
 10
188.2676678922051
 20
361.231909465906
 30
0.0
 11
186.3793967797849
 21
361.231909465906
 31
0.0
  0
LINE
  5
1B4
330
1F
100
AcDbEntity
  8
9
  6
Continuous
 62
     7
370
    35
100
AcDbLine
 10
176.8485709135603
 20
365.3762470332038
 30
0.0
 11
176.8485709135603
 21
362.2422724369881
 31
0.0
  0
LINE
  5
1B5
330
1F
100
AcDbEntity
  8
9
  6
Continuous
 62
     7
370
    35
100
AcDbLine
 10
179.7727270084033
 20
365.3762470332038
 30
0.0
 11
179.7727270084033
 21
362.2422724369881
 31
0.0
  0
LINE
  5
1B6
330
1F
100
AcDbEntity
  8
9
  6
Continuous
 62
     7
370
    35
100
AcDbLine
 10
173.7307668999531
 20
365.3762470332038
 30
0.0
 11
173.7307668999531
 21
362.2422724369881
 31
0.0
  0
LINE
  5
1B7
330
1F
100
AcDbEntity
  8
9
  6
Continuous
 62
     7
370
    35
100
AcDbLine
 10
176.8485709135603
 20
365.3762470332038
 30
0.0
 11
179.7727270084033
 21
365.3762470332038
 31
0.0
  0
LINE
  5
1B8
330
1F
100
AcDbEntity
  8
9
  6
Continuous
 62
     7
370
    35
100
AcDbLine
 10
174.4807668999531
 20
365.8092597350958
 30
0.0
 11
173.7307668999531
 21
365.3762470332038
 31
0.0
  0
ARC
  5
1B9
330
1F
100
AcDbEntity
  8
9
  6
Continuous
 62
     7
370
    35
100
AcDbCircle
 10
175.2896689067566
 20
361.3224496857224
 30
0.0
 40
4.343207156153397
100
AcDbArc
 50
68.96557724462171
 51
111.0344227553769
  0
ARC
  5
1BA
330
1F
100
AcDbEntity
  8
9
  6
Continuous
 62
     7
370
    35
100
AcDbCircle
 10
178.0821370201213
 20
357.3092597350958
 30
0.0
 40
1.0
100
AcDbArc
 50
269.9999999999998
 51
0.0
  0
ARC
  5
1BB
330
1F
100
AcDbEntity
  8
9
  6
Continuous
 62
     7
370
    35
100
AcDbCircle
 10
174.7307668999531
 20
355.3092597350958
 30
0.0
 40
1.0
100
AcDbArc
 50
89.99999999999991
 51
179.9999999999998
  0
LINE
  5
1BC
330
1F
100
AcDbEntity
  8
9
  6
Continuous
 62
     7
370
    35
100
AcDbLine
 10
173.7307668999531
 20
351.3092597350958
 30
0.0
 11
173.7307668999531
 21
355.3092597350958
 31
0.0
  0
LINE
  5
1BD
330
1F
100
AcDbEntity
  8
9
  6
Continuous
 62
     7
370
    35
100
AcDbLine
 10
174.7307668999531
 20
356.3092597350958
 30
0.0
 11
178.0821370201213
 21
356.3092597350958
 31
0.0
  0
LINE
  5
1BE
330
1F
100
AcDbEntity
  8
9
  6
Continuous
 62
     7
370
    35
100
AcDbLine
 10
176.8485709135603
 20
362.2422724369881
 30
0.0
 11
179.7727270084033
 21
362.2422724369881
 31
0.0
  0
LINE
  5
1BF
330
1F
100
AcDbEntity
  8
9
  6
Continuous
 62
     7
370
    35
100
AcDbLine
 10
177.1938659077011
 20
361.231909465906
 30
0.0
 11
179.0821370201215
 21
361.231909465906
 31
0.0
  0
LINE
  5
1C0
330
1F
100
AcDbEntity
  8
9
  6
Continuous
 62
     7
370
    35
100
AcDbLine
 10
174.4807668999531
 20
361.8092597350958
 30
0.0
 11
173.7307668999531
 21
362.2422724369881
 31
0.0
  0
LINE
  5
1C1
330
1F
100
AcDbEntity
  8
9
  6
Continuous
 62
     7
370
    35
100
AcDbLine
 10
174.4807668999531
 20
361.8092597350958
 30
0.0
 11
173.4807668999533
 21
361.2319094659063
 31
0.0
  0
LINE
  5
1C2
330
1F
100
AcDbEntity
  8
9
  6
Continuous
 62
     7
370
    35
100
AcDbLine
 10
173.4807668999531
 20
361.2319094659063
 30
0.0
 11
173.4807668999531
 21
359.809259735096
 31
0.0
  0
ARC
  5
1C3
330
1F
100
AcDbEntity
  8
9
  6
Continuous
 62
     7
370
    35
100
AcDbCircle
 10
175.2896689067566
 20
366.2960697844692
 30
0.0
 40
4.343207156153397
100
AcDbArc
 50
248.9655772446228
 51
291.0344227553779
  0
ARC
  5
1C4
330
1F
100
AcDbEntity
  8
9
  6
Continuous
 62
     7
370
    35
100
AcDbCircle
 10
175.3373164038271
 20
357.4686596386603
 30
0.0
 40
4.196287087724158
100
AcDbArc
 50
63.7411822110879
 51
116.2588177889107
  0
LINE
  5
1C5
330
1F
100
AcDbEntity
  8
9
  6
Continuous
 62
     7
370
    35
100
AcDbLine
 10
179.0821370201215
 20
361.2484869266027
 30
0.0
 11
179.0821370201213
 21
357.3092597350958
 31
0.0
  0
ARC
  5
1C6
330
1F
100
AcDbEntity
  8
9
  6
Continuous
 62
     7
370
    35
100
AcDbCircle
 10
169.8132635561469
 20
351.3092597350958
 30
0.0
 40
9.268873463974444
100
AcDbArc
 50
37.02549820928049
 51
61.23504967410305
  0
LINE
  5
1C7
330
1F
100
AcDbEntity
  8
9
  6
Continuous
 62
     7
370
    35
100
AcDbLine
 10
177.1938659077011
 20
357.5560521857342
 30
0.0
 11
177.1938659077011
 21
361.231909465906
 31
0.0
  0
LINE
  5
1C8
330
1F
100
AcDbEntity
  8
9
  6
Continuous
 62
     7
370
    35
100
AcDbLine
 10
174.4807668999531
 20
365.8092597350958
 30
0.0
 11
182.7307668999531
 21
365.8092597350958
 31
0.0
  0
ARC
  5
1C9
330
1F
100
AcDbEntity
  8
9
  6
Continuous
 62
     7
370
    35
100
AcDbCircle
 10
182.7307668999531
 20
350.3651400342746
 30
0.0
 40
15.29978213352393
100
AcDbArc
 50
89.99999999999991
 51
101.1476910184566
  0
ARC
  5
1CA
330
1F
100
AcDbEntity
  8
9
  6
Continuous
 62
     7
370
    35
100
AcDbCircle
 10
182.7307668999531
 20
346.0764648996801
 30
0.0
 40
15.58845726811833
100
AcDbArc
 50
76.46379726261638
 51
103.5362027373832
  0
LINE
  5
1CB
330
1F
100
AcDbEntity
  8
9
  6
Continuous
 62
     7
370
    35
100
AcDbLine
 10
174.4807668999531
 20
361.8092597350958
 30
0.0
 11
182.7307668999531
 21
361.8092597350958
 31
0.0
  0
ARC
  5
1CC
330
1F
100
AcDbEntity
  8
9
  6
Continuous
 62
     7
370
    35
100
AcDbCircle
 10
182.7307668999531
 20
377.2533794359172
 30
0.0
 40
15.29978213352393
100
AcDbArc
 50
258.8523089815432
 51
269.9999999999998
  0
ARC
  5
1CD
330
1F
100
AcDbEntity
  8
9
  6
Continuous
 62
     7
370
    35
100
AcDbCircle
 10
209.0807668999528
 20
356.3092597350958
 30
0.0
 40
1.0
100
AcDbArc
 50
0.0
 51
89.99999999999991
  0
LINE
  5
1CE
330
1F
100
AcDbEntity
  8
9
  6
Continuous
 62
     7
370
    35
100
AcDbLine
 10
210.080766899953
 20
356.3092597350958
 30
0.0
 11
210.080766899953
 21
351.3092597350958
 31
0.0
  0
LINE
  5
1CF
330
1F
100
AcDbEntity
  8
9
  6
Continuous
 62
     7
370
    35
100
AcDbLine
 10
200.5805254122547
 20
358.8092597350958
 30
0.0
 11
200.5805254122547
 21
351.3092597350958
 31
0.0
  0
ARC
  5
1D0
330
1F
100
AcDbEntity
  8
9
  6
Continuous
 62
     7
370
    35
100
AcDbCircle
 10
200.0805254122547
 20
358.8092597350958
 30
0.0
 40
0.5
100
AcDbArc
 50
0.0
 51
89.99999999999991
  0
LINE
  5
1D1
330
1F
100
AcDbEntity
  8
9
  6
Continuous
 62
     7
370
    35
100
AcDbLine
 10
200.5805254122547
 20
357.4576320021692
 30
0.0
 11
209.080766899953
 21
357.3092597350958
 31
0.0
  0
ARC
  5
1D2
330
1F
100
AcDbEntity
  8
9
  6
Continuous
 62
     7
370
    35
100
AcDbCircle
 10
193.4807668999531
 20
358.3092597350958
 30
0.0
 40
1.5
100
AcDbArc
 50
179.9999999999998
 51
269.9999999999998
  0
LINE
  5
1D3
330
1F
100
AcDbEntity
  8
9
  6
Continuous
 62
     7
370
    35
100
AcDbLine
 10
191.7307668999531
 20
365.3762470332038
 30
0.0
 11
191.7307668999531
 21
362.2422724369881
 31
0.0
  0
LINE
  5
1D4
330
1F
100
AcDbEntity
  8
9
  6
Continuous
 62
     7
370
    35
100
AcDbLine
 10
191.9807668999533
 20
361.231909465906
 30
0.0
 11
191.9807668999533
 21
358.3092597350958
 31
0.0
  0
LINE
  5
1D5
330
1F
100
AcDbEntity
  8
9
  6
Continuous
 62
     7
370
    35
100
AcDbLine
 10
193.4520546856616
 20
356.8092597350958
 30
0.0
 11
194.5807668999532
 21
356.8092597350958
 31
0.0
  0
LINE
  5
1D6
330
1F
100
AcDbEntity
  8
9
  6
Continuous
 62
     7
370
    35
100
AcDbLine
 10
194.580766899953
 20
358.8179111035379
 30
0.0
 11
194.5807668999532
 21
351.3092597350958
 31
0.0
  0
ARC
  5
1D7
330
1F
100
AcDbEntity
  8
9
  6
Continuous
 62
     7
370
    35
100
AcDbCircle
 10
195.080766899953
 20
358.8092597350958
 30
0.0
 40
0.5
100
AcDbArc
 50
89.99999999999991
 51
179.9999999999998
  0
LINE
  5
1D8
330
1F
100
AcDbEntity
  8
9
  6
Continuous
 62
     7
370
    35
100
AcDbLine
 10
195.0807668999532
 20
359.3092597350958
 30
0.0
 11
200.0805254122549
 21
359.3092597350958
 31
0.0
  0
LINE
  5
1D9
330
1F
100
AcDbEntity
  8
9
  6
Continuous
 62
     7
370
    35
100
AcDbLine
 10
175.0206619975793
 20
373.8092597350957
 30
0.0
 11
191.0206619975793
 21
373.8092597350957
 31
0.0
  0
LINE
  5
1DA
330
1F
100
AcDbEntity
  8
9
  6
Continuous
 62
     7
370
    35
100
AcDbLine
 10
190.9807668999531
 20
373.8092597350958
 30
0.0
 11
182.7307668999531
 21
373.8092597350957
 31
0.0
  0
LINE
  5
1DB
330
1F
100
AcDbEntity
  8
9
  6
Continuous
 62
     7
370
    35
100
AcDbLine
 10
174.4807668999531
 20
373.8092597350957
 30
0.0
 11
182.7307668999531
 21
373.8092597350957
 31
0.0
  0
ARC
  5
1DC
330
1F
100
AcDbEntity
  8
9
  6
Continuous
 62
     7
370
    35
100
AcDbCircle
 10
181.580766899953
 20
351.3092597350958
 30
0.0
 40
30.0
100
AcDbArc
 50
351.2257103521515
 51
0.0
  0
ARC
  5
1DD
330
1F
100
AcDbEntity
  8
9
  6
Continuous
 62
     7
370
    35
100
AcDbCircle
 10
210.7355263741797
 20
346.8092597350958
 30
0.0
 40
0.5
100
AcDbArc
 50
269.9999999999998
 51
351.2257103521461
  0
ARC
  5
1DE
330
1F
100
AcDbEntity
  8
9
  6
Continuous
 62
     7
370
    35
100
AcDbCircle
 10
210.7355263741797
 20
355.8092597350958
 30
0.0
 40
0.5
100
AcDbArc
 50
8.774289647840614
 51
89.99999999999991
  0
ARC
  5
1DF
330
1F
100
AcDbEntity
  8
9
  6
Continuous
 62
     7
370
    35
100
AcDbCircle
 10
181.580766899953
 20
351.3092597350958
 30
0.0
 40
30.0
100
AcDbArc
 50
0.0
 51
8.774289647847997
  0
LINE
  5
1E0
330
1F
100
AcDbEntity
  8
9
  6
Continuous
 62
     7
370
    35
100
AcDbLine
 10
161.7307668999531
 20
343.3092597350958
 30
0.0
 11
161.7307668999529
 21
359.0193646374697
 31
0.0
  0
ARC
  5
1E1
330
1F
100
AcDbEntity
  8
9
  6
Continuous
 62
     7
370
    35
100
AcDbCircle
 10
182.7307668999533
 20
405.8092597350957
 30
0.0
 40
16.0
100
AcDbArc
 50
315.0000000000065
 51
224.3762250075876
  0
HATCH
  5
1E2
330
1F
100
AcDbEntity
  8
9
  6
Continuous
 62
     7
370
    35
100
AcDbHatch
 10
0.0
 20
0.0
 30
0.0
210
0.0
220
0.0
230
1.0
  2
SOLID
 70
     1
 71
     0
 91
        2
 92
        0
 93
        4
 72
     2
 10
182.7307670686785
 20
405.8092595654724
 40
15.99999976076027
 50
315.0000000022799
 51
315.358100961004
 73
     1
 72
     1
 10
194.1149651040309
 20
394.5664828872578
 11
195.5292032193652
 21
393.1522447719238
 72
     2
 10
182.7307674842273
 20
405.8092591518952
 40
17.99999917447083
 50
44.68168846420865
 51
45.00000000241041
 73
     0
 72
     1
 10
195.4586889613124
 20
393.0813376737391
 11
194.0444753989391
 21
394.4955512361122
 97
        0
 92
        0
 93
        4
 72
     2
 10
182.7307654423498
 20
405.8092612046838
 40
16.00000206983687
 50
314.6418990626157
 51
314.999999969659
 73
     1
 72
     1
 10
194.0444753989391
 20
394.4955512361122
 11
195.4586889613124
 21
393.0813376737391
 72
     2
 10
182.7307672378922
 20
405.8092593963703
 40
17.99999952153058
 50
44.99999999822413
 51
45.31831153028794
 73
     0
 72
     1
 10
195.3877818631281
 20
393.0108234156863
 11
193.9735437477934
 21
394.4250615310206
 97
        0
 75
     0
 76
     1
 98
        0
  0
LINE
  5
1E3
330
1F
100
AcDbEntity
  8
9
  6
Continuous
 62
     7
370
    35
100
AcDbLine
 10
193.9737647208208
 20
394.4248405579934
 30
0.0
 11
195.3879782831941
 21
393.0106269956206
 31
0.0
  0
LINE
  5
1E4
330
1F
100
AcDbEntity
  8
9
  6
Continuous
 62
     7
370
    35
100
AcDbLine
 10
194.1151860770578
 20
394.5662619142307
 30
0.0
 11
195.5293996394312
 21
393.1520483518578
 31
0.0
  0
HATCH
  5
1E5
330
1F
100
AcDbEntity
  8
9
  6
Continuous
 62
     7
370
    35
100
AcDbHatch
 10
0.0
 20
0.0
 30
0.0
210
0.0
220
0.0
230
1.0
  2
SOLID
 70
     1
 71
     0
 91
        2
 92
        0
 93
        4
 72
     1
 10
171.134215688493
 20
394.2127085236374
 11
171.0635050103742
 21
394.2834192017561
 72
     1
 10
171.0635050103742
 20
394.2834192017561
 11
169.9323305805415
 21
393.1522447719236
 72
     2
 10
182.7307673405917
 20
405.8092601704722
 40
18.00000061944723
 50
224.6816884755022
 51
224.9999999881504
 73
     1
 72
     1
 10
170.0028448385942
 20
393.0813376737391
 11
171.134215688493
 21
394.2127085236374
 97
        0
 92
        0
 93
        4
 72
     1
 10
171.2049263666117
 20
394.1419978455189
 11
171.134215688493
 21
394.2127085236374
 72
     1
 10
171.134215688493
 20
394.2127085236374
 11
170.0028448385942
 21
393.0813376737391
 72
     2
 10
182.7307663438696
 20
405.8092591785452
 40
17.99999921324871
 50
224.9999999989437
 51
225.3183115364597
 73
     1
 72
     1
 10
170.073751936779
 20
393.0108234156863
 11
171.2049263666117
 21
394.1419978455189
 97
        0
 75
     0
 76
     1
 98
        0
  0
LINE
  5
1E6
330
1F
100
AcDbEntity
  8
9
  6
Continuous
 62
     7
370
    35
100
AcDbLine
 10
171.2049263666117
 20
394.1419978455189
 30
0.0
 11
170.073555516713
 21
393.0106269956203
 31
0.0
  0
LINE
  5
1E7
330
1F
100
AcDbEntity
  8
9
  6
Continuous
 62
     7
370
    35
100
AcDbLine
 10
171.0635050103742
 20
394.2834192017561
 30
0.0
 11
169.9321341604755
 21
393.1520483518576
 31
0.0
  0
LINE
  5
1E8
330
1F
100
AcDbEntity
  8
9
  6
Continuous
 62
     7
370
    35
100
AcDbLine
 10
194.0444753989391
 20
394.4955512361122
 30
0.0
 11
195.4586889613124
 21
393.0813376737391
 31
0.0
  0
LINE
  5
1E9
330
1F
100
AcDbEntity
  8
9
  6
Continuous
 62
     7
370
    35
100
AcDbLine
 10
171.134215688493
 20
394.2127085236374
 30
0.0
 11
170.0028448385942
 21
393.0813376737391
 31
0.0
  0
LINE
  5
1EA
330
1F
100
AcDbEntity
  8
9
  6
Continuous
 62
     7
370
    35
100
AcDbLine
 10
188.6704638619203
 20
411.7489566970627
 30
0.0
 11
190.2826673230256
 21
411.8338095108051
 31
0.0
  0
LINE
  5
1EB
330
1F
100
AcDbEntity
  8
9
  6
Continuous
 62
     7
370
    35
100
AcDbLine
 10
188.7553166756629
 20
413.361160158168
 30
0.0
 11
188.6704638619203
 21
411.7489566970627
 31
0.0
  0
CIRCLE
  5
1EC
330
1F
100
AcDbEntity
  8
9
  6
Continuous
 62
     7
370
    35
100
AcDbCircle
 10
182.7307668999533
 20
405.8092597350957
 30
0.0
 40
0.3360000000001833
  0
CIRCLE
  5
1ED
330
1F
100
AcDbEntity
  8
9
  6
Continuous
 62
     7
370
    35
100
AcDbCircle
 10
182.7307668999533
 20
405.8092597350957
 30
0.0
 40
1.399999999999977
  0
ARC
  5
1EE
330
1F
100
AcDbEntity
  8
9
  6
Continuous
 62
     7
370
    35
100
AcDbCircle
 10
182.7307668999533
 20
405.8092597350957
 30
0.0
 40
1.600000000000023
100
AcDbArc
 50
74.5688160181958
 51
199.4842712043468
  0
LINE
  5
1EF
330
1F
100
AcDbEntity
  8
9
  6
Continuous
 62
     7
370
    35
100
AcDbLine
 10
184.273088066413
 20
406.2349890146742
 30
0.0
 11
190.2826673230256
 21
411.8338095108051
 31
0.0
  0
LINE
  5
1F0
330
1F
100
AcDbEntity
  8
9
  6
Continuous
 62
     7
370
    35
100
AcDbLine
 10
188.7553166756629
 20
413.361160158168
 30
0.0
 11
183.1564961795316
 21
407.3515809015554
 31
0.0
  0
LINE
  5
1F1
330
1F
100
AcDbEntity
  8
9
  6
Continuous
 62
     7
370
    35
100
AcDbLine
 10
189.4807668999533
 20
375.8092597350957
 30
0.0
 11
189.4807668999533
 21
377.8092597350957
 31
0.0
  0
LINE
  5
1F2
330
1F
100
AcDbEntity
  8
9
  6
Continuous
 62
     7
370
    35
100
AcDbLine
 10
175.9807668999533
 20
377.8092597350957
 30
0.0
 11
175.9807668999533
 21
375.8092597350957
 31
0.0
  0
LINE
  5
1F3
330
1F
100
AcDbEntity
  8
9
  6
Continuous
 62
     7
370
    35
100
AcDbLine
 10
175.9807668999533
 20
375.8092597350957
 30
0.0
 11
189.4807668999533
 21
375.8092597350957
 31
0.0
  0
LINE
  5
1F4
330
1F
100
AcDbEntity
  8
9
  6
Continuous
 62
     7
370
    35
100
AcDbLine
 10
175.7307668999533
 20
377.8092597350957
 30
0.0
 11
189.7307668999533
 21
377.8092597350957
 31
0.0
  0
LINE
  5
1F5
330
1F
100
AcDbEntity
  8
9
  6
Continuous
 62
     7
370
    35
100
AcDbLine
 10
175.7307668999533
 20
377.8092597350957
 30
0.0
 11
189.7307668999533
 21
377.8092597350957
 31
0.0
  0
ARC
  5
1F6
330
1F
100
AcDbEntity
  8
9
  6
Continuous
 62
     7
370
    35
100
AcDbCircle
 10
182.7307668999533
 20
393.9217597350959
 30
0.0
 40
16.11250000000007
100
AcDbArc
 50
244.2499968807766
 51
295.7500031192234
  0
LINE
  5
1F7
330
1F
100
AcDbEntity
  8
9
  6
Continuous
 62
     7
370
    35
100
AcDbLine
 10
175.7307668999533
 20
385.3749748197873
 30
0.0
 11
175.7307668999533
 21
377.8092597350957
 31
0.0
  0
LINE
  5
1F8
330
1F
100
AcDbEntity
  8
9
  6
Continuous
 62
     7
370
    35
100
AcDbLine
 10
189.7307668999533
 20
377.8092597350957
 30
0.0
 11
189.7307668999533
 21
385.3749748197873
 31
0.0
  0
LINE
  5
1F9
330
1F
100
AcDbEntity
  8
9
  6
Continuous
 62
     7
370
    35
100
AcDbLine
 10
189.400532889643
 20
373.8092597350957
 30
0.0
 11
189.4807668999533
 21
375.8092597350957
 31
0.0
  0
LINE
  5
1FA
330
1F
100
AcDbEntity
  8
9
  6
Continuous
 62
     7
370
    35
100
AcDbLine
 10
175.9807668999533
 20
375.8092597350957
 30
0.0
 11
176.0610009102636
 21
373.8092597350957
 31
0.0
  0
LINE
  5
1FB
330
1F
100
AcDbEntity
  8
9
  6
Continuous
 62
     7
370
    35
100
AcDbLine
 10
171.0210786035041
 20
394.3258456086261
 30
0.0
 11
171.2473527734837
 21
394.0995714386464
 31
0.0
  0
CIRCLE
  5
1FC
330
1F
100
AcDbEntity
  8
9
  6
Continuous
 62
     7
370
    35
100
AcDbCircle
 10
172.6474242002332
 20
394.6793989992194
 30
0.0
 40
0.5
  0
LINE
  5
1FD
330
1F
100
AcDbEntity
  8
9
  6
Continuous
 62
     7
370
    35
100
AcDbLine
 10
181.222393952773
 20
405.2755828176499
 30
0.0
 11
171.0210786035041
 21
394.3258456086261
 31
0.0
  0
LINE
  5
1FE
330
1F
100
AcDbEntity
  8
9
  6
Continuous
 62
     7
370
    35
100
AcDbLine
 10
171.2473527734837
 20
394.0995714386464
 30
0.0
 11
182.1970899825078
 21
404.3008867879154
 31
0.0
  0
CIRCLE
  5
1FF
330
1F
100
AcDbEntity
  8
9
  6
Continuous
 62
     7
370
    35
100
AcDbCircle
 10
182.7307668999533
 20
405.8092597350957
 30
0.0
 40
18.0
  0
CIRCLE
  5
200
330
1F
100
AcDbEntity
  8
9
  6
Continuous
 62
     7
370
    35
100
AcDbCircle
 10
182.7307668999533
 20
405.8092597350957
 30
0.0
 40
21.59999999999997
  0
ARC
  5
201
330
1F
100
AcDbEntity
  8
9
  6
Continuous
 62
     7
370
    35
100
AcDbCircle
 10
182.7307668999533
 20
405.8092597350957
 30
0.0
 40
1.600000000000023
100
AcDbArc
 50
250.5157287956526
 51
15.4311839817885
  0
LINE
  5
202
330
1F
100
AcDbEntity
  8
8
  6
Continuous
 62
     4
370
    25
100
AcDbLine
 10
189.4807668999533
 20
376.9953681281189
 30
0.0
 11
188.7959668999533
 21
375.8092597350957
 31
0.0
  0
LINE
  5
203
330
1F
100
AcDbEntity
  8
8
  6
Continuous
 62
     4
370
    25
100
AcDbLine
 10
175.9807668999533
 20
376.9953681281189
 30
0.0
 11
176.6655668999533
 21
375.8092597350957
 31
0.0
  0
LINE
  5
204
330
1F
100
AcDbEntity
  8
8
  6
Continuous
 62
     4
370
    25
100
AcDbLine
 10
176.6655668999533
 20
375.8092597350957
 30
0.0
 11
176.748162217679
 21
373.8092597350957
 31
0.0
  0
LINE
  5
205
330
1F
100
AcDbEntity
  8
8
  6
Continuous
 62
     4
370
    25
100
AcDbLine
 10
188.7959668999533
 20
375.8092597350957
 30
0.0
 11
188.7133715822276
 21
373.8092597350957
 31
0.0
  0
ARC
  5
206
330
1F
100
AcDbEntity
  8
9
  6
Continuous
 62
     7
370
    35
100
AcDbCircle
 10
148.7507669745733
 20
265.8692599203381
 30
0.0
 40
7.0
100
AcDbArc
 50
315.815988999998
 51
44.18401100000158
  0
ARC
  5
207
330
1F
100
AcDbEntity
  8
9
  6
Continuous
 62
     7
370
    35
100
AcDbCircle
 10
120.7507673100015
 20
293.8692599328812
 30
0.0
 40
7.0
100
AcDbArc
 50
45.81598899999974
 51
134.1840110000022
  0
ARC
  5
208
330
1F
100
AcDbEntity
  8
9
  6
Continuous
 62
     7
370
    35
100
AcDbCircle
 10
120.7507672440174
 20
297.1942594465781
 30
0.0
 40
3.67500000000004
100
AcDbArc
 50
0.0
 51
179.9999999999998
  0
ARC
  5
209
330
1F
100
AcDbEntity
  8
9
  6
Continuous
 62
     7
370
    35
100
AcDbCircle
 10
120.7507672440174
 20
265.8692594465782
 30
0.0
 40
24.5
100
AcDbArc
 50
100.3295919283574
 51
124.6704080716369
  0
LINE
  5
20A
330
1F
100
AcDbEntity
  8
9
  6
Continuous
 62
     7
370
    35
100
AcDbLine
 10
117.0757672440176
 20
297.1942594465781
 30
0.0
 11
117.0757672440176
 21
290.8329956453125
 31
0.0
  0
ARC
  5
20B
330
1F
100
AcDbEntity
  8
9
  6
Continuous
 62
     7
370
    35
100
AcDbCircle
 10
116.2007672440176
 20
290.8329956453125
 30
0.0
 40
0.875
100
AcDbArc
 50
280.3295919283631
 51
0.0
  0
ARC
  5
20C
330
1F
100
AcDbEntity
  8
9
  6
Continuous
 62
     7
370
    35
100
AcDbCircle
 10
120.7507672440174
 20
265.8692594465782
 30
0.0
 40
24.5
100
AcDbArc
 50
55.32959192836298
 51
79.67040807163595
  0
LINE
  5
20D
330
1F
100
AcDbEntity
  8
9
  6
Continuous
 62
     7
370
    35
100
AcDbLine
 10
124.4257672440177
 20
297.1942594465781
 30
0.0
 11
124.4257672440177
 21
290.8329956453125
 31
0.0
  0
ARC
  5
20E
330
1F
100
AcDbEntity
  8
9
  6
Continuous
 62
     7
370
    35
100
AcDbCircle
 10
125.3007672440177
 20
290.8329956453125
 30
0.0
 40
0.875
100
AcDbArc
 50
179.9999999999998
 51
259.6704080716362
  0
ARC
  5
20F
330
1F
100
AcDbEntity
  8
9
  6
Continuous
 62
     7
370
    35
100
AcDbCircle
 10
100.6637025106305
 20
314.3637230120622
 30
0.0
 40
26.25
100
AcDbArc
 50
276.3015531484992
 51
308.6984468514959
  0
ARC
  5
210
330
1F
100
AcDbEntity
  8
9
  6
Continuous
 62
     7
370
    35
100
AcDbCircle
 10
140.8378312892788
 20
314.3637230120622
 30
0.0
 40
26.25
100
AcDbArc
 50
231.3015531485033
 51
263.6984468515
  0
ARC
  5
211
330
1F
100
AcDbEntity
  8
9
  6
Continuous
 62
     7
370
    35
100
AcDbCircle
 10
120.7507668999531
 20
234.5442597350944
 30
0.0
 40
3.67500000000004
100
AcDbArc
 50
179.9999999999998
 51
0.0
  0
LINE
  5
212
330
1F
100
AcDbEntity
  8
9
  6
Continuous
 62
     7
370
    35
100
AcDbLine
 10
117.0757668999532
 20
234.5442597350944
 30
0.0
 11
117.0757668999532
 21
240.9055235363601
 31
0.0
  0
LINE
  5
213
330
1F
100
AcDbEntity
  8
9
  6
Continuous
 62
     7
370
    35
100
AcDbLine
 10
96.00202955842411
 20
285.4207622349024
 30
0.0
 11
100.5001223292155
 21
280.922669464111
 31
0.0
  0
ARC
  5
214
330
1F
100
AcDbEntity
  8
9
  6
Continuous
 62
     7
370
    35
100
AcDbCircle
 10
95.78703070121895
 20
270.4192597350944
 30
0.0
 40
0.875
100
AcDbArc
 50
269.9999999999998
 51
349.6704080716392
  0
ARC
  5
215
330
1F
100
AcDbEntity
  8
9
  6
Continuous
 62
     7
370
    35
100
AcDbCircle
 10
95.78703070121895
 20
261.3192597350943
 30
0.0
 40
0.875
100
AcDbArc
 50
10.32959192836777
 51
89.99999999999991
  0
ARC
  5
216
330
1F
100
AcDbEntity
  8
9
  6
Continuous
 62
     7
370
    35
100
AcDbCircle
 10
120.7507668999531
 20
265.8692597350944
 30
0.0
 40
24.5
100
AcDbArc
 50
145.3295919283632
 51
169.6704080716362
  0
LINE
  5
217
330
1F
100
AcDbEntity
  8
9
  6
Continuous
 62
     7
370
    35
100
AcDbLine
 10
96.00202955842411
 20
246.3177572352863
 30
0.0
 11
100.5001223292155
 21
250.8158500060777
 31
0.0
  0
ARC
  5
218
330
1F
100
AcDbEntity
  8
9
  6
Continuous
 62
     7
370
    35
100
AcDbCircle
 10
98.60064697928448
 20
243.7191398144257
 30
0.0
 40
3.67500000000004
100
AcDbArc
 50
135.0
 51
314.9999999999997
  0
ARC
  5
219
330
1F
100
AcDbEntity
  8
9
  6
Continuous
 62
     7
370
    35
100
AcDbCircle
 10
120.7507668999531
 20
265.8692597350944
 30
0.0
 40
24.5
100
AcDbArc
 50
190.3295919283631
 51
214.6704080716365
  0
ARC
  5
21A
330
1F
100
AcDbEntity
  8
9
  6
Continuous
 62
     7
370
    35
100
AcDbCircle
 10
72.25630362298534
 20
245.7821953457702
 30
0.0
 40
26.25
100
AcDbArc
 50
6.301553148505657
 51
38.69844685149704
  0
ARC
  5
21B
330
1F
100
AcDbEntity
  8
9
  6
Continuous
 62
     7
370
    35
100
AcDbCircle
 10
98.60064697928448
 20
288.0193796557629
 30
0.0
 40
3.67500000000004
100
AcDbArc
 50
45.0
 51
224.9999999999978
  0
LINE
  5
21C
330
1F
100
AcDbEntity
  8
9
  6
Continuous
 62
     7
370
    35
100
AcDbLine
 10
89.42576689995332
 20
262.1942597350943
 30
0.0
 11
95.78703070121895
 21
262.1942597350943
 31
0.0
  0
LINE
  5
21D
330
1F
100
AcDbEntity
  8
9
  6
Continuous
 62
     7
370
    35
100
AcDbLine
 10
89.42576689995332
 20
269.5442597350944
 30
0.0
 11
95.78703070121895
 21
269.5442597350944
 31
0.0
  0
ARC
  5
21E
330
1F
100
AcDbEntity
  8
9
  6
Continuous
 62
     7
370
    35
100
AcDbCircle
 10
89.42576689995332
 20
265.8692597350944
 30
0.0
 40
3.67500000000004
100
AcDbArc
 50
89.99999999999991
 51
269.9999999999998
  0
ARC
  5
21F
330
1F
100
AcDbEntity
  8
9
  6
Continuous
 62
     7
370
    35
100
AcDbCircle
 10
120.7507668999531
 20
265.8692597350944
 30
0.0
 40
24.5
100
AcDbArc
 50
235.3295919283627
 51
259.6704080716422
  0
ARC
  5
220
330
1F
100
AcDbEntity
  8
9
  6
Continuous
 62
     7
370
    35
100
AcDbCircle
 10
100.6637025106292
 20
217.3747964581265
 30
0.0
 40
26.25
100
AcDbArc
 50
51.30155314850362
 51
83.69844685149384
  0
LINE
  5
221
330
1F
100
AcDbEntity
  8
9
  6
Continuous
 62
     7
370
    35
100
AcDbLine
 10
101.1992644001452
 20
241.1205223935652
 30
0.0
 11
105.6973571709366
 21
245.6186151643567
 31
0.0
  0
ARC
  5
222
330
1F
100
AcDbEntity
  8
9
  6
Continuous
 62
     7
370
    35
100
AcDbCircle
 10
99.88140389567712
 20
251.434568439616
 30
0.0
 40
0.875
100
AcDbArc
 50
314.999999999997
 51
34.67040807163765
  0
ARC
  5
223
330
1F
100
AcDbEntity
  8
9
  6
Continuous
 62
     7
370
    35
100
AcDbCircle
 10
106.3160756044749
 20
244.9998967308184
 30
0.0
 40
0.875
100
AcDbArc
 50
55.3295919283706
 51
134.9999999999947
  0
ARC
  5
224
330
1F
100
AcDbEntity
  8
9
  6
Continuous
 62
     7
370
    35
100
AcDbCircle
 10
116.2007668999532
 20
240.9055235363601
 30
0.0
 40
0.875
100
AcDbArc
 50
0.0
 51
79.67040807163524
  0
ARC
  5
225
330
1F
100
AcDbEntity
  8
9
  6
Continuous
 62
     7
370
    35
100
AcDbCircle
 10
120.7507668999531
 20
265.8692597350944
 30
0.0
 40
24.5
100
AcDbArc
 50
100.3295919283574
 51
124.670408071637
  0
LINE
  5
226
330
1F
100
AcDbEntity
  8
9
  6
Continuous
 62
     7
370
    35
100
AcDbLine
 10
101.1992644001452
 20
290.6179970766235
 30
0.0
 11
105.6973571709366
 21
286.1199043058321
 31
0.0
  0
ARC
  5
227
330
1F
100
AcDbEntity
  8
9
  6
Continuous
 62
     7
370
    35
100
AcDbCircle
 10
99.88140389567712
 20
280.3039510305728
 30
0.0
 40
0.875
100
AcDbArc
 50
325.329591928362
 51
45.00000000000264
  0
ARC
  5
228
330
1F
100
AcDbEntity
  8
9
  6
Continuous
 62
     7
370
    35
100
AcDbCircle
 10
106.3160756044749
 20
286.7386227393703
 30
0.0
 40
0.875
100
AcDbArc
 50
225.0000000000023
 51
304.6704080716312
  0
LINE
  5
229
330
1F
100
AcDbEntity
  8
9
  6
Continuous
 62
     7
370
    35
100
AcDbLine
 10
124.4257668999531
 20
234.5442597350944
 30
0.0
 11
124.4257668999531
 21
240.9055235363601
 31
0.0
  0
ARC
  5
22A
330
1F
100
AcDbEntity
  8
9
  6
Continuous
 62
     7
370
    35
100
AcDbCircle
 10
145.7145030986876
 20
270.4192597350943
 30
0.0
 40
0.875
100
AcDbArc
 50
190.3295919283594
 51
269.9999999999998
  0
ARC
  5
22B
330
1F
100
AcDbEntity
  8
9
  6
Continuous
 62
     7
370
    35
100
AcDbCircle
 10
145.7145030986876
 20
261.3192597350943
 30
0.0
 40
0.875
100
AcDbArc
 50
89.99999999999991
 51
169.6704080716322
  0
ARC
  5
22C
330
1F
100
AcDbEntity
  8
9
  6
Continuous
 62
     7
370
    35
100
AcDbCircle
 10
142.9008868206217
 20
243.7191398144257
 30
0.0
 40
3.67500000000004
100
AcDbArc
 50
224.9999999999996
 51
45.0
  0
ARC
  5
22D
330
1F
100
AcDbEntity
  8
9
  6
Continuous
 62
     7
370
    35
100
AcDbCircle
 10
169.245230176921
 20
245.7821953457702
 30
0.0
 40
26.25
100
AcDbArc
 50
141.301553148503
 51
173.6984468515003
  0
ARC
  5
22E
330
1F
100
AcDbEntity
  8
9
  6
Continuous
 62
     7
370
    35
100
AcDbCircle
 10
169.245230176921
 20
285.9563241244184
 30
0.0
 40
26.25
100
AcDbArc
 50
186.3015531485054
 51
218.6984468514965
  0
ARC
  5
22F
330
1F
100
AcDbEntity
  8
9
  6
Continuous
 62
     7
370
    35
100
AcDbCircle
 10
142.9008868206217
 20
288.0193796557629
 30
0.0
 40
3.67500000000004
100
AcDbArc
 50
315.0000000000002
 51
135.0
  0
ARC
  5
230
330
1F
100
AcDbEntity
  8
9
  6
Continuous
 62
     7
370
    35
100
AcDbCircle
 10
120.7507668999531
 20
265.8692597350944
 30
0.0
 40
24.5
100
AcDbArc
 50
10.32959192836351
 51
34.67040807163684
  0
ARC
  5
231
330
1F
100
AcDbEntity
  8
9
  6
Continuous
 62
     7
370
    35
100
AcDbCircle
 10
120.7507668999531
 20
265.8692597350944
 30
0.0
 40
24.5
100
AcDbArc
 50
280.329591928357
 51
304.6704080716365
  0
ARC
  5
232
330
1F
100
AcDbEntity
  8
9
  6
Continuous
 62
     7
370
    35
100
AcDbCircle
 10
140.8378312892772
 20
217.3747964581265
 30
0.0
 40
26.25
100
AcDbArc
 50
96.30155314850629
 51
128.6984468514965
  0
ARC
  5
233
330
1F
100
AcDbEntity
  8
9
  6
Continuous
 62
     7
370
    35
100
AcDbCircle
 10
125.3007668999531
 20
240.9055235363601
 30
0.0
 40
0.875
100
AcDbArc
 50
100.3295919283684
 51
179.9999999999998
  0
ARC
  5
234
330
1F
100
AcDbEntity
  8
9
  6
Continuous
 62
     7
370
    35
100
AcDbCircle
 10
120.7507668999531
 20
265.8692597350944
 30
0.0
 40
24.5
100
AcDbArc
 50
325.3295919283628
 51
349.6704080716356
  0
LINE
  5
235
330
1F
100
AcDbEntity
  8
9
  6
Continuous
 62
     7
370
    35
100
AcDbLine
 10
140.3022693997613
 20
241.1205223935652
 30
0.0
 11
135.8041766289696
 21
245.6186151643566
 31
0.0
  0
ARC
  5
236
330
1F
100
AcDbEntity
  8
9
  6
Continuous
 62
     7
370
    35
100
AcDbCircle
 10
135.1854581954316
 20
244.9998967308184
 30
0.0
 40
0.875
100
AcDbArc
 50
45.00000000000527
 51
124.6704080716325
  0
LINE
  5
237
330
1F
100
AcDbEntity
  8
9
  6
Continuous
 62
     7
370
    35
100
AcDbLine
 10
145.4995042414824
 20
246.3177572352863
 30
0.0
 11
141.0014114706907
 21
250.8158500060777
 31
0.0
  0
ARC
  5
238
330
1F
100
AcDbEntity
  8
9
  6
Continuous
 62
     7
370
    35
100
AcDbCircle
 10
141.620129904229
 20
251.434568439616
 30
0.0
 40
0.875
100
AcDbArc
 50
145.3295919283624
 51
225.0000000000023
  0
LINE
  5
239
330
1F
100
AcDbEntity
  8
9
  6
Continuous
 62
     7
370
    35
100
AcDbLine
 10
140.3022693997613
 20
290.6179970766235
 30
0.0
 11
135.8041766289696
 21
286.1199043058319
 31
0.0
  0
ARC
  5
23A
330
1F
100
AcDbEntity
  8
9
  6
Continuous
 62
     7
370
    35
100
AcDbCircle
 10
135.1854581954316
 20
286.7386227393702
 30
0.0
 40
0.875
100
AcDbArc
 50
235.329591928365
 51
314.999999999997
  0
LINE
  5
23B
330
1F
100
AcDbEntity
  8
9
  6
Continuous
 62
     7
370
    35
100
AcDbLine
 10
145.4995042414824
 20
285.4207622349024
 30
0.0
 11
141.0014114706907
 21
280.9226694641109
 31
0.0
  0
ARC
  5
23C
330
1F
100
AcDbEntity
  8
9
  6
Continuous
 62
     7
370
    35
100
AcDbCircle
 10
141.620129904229
 20
280.3039510305728
 30
0.0
 40
0.875
100
AcDbArc
 50
134.9999999999974
 51
214.6704080716373
  0
LINE
  5
23D
330
1F
100
AcDbEntity
  8
9
  6
Continuous
 62
     7
370
    35
100
AcDbLine
 10
152.0757668999532
 20
269.5442597350943
 30
0.0
 11
145.7145030986876
 21
269.5442597350943
 31
0.0
  0
LINE
  5
23E
330
1F
100
AcDbEntity
  8
9
  6
Continuous
 62
     7
370
    35
100
AcDbLine
 10
152.0757668999532
 20
262.1942597350943
 30
0.0
 11
145.7145030986876
 21
262.1942597350943
 31
0.0
  0
ARC
  5
23F
330
1F
100
AcDbEntity
  8
9
  6
Continuous
 62
     7
370
    35
100
AcDbCircle
 10
152.0757668999532
 20
265.8692597350944
 30
0.0
 40
3.67500000000004
100
AcDbArc
 50
269.9999999999998
 51
89.99999999999991
  0
ARC
  5
240
330
1F
100
AcDbEntity
  8
9
  6
Continuous
 62
     7
370
    35
100
AcDbCircle
 10
72.2563036229867
 20
285.9563241244185
 30
0.0
 40
26.25
100
AcDbArc
 50
321.3015531485026
 51
353.6984468514941
  0
LINE
  5
241
330
1F
100
AcDbEntity
  8
9
  6
Continuous
 62
     7
370
    35
100
AcDbLine
 10
125.3392978357822
 20
277.8692586372797
 30
0.0
 11
127.6789678357823
 21
277.8692586372797
 31
0.0
  0
LINE
  5
242
330
1F
100
AcDbEntity
  8
9
  6
Continuous
 62
     7
370
    35
100
AcDbLine
 10
116.1622138357822
 20
253.8692586372797
 30
0.0
 11
113.8225618357822
 21
253.8692586372797
 31
0.0
  0
LINE
  5
243
330
1F
100
AcDbEntity
  8
9
  6
Continuous
 62
     7
370
    35
100
AcDbLine
 10
131.9301298357822
 20
261.2324806372798
 30
0.0
 11
127.6789708357823
 21
253.8692566372797
 31
0.0
  0
LINE
  5
244
330
1F
100
AcDbEntity
  8
9
  6
Continuous
 62
     7
370
    35
100
AcDbLine
 10
127.6789698357823
 20
253.8692586372797
 30
0.0
 11
125.3393178357823
 21
253.8692586372797
 31
0.0
  0
LINE
  5
245
330
1F
100
AcDbEntity
  8
9
  6
Continuous
 62
     7
370
    35
100
AcDbLine
 10
113.8225608357822
 20
253.8692566372797
 30
0.0
 11
109.5714018357822
 21
261.2324806372798
 31
0.0
  0
LINE
  5
246
330
1F
100
AcDbEntity
  8
9
  6
Continuous
 62
     7
370
    35
100
AcDbLine
 10
109.5714168357822
 20
270.5060516372797
 30
0.0
 11
113.8225688357822
 21
277.8692636372797
 31
0.0
  0
LINE
  5
247
330
1F
100
AcDbEntity
  8
9
  6
Continuous
 62
     7
370
    35
100
AcDbLine
 10
113.8225618357822
 20
277.8692586372797
 30
0.0
 11
116.1622338357822
 21
277.8692586372797
 31
0.0
  0
LINE
  5
248
330
1F
100
AcDbEntity
  8
9
  6
Continuous
 62
     7
370
    35
100
AcDbLine
 10
127.6789628357822
 20
277.8692636372797
 30
0.0
 11
131.9301148357822
 21
270.5060516372797
 31
0.0
  0
ARC
  5
249
330
1F
100
AcDbEntity
  8
9
  6
Continuous
 62
     7
370
    35
100
AcDbCircle
 10
233.8425625489219
 20
293.3692597350946
 30
0.0
 40
7.5
100
AcDbArc
 50
179.9999999999991
 51
269.9999999999998
  0
ARC
  5
24A
330
1F
100
AcDbEntity
  8
9
  6
Continuous
 62
     7
370
    35
100
AcDbCircle
 10
232.8425625489219
 20
293.3692597350946
 30
0.0
 40
6.5
100
AcDbArc
 50
115.208764999999
 51
179.999999999999
  0
ARC
  5
24B
330
1F
100
AcDbEntity
  8
9
  6
Continuous
 62
     7
370
    35
100
AcDbCircle
 10
237.3146985489219
 20
283.8692597350946
 30
0.0
 40
17.0
100
AcDbArc
 50
89.99999999999962
 51
115.2087649999997
  0
ARC
  5
24C
330
1F
100
AcDbEntity
  8
9
  6
Continuous
 62
     7
370
    35
100
AcDbCircle
 10
233.8425625489219
 20
282.8692597350946
 30
0.0
 40
3.0
100
AcDbArc
 50
70.52877899999821
 51
89.99999999999991
  0
LINE
  5
24D
330
1F
100
AcDbEntity
  8
9
  6
Continuous
 62
     7
370
    35
100
AcDbLine
 10
237.3425625489219
 20
300.8671847350946
 30
0.0
 11
240.6122875489219
 21
300.5811207350946
 31
0.0
  0
ARC
  5
24E
330
1F
100
AcDbEntity
  8
9
  6
Continuous
 62
     7
370
    35
100
AcDbCircle
 10
240.542562548922
 20
299.7841647350946
 30
0.0
 40
0.7999999999999972
100
AcDbArc
 50
0.0
 51
85.00000000000394
  0
LINE
  5
24F
330
1F
100
AcDbEntity
  8
9
  6
Continuous
 62
     7
370
    35
100
AcDbLine
 10
244.3948985489219
 20
274.9189247350946
 30
0.0
 11
241.3425625489218
 21
275.0788907350945
 31
0.0
  0
ARC
  5
250
330
1F
100
AcDbEntity
  8
9
  6
Continuous
 62
     7
370
    35
100
AcDbCircle
 10
244.3425625489218
 20
273.9202947350946
 30
0.0
 40
1.0
100
AcDbArc
 50
0.0
 51
86.99999999999457
  0
LINE
  5
251
330
1F
100
AcDbEntity
  8
9
  6
Continuous
 62
     7
370
    35
100
AcDbLine
 10
243.8425625489218
 20
274.9478717350946
 30
0.0
 11
241.3425625489218
 21
280.6808177350946
 31
0.0
  0
LINE
  5
252
330
1F
100
AcDbEntity
  8
9
  6
Continuous
 62
     7
370
    35
100
AcDbLine
 10
307.6989845489219
 20
274.5627477350945
 30
0.0
 11
313.9385975489218
 21
274.5627477350945
 31
0.0
  0
LINE
  5
253
330
1F
100
AcDbEntity
  8
9
  6
Continuous
 62
     7
370
    35
100
AcDbLine
 10
313.9385975489218
 20
265.8692597350945
 30
0.0
 11
307.6989845489219
 21
265.8692597350945
 31
0.0
  0
LINE
  5
254
330
1F
100
AcDbEntity
  8
9
  6
Continuous
 62
     7
370
    35
100
AcDbLine
 10
307.6989845489219
 20
257.1757717350945
 30
0.0
 11
313.9385975489218
 21
257.1757717350945
 31
0.0
  0
LINE
  5
255
330
1F
100
AcDbEntity
  8
9
  6
Continuous
 62
     7
370
    35
100
AcDbLine
 10
360.8425625489218
 20
242.2332297350945
 30
0.0
 11
360.8425625489218
 21
233.3692597350945
 31
0.0
  0
LINE
  5
256
330
1F
100
AcDbEntity
  8
9
  6
Continuous
 62
     7
370
    35
100
AcDbLine
 10
346.5938135489218
 20
242.2332297350945
 30
0.0
 11
346.5938135489218
 21
233.3692597350945
 31
0.0
  0
LINE
  5
257
330
1F
100
AcDbEntity
  8
9
  6
Continuous
 62
     7
370
    35
100
AcDbLine
 10
360.8425625489219
 20
298.3692597350945
 30
0.0
 11
360.8425625489218
 21
289.5052897350945
 31
0.0
  0
LINE
  5
258
330
1F
100
AcDbEntity
  8
9
  6
Continuous
 62
     7
370
    35
100
AcDbLine
 10
346.593813548922
 20
298.3692597350945
 30
0.0
 11
346.593813548922
 21
289.5052897350945
 31
0.0
  0
LINE
  5
259
330
1F
100
AcDbEntity
  8
9
  6
Continuous
 62
     7
370
    35
100
AcDbLine
 10
336.3425625489218
 20
289.5052897350945
 30
0.0
 11
371.3425625489218
 21
289.5052897350945
 31
0.0
  0
LINE
  5
25A
330
1F
100
AcDbEntity
  8
9
  6
Continuous
 62
     7
370
    35
100
AcDbLine
 10
336.3425625489218
 20
242.2332297350945
 30
0.0
 11
371.3425625489218
 21
242.2332297350945
 31
0.0
  0
LINE
  5
25B
330
1F
100
AcDbEntity
  8
9
  6
Continuous
 62
     7
370
    35
100
AcDbLine
 10
329.5523185489219
 20
247.2010117350946
 30
0.0
 11
329.5523185489219
 21
284.5375077350944
 31
0.0
  0
LINE
  5
25C
330
1F
100
AcDbEntity
  8
9
  6
Continuous
 62
     7
370
    35
100
AcDbLine
 10
314.2425625489219
 20
285.3692597350945
 30
0.0
 11
317.7425625489219
 21
285.3692597350945
 31
0.0
  0
LINE
  5
25D
330
1F
100
AcDbEntity
  8
9
  6
Continuous
 62
     7
370
    35
100
AcDbLine
 10
314.2425625489219
 20
285.3692597350945
 30
0.0
 11
313.9385975489218
 21
279.5692507350944
 31
0.0
  0
LINE
  5
25E
330
1F
100
AcDbEntity
  8
9
  6
Continuous
 62
     7
370
    35
100
AcDbLine
 10
307.7425625489219
 20
278.1692597350944
 30
0.0
 11
313.9385975489218
 21
278.1692597350944
 31
0.0
  0
LINE
  5
25F
330
1F
100
AcDbEntity
  8
9
  6
Continuous
 62
     7
370
    35
100
AcDbLine
 10
307.6989845489219
 20
277.6711627350945
 30
0.0
 11
307.6989845489219
 21
265.8692597350945
 31
0.0
  0
LINE
  5
260
330
1F
100
AcDbEntity
  8
9
  6
Continuous
 62
     7
370
    35
100
AcDbLine
 10
371.3425625489218
 20
289.5052897350945
 30
0.0
 11
371.3425625489219
 21
298.3692597350945
 31
0.0
  0
LINE
  5
261
330
1F
100
AcDbEntity
  8
9
  6
Continuous
 62
     7
370
    35
100
AcDbLine
 10
336.3425625489219
 20
298.3692597350945
 30
0.0
 11
371.3425625489219
 21
298.3692597350945
 31
0.0
  0
LINE
  5
262
330
1F
100
AcDbEntity
  8
9
  6
Continuous
 62
     7
370
    35
100
AcDbLine
 10
336.3425625489219
 20
298.3692597350945
 30
0.0
 11
336.3425625489218
 21
289.5052897350945
 31
0.0
  0
LINE
  5
263
330
1F
100
AcDbEntity
  8
9
  6
Continuous
 62
     7
370
    35
100
AcDbLine
 10
313.9385975489218
 20
252.1692687350946
 30
0.0
 11
313.9385975489218
 21
279.5692507350944
 31
0.0
  0
LINE
  5
264
330
1F
100
AcDbEntity
  8
9
  6
Continuous
 62
     7
370
    35
100
AcDbLine
 10
274.3425625489218
 20
276.3692597350946
 30
0.0
 11
274.8425625489218
 21
275.8692597350946
 31
0.0
  0
LINE
  5
265
330
1F
100
AcDbEntity
  8
9
  6
Continuous
 62
     7
370
    35
100
AcDbLine
 10
274.8425625489218
 20
275.8692597350946
 30
0.0
 11
306.6250075489219
 21
275.8692597350945
 31
0.0
  0
ARC
  5
266
330
1F
100
AcDbEntity
  8
9
  6
Continuous
 62
     7
370
    35
100
AcDbCircle
 10
306.6250075489219
 20
276.8692597350945
 30
0.0
 40
1.0
100
AcDbArc
 50
269.9999999999998
 51
354.9999999999996
  0
LINE
  5
267
330
1F
100
AcDbEntity
  8
9
  6
Continuous
 62
     7
370
    35
100
AcDbLine
 10
307.7425625489219
 20
278.1692597350944
 30
0.0
 11
307.6212025489218
 21
276.7821047350945
 31
0.0
  0
LINE
  5
268
330
1F
100
AcDbEntity
  8
9
  6
Continuous
 62
     7
370
    35
100
AcDbLine
 10
274.3425625489218
 20
276.3692597350946
 30
0.0
 11
274.3425625489218
 21
265.8692597350946
 31
0.0
  0
LINE
  5
269
330
1F
100
AcDbEntity
  8
9
  6
Continuous
 62
     7
370
    35
100
AcDbLine
 10
274.8425625489218
 20
275.8692597350946
 30
0.0
 11
267.8425625489218
 21
275.8692597350946
 31
0.0
  0
LINE
  5
26A
330
1F
100
AcDbEntity
  8
9
  6
Continuous
 62
     7
370
    35
100
AcDbLine
 10
267.8425625489218
 20
276.3692597350946
 30
0.0
 11
274.3425625489218
 21
276.3692597350946
 31
0.0
  0
LINE
  5
26B
330
1F
100
AcDbEntity
  8
9
  6
Continuous
 62
     7
370
    35
100
AcDbLine
 10
314.2425625489219
 20
246.3692597350945
 30
0.0
 11
317.7425625489219
 21
246.3692597350945
 31
0.0
  0
LINE
  5
26C
330
1F
100
AcDbEntity
  8
9
  6
Continuous
 62
     7
370
    35
100
AcDbLine
 10
314.2425625489219
 20
246.3692597350945
 30
0.0
 11
313.9385975489218
 21
252.1692687350946
 31
0.0
  0
LINE
  5
26D
330
1F
100
AcDbEntity
  8
9
  6
Continuous
 62
     7
370
    35
100
AcDbLine
 10
307.7425625489219
 20
253.5692597350946
 30
0.0
 11
307.6212025489218
 21
254.9564147350946
 31
0.0
  0
LINE
  5
26E
330
1F
100
AcDbEntity
  8
9
  6
Continuous
 62
     7
370
    35
100
AcDbLine
 10
307.7425625489219
 20
253.5692597350946
 30
0.0
 11
313.9385975489218
 21
253.5692597350946
 31
0.0
  0
ARC
  5
26F
330
1F
100
AcDbEntity
  8
9
  6
Continuous
 62
     7
370
    35
100
AcDbCircle
 10
306.6250075489219
 20
254.8692597350945
 30
0.0
 40
1.0
100
AcDbArc
 50
5.000000000000028
 51
89.99999999999991
  0
LINE
  5
270
330
1F
100
AcDbEntity
  8
9
  6
Continuous
 62
     7
370
    35
100
AcDbLine
 10
307.6989845489219
 20
254.0673567350945
 30
0.0
 11
307.6989845489219
 21
265.8692597350945
 31
0.0
  0
LINE
  5
271
330
1F
100
AcDbEntity
  8
9
  6
Continuous
 62
     7
370
    35
100
AcDbLine
 10
274.8425625489218
 20
255.8692597350946
 30
0.0
 11
306.6250075489219
 21
255.8692597350945
 31
0.0
  0
LINE
  5
272
330
1F
100
AcDbEntity
  8
9
  6
Continuous
 62
     7
370
    35
100
AcDbLine
 10
274.3425625489218
 20
255.3692597350946
 30
0.0
 11
274.8425625489218
 21
255.8692597350946
 31
0.0
  0
LINE
  5
273
330
1F
100
AcDbEntity
  8
9
  6
Continuous
 62
     7
370
    35
100
AcDbLine
 10
274.3425625489218
 20
255.3692597350946
 30
0.0
 11
274.3425625489218
 21
265.8692597350946
 31
0.0
  0
LINE
  5
274
330
1F
100
AcDbEntity
  8
9
  6
Continuous
 62
     7
370
    35
100
AcDbLine
 10
274.8425625489218
 20
255.8692597350946
 30
0.0
 11
267.8425625489218
 21
255.8692597350946
 31
0.0
  0
LINE
  5
275
330
1F
100
AcDbEntity
  8
9
  6
Continuous
 62
     7
370
    35
100
AcDbLine
 10
267.8425625489218
 20
255.3692597350946
 30
0.0
 11
274.3425625489218
 21
255.3692597350946
 31
0.0
  0
ARC
  5
276
330
1F
100
AcDbEntity
  8
9
  6
Continuous
 62
     7
370
    35
100
AcDbCircle
 10
305.1960055489218
 20
215.2844517350946
 30
0.0
 40
75.781387
100
AcDbArc
 50
58.82146199999993
 51
65.7320289999999
  0
LINE
  5
277
330
1F
100
AcDbEntity
  8
9
  6
Continuous
 62
     7
370
    35
100
AcDbLine
 10
318.2425625489219
 20
285.8692597350945
 30
0.0
 11
317.7425625489219
 21
285.3692597350945
 31
0.0
  0
LINE
  5
278
330
1F
100
AcDbEntity
  8
9
  6
Continuous
 62
     7
370
    35
100
AcDbLine
 10
318.2425625489219
 20
285.8692597350945
 30
0.0
 11
326.7425625489219
 21
285.8692597350945
 31
0.0
  0
ARC
  5
279
330
1F
100
AcDbEntity
  8
9
  6
Continuous
 62
     7
370
    35
100
AcDbCircle
 10
326.7425625489219
 20
282.8692597350945
 30
0.0
 40
3.0
100
AcDbArc
 50
53.13010200000068
 51
89.99999999999991
  0
LINE
  5
27A
330
1F
100
AcDbEntity
  8
9
  6
Continuous
 62
     7
370
    35
100
AcDbLine
 10
328.5425625489219
 20
285.2692597350945
 30
0.0
 11
329.3425625489218
 21
284.6692597350944
 31
0.0
  0
LINE
  5
27B
330
1F
100
AcDbEntity
  8
9
  6
Continuous
 62
     7
370
    35
100
AcDbLine
 10
330.2425625489219
 20
284.3692597350945
 30
0.0
 11
335.4820235489218
 21
284.3692597350945
 31
0.0
  0
ARC
  5
27C
330
1F
100
AcDbEntity
  8
9
  6
Continuous
 62
     7
370
    35
100
AcDbCircle
 10
330.2425625489219
 20
285.8692597350945
 30
0.0
 40
1.5
100
AcDbArc
 50
233.1301019999973
 51
269.9999999999998
  0
ARC
  5
27D
330
1F
100
AcDbEntity
  8
9
  6
Continuous
 62
     7
370
    35
100
AcDbCircle
 10
335.4820235489218
 20
286.3692597350945
 30
0.0
 40
2.0
100
AcDbArc
 50
269.9999999999998
 51
342.5862329999994
  0
ARC
  5
27E
330
1F
100
AcDbEntity
  8
9
  6
Continuous
 62
     7
370
    35
100
AcDbCircle
 10
400.8425625489218
 20
265.8692597350944
 30
0.0
 40
66.5
100
AcDbArc
 50
161.5473379999999
 51
162.5862329999999
  0
ARC
  5
27F
330
1F
100
AcDbEntity
  8
9
  6
Continuous
 62
     7
370
    35
100
AcDbCircle
 10
335.864456548922
 20
287.5509507350945
 30
0.0
 40
2.0
100
AcDbArc
 50
341.5473379999989
 51
70.0000120000015
  0
LINE
  5
280
330
1F
100
AcDbEntity
  8
9
  6
Continuous
 62
     7
370
    35
100
AcDbLine
 10
336.3425625489218
 20
289.5052897350945
 30
0.0
 11
336.5484965489219
 21
289.4303357350944
 31
0.0
  0
ARC
  5
281
330
1F
100
AcDbEntity
  8
9
  6
Continuous
 62
     7
370
    35
100
AcDbCircle
 10
371.8206685489218
 20
287.5509507350945
 30
0.0
 40
2.0
100
AcDbArc
 50
109.9999879999985
 51
198.4526619999983
  0
LINE
  5
282
330
1F
100
AcDbEntity
  8
9
  6
Continuous
 62
     7
370
    35
100
AcDbLine
 10
371.3425625489218
 20
289.5052897350945
 30
0.0
 11
371.136628548922
 21
289.4303357350944
 31
0.0
  0
ARC
  5
283
330
1F
100
AcDbEntity
  8
9
  6
Continuous
 62
     7
370
    35
100
AcDbCircle
 10
306.8425625489218
 20
265.8692597350945
 30
0.0
 40
66.5
100
AcDbArc
 50
0.0
 51
18.45266199999994
  0
LINE
  5
284
330
1F
100
AcDbEntity
  8
9
  6
Continuous
 62
     7
370
    35
100
AcDbLine
 10
317.7425625489219
 20
265.8692597350945
 30
0.0
 11
317.7425625489219
 21
285.3692597350945
 31
0.0
  0
ARC
  5
285
330
1F
100
AcDbEntity
  8
9
  6
Continuous
 62
     7
370
    35
100
AcDbCircle
 10
306.8425625489218
 20
265.8692597350945
 30
0.0
 40
66.5
100
AcDbArc
 50
341.5473379999996
 51
0.0
  0
LINE
  5
286
330
1F
100
AcDbEntity
  8
9
  6
Continuous
 62
     7
370
    35
100
AcDbLine
 10
371.3425625489218
 20
242.2332297350945
 30
0.0
 11
371.1366285489219
 21
242.3081837350945
 31
0.0
  0
ARC
  5
287
330
1F
100
AcDbEntity
  8
9
  6
Continuous
 62
     7
370
    35
100
AcDbCircle
 10
371.8206685489218
 20
244.1875687350945
 30
0.0
 40
2.0
100
AcDbArc
 50
161.5473380000014
 51
250.0000120000011
  0
LINE
  5
288
330
1F
100
AcDbEntity
  8
9
  6
Continuous
 62
     7
370
    35
100
AcDbLine
 10
371.3425625489218
 20
242.2332297350945
 30
0.0
 11
371.3425625489218
 21
233.3692597350945
 31
0.0
  0
LINE
  5
289
330
1F
100
AcDbEntity
  8
9
  6
Continuous
 62
     7
370
    35
100
AcDbLine
 10
336.3425625489218
 20
233.3692597350945
 30
0.0
 11
371.3425625489218
 21
233.3692597350945
 31
0.0
  0
LINE
  5
28A
330
1F
100
AcDbEntity
  8
9
  6
Continuous
 62
     7
370
    35
100
AcDbLine
 10
336.3425625489218
 20
242.2332297350945
 30
0.0
 11
336.5484965489219
 21
242.3081837350946
 31
0.0
  0
LINE
  5
28B
330
1F
100
AcDbEntity
  8
9
  6
Continuous
 62
     7
370
    35
100
AcDbLine
 10
336.3425625489218
 20
233.3692597350945
 30
0.0
 11
336.3425625489218
 21
242.2332297350945
 31
0.0
  0
ARC
  5
28C
330
1F
100
AcDbEntity
  8
9
  6
Continuous
 62
     7
370
    35
100
AcDbCircle
 10
335.8644565489219
 20
244.1875687350945
 30
0.0
 40
2.0
100
AcDbArc
 50
289.9999879999982
 51
18.45266199999968
  0
ARC
  5
28D
330
1F
100
AcDbEntity
  8
9
  6
Continuous
 62
     7
370
    35
100
AcDbCircle
 10
400.8425625489218
 20
265.8692597350944
 30
0.0
 40
66.5
100
AcDbArc
 50
197.4137669999995
 51
198.4526619999996
  0
ARC
  5
28E
330
1F
100
AcDbEntity
  8
9
  6
Continuous
 62
     7
370
    35
100
AcDbCircle
 10
335.4820235489218
 20
245.3692597350945
 30
0.0
 40
2.0
100
AcDbArc
 50
17.41376700000029
 51
89.99999999999991
  0
ARC
  5
28F
330
1F
100
AcDbEntity
  8
9
  6
Continuous
 62
     7
370
    35
100
AcDbCircle
 10
330.2425625489219
 20
245.8692597350945
 30
0.0
 40
1.5
100
AcDbArc
 50
89.99999999999991
 51
126.8698980000024
  0
LINE
  5
290
330
1F
100
AcDbEntity
  8
9
  6
Continuous
 62
     7
370
    35
100
AcDbLine
 10
330.2425625489219
 20
247.3692597350945
 30
0.0
 11
335.4820235489218
 21
247.3692597350945
 31
0.0
  0
LINE
  5
291
330
1F
100
AcDbEntity
  8
9
  6
Continuous
 62
     7
370
    35
100
AcDbLine
 10
328.5425625489219
 20
246.4692597350945
 30
0.0
 11
329.3425625489218
 21
247.0692597350946
 31
0.0
  0
ARC
  5
292
330
1F
100
AcDbEntity
  8
9
  6
Continuous
 62
     7
370
    35
100
AcDbCircle
 10
326.7425625489219
 20
248.8692597350945
 30
0.0
 40
3.0
100
AcDbArc
 50
269.9999999999998
 51
306.869897999999
  0
LINE
  5
293
330
1F
100
AcDbEntity
  8
9
  6
Continuous
 62
     7
370
    35
100
AcDbLine
 10
317.7425625489219
 20
245.8692597350945
 30
0.0
 11
326.7425625489219
 21
245.8692597350945
 31
0.0
  0
LINE
  5
294
330
1F
100
AcDbEntity
  8
9
  6
Continuous
 62
     7
370
    35
100
AcDbLine
 10
317.7425625489219
 20
265.8692597350945
 30
0.0
 11
317.7425625489219
 21
245.8692597350945
 31
0.0
  0
ARC
  5
295
330
1F
100
AcDbEntity
  8
9
  6
Continuous
 62
     7
370
    35
100
AcDbCircle
 10
305.196005548922
 20
316.4540677350944
 30
0.0
 40
75.78138700000001
100
AcDbArc
 50
294.2679709999995
 51
301.1785379999995
  0
LINE
  5
296
330
1F
100
AcDbEntity
  8
9
  6
Continuous
 62
     7
370
    35
100
AcDbLine
 10
245.3425625489218
 20
270.8692597350946
 30
0.0
 11
254.3425625489218
 21
270.8692597350946
 31
0.0
  0
LINE
  5
297
330
1F
100
AcDbEntity
  8
9
  6
Continuous
 62
     7
370
    35
100
AcDbLine
 10
254.3425625489218
 20
252.7692537350946
 30
0.0
 11
267.8425625489218
 21
252.7692537350946
 31
0.0
  0
LINE
  5
298
330
1F
100
AcDbEntity
  8
9
  6
Continuous
 62
     7
370
    35
100
AcDbLine
 10
254.3425625489218
 20
278.9692657350946
 30
0.0
 11
267.8425625489218
 21
278.9692657350946
 31
0.0
  0
LINE
  5
299
330
1F
100
AcDbEntity
  8
9
  6
Continuous
 62
     7
370
    35
100
AcDbLine
 10
267.8425625489218
 20
278.9692657350946
 30
0.0
 11
267.8425625489218
 21
252.7692537350946
 31
0.0
  0
LINE
  5
29A
330
1F
100
AcDbEntity
  8
9
  6
Continuous
 62
     7
370
    35
100
AcDbLine
 10
254.3425625489218
 20
278.9692657350946
 30
0.0
 11
254.3425625489218
 21
252.7692537350946
 31
0.0
  0
LINE
  5
29B
330
1F
100
AcDbEntity
  8
9
  6
Continuous
 62
     7
370
    35
100
AcDbLine
 10
254.3425625489218
 20
272.7974637350947
 30
0.0
 11
267.8425625489218
 21
272.7974637350947
 31
0.0
  0
LINE
  5
29C
330
1F
100
AcDbEntity
  8
9
  6
Continuous
 62
     7
370
    35
100
AcDbLine
 10
254.3425625489218
 20
258.9410547350946
 30
0.0
 11
267.8425625489218
 21
258.9410547350946
 31
0.0
  0
LINE
  5
29D
330
1F
100
AcDbEntity
  8
9
  6
Continuous
 62
     7
370
    35
100
AcDbLine
 10
234.8425625489219
 20
265.8692597350947
 30
0.0
 11
234.8425625489219
 21
285.6976867350946
 31
0.0
  0
LINE
  5
29E
330
1F
100
AcDbEntity
  8
9
  6
Continuous
 62
     7
370
    35
100
AcDbLine
 10
241.3425625489219
 20
265.8692597350946
 30
0.0
 11
241.3425625489219
 21
299.7841647350946
 31
0.0
  0
LINE
  5
29F
330
1F
100
AcDbEntity
  8
9
  6
Continuous
 62
     7
370
    35
100
AcDbLine
 10
245.3425625489218
 20
265.8692597350946
 30
0.0
 11
245.3425625489218
 21
273.9202947350946
 31
0.0
  0
ARC
  5
2A0
330
1F
100
AcDbEntity
  8
2
  6
HIDDEN
 62
     2
370
    25
100
AcDbCircle
 10
208.3425625489218
 20
238.3692597350947
 30
0.0
 40
6.5
100
AcDbArc
 50
179.9999999999998
 51
244.7912350000002
  0
ARC
  5
2A1
330
1F
100
AcDbEntity
  8
2
  6
HIDDEN
 62
     2
370
    25
100
AcDbCircle
 10
212.8146985489219
 20
247.8692597350947
 30
0.0
 40
17.0
100
AcDbArc
 50
244.7912349999994
 51
269.9999999999998
  0
ARC
  5
2A2
330
1F
100
AcDbEntity
  8
9
  6
Continuous
 62
     7
370
    35
100
AcDbCircle
 10
209.3425625489217
 20
238.3692597350947
 30
0.0
 40
7.5
100
AcDbArc
 50
89.99999999999991
 51
179.9999999999998
  0
ARC
  5
2A3
330
1F
100
AcDbEntity
  8
9
  6
Continuous
 62
     7
370
    35
100
AcDbCircle
 10
208.3425625489217
 20
238.3692597350947
 30
0.0
 40
6.5
100
AcDbArc
 50
179.9999999999998
 51
244.7912350000004
  0
ARC
  5
2A4
330
1F
100
AcDbEntity
  8
9
  6
Continuous
 62
     7
370
    35
100
AcDbCircle
 10
212.8146985489218
 20
247.8692597350946
 30
0.0
 40
17.0
100
AcDbArc
 50
244.7912349999994
 51
269.9999999999998
  0
ARC
  5
2A5
330
1F
100
AcDbEntity
  8
9
  6
Continuous
 62
     7
370
    35
100
AcDbCircle
 10
209.3425625489217
 20
248.8692597350946
 30
0.0
 40
3.0
100
AcDbArc
 50
269.9999999999998
 51
289.4712210000014
  0
LINE
  5
2A6
330
1F
100
AcDbEntity
  8
9
  6
Continuous
 62
     7
370
    35
100
AcDbLine
 10
212.8425625489217
 20
230.8713347350946
 30
0.0
 11
216.1122875489217
 21
231.1573987350946
 31
0.0
  0
ARC
  5
2A7
330
1F
100
AcDbEntity
  8
9
  6
Continuous
 62
     7
370
    35
100
AcDbCircle
 10
216.0425625489218
 20
231.9543547350947
 30
0.0
 40
0.7999999999999972
100
AcDbArc
 50
274.9999999999957
 51
0.0
  0
LINE
  5
2A8
330
1F
100
AcDbEntity
  8
9
  6
Continuous
 62
     7
370
    35
100
AcDbLine
 10
219.8948985489218
 20
256.8195947350946
 30
0.0
 11
216.8425625489217
 21
256.6596287350947
 31
0.0
  0
ARC
  5
2A9
330
1F
100
AcDbEntity
  8
9
  6
Continuous
 62
     7
370
    35
100
AcDbCircle
 10
219.8425625489217
 20
257.8182247350946
 30
0.0
 40
1.0
100
AcDbArc
 50
273.0000000000051
 51
0.0
  0
LINE
  5
2AA
330
1F
100
AcDbEntity
  8
9
  6
Continuous
 62
     7
370
    35
100
AcDbLine
 10
219.3425625489217
 20
256.7906477350946
 30
0.0
 11
216.8425625489217
 21
251.0577017350946
 31
0.0
  0
LINE
  5
2AB
330
1F
100
AcDbEntity
  8
9
  6
Continuous
 62
     7
370
    35
100
AcDbLine
 10
220.8425625489217
 20
260.8692597350946
 30
0.0
 11
254.3425625489218
 21
260.8692597350945
 31
0.0
  0
LINE
  5
2AC
330
1F
100
AcDbEntity
  8
9
  6
Continuous
 62
     7
370
    35
100
AcDbLine
 10
220.8425625489217
 20
257.8182247350946
 30
0.0
 11
220.8425625489217
 21
265.8692597350947
 31
0.0
  0
LINE
  5
2AD
330
1F
100
AcDbEntity
  8
9
  6
Continuous
 62
     7
370
    35
100
AcDbLine
 10
216.8425625489217
 20
231.9543547350947
 30
0.0
 11
216.8425625489218
 21
265.8692597350947
 31
0.0
  0
LINE
  5
2AE
330
1F
100
AcDbEntity
  8
9
  6
Continuous
 62
     7
370
    35
100
AcDbLine
 10
210.3425625489217
 20
246.0408327350946
 30
0.0
 11
210.3425625489218
 21
265.8692597350947
 31
0.0
  0
ARC
  5
2AF
330
1F
100
AcDbEntity
  8
9
  6
Continuous
 62
     7
370
    35
100
AcDbCircle
 10
360.842562548921
 20
233.6308305523968
 30
0.0
 40
16.2615708173031
100
AcDbArc
 50
244.5030709240423
 51
295.496929075957
  0
LINE
  5
2B0
330
1F
100
AcDbEntity
  8
8
  6
Continuous
 62
     4
370
    25
100
AcDbLine
 10
340.4792500489212
 20
215.4692597350937
 30
0.0
 11
367.2058750489206
 21
215.4692597350937
 31
0.0
  0
LINE
  5
2B1
330
1F
100
AcDbEntity
  8
8
  6
Continuous
 62
     4
370
    25
100
AcDbLine
 10
341.6412500489206
 20
215.4692597350937
 30
0.0
 11
340.4407027346207
 21
216.702773792697
 31
0.0
  0
LINE
  5
2B2
330
1F
100
AcDbEntity
  8
8
  6
Continuous
 62
     4
370
    25
100
AcDbLine
 10
366.0438750489212
 20
215.4692597350937
 30
0.0
 11
367.2444223632211
 21
216.702773792697
 31
0.0
  0
ARC
  5
2B3
330
1F
100
AcDbEntity
  8
9
  6
Continuous
 62
     7
370
    35
100
AcDbCircle
 10
360.842562548921
 20
211.1076889177907
 30
0.0
 40
16.2615708173031
100
AcDbArc
 50
64.50307092404266
 51
115.4969290759574
  0
LINE
  5
2B4
330
1F
100
AcDbEntity
  8
8
  6
Continuous
 62
     4
370
    25
100
AcDbLine
 10
367.2058750489206
 20
229.2692597350938
 30
0.0
 11
340.4792500489212
 21
229.2692597350936
 31
0.0
  0
LINE
  5
2B5
330
1F
100
AcDbEntity
  8
8
  6
Continuous
 62
     4
370
    25
100
AcDbLine
 10
341.6412500489206
 20
229.2692597350938
 30
0.0
 11
340.4407027346207
 21
228.0357456774905
 31
0.0
  0
LINE
  5
2B6
330
1F
100
AcDbEntity
  8
9
  6
Continuous
 62
     7
370
    35
100
AcDbLine
 10
340.6073750489205
 20
233.3692597350937
 30
0.0
 11
340.4198750489205
 21
227.3692597350937
 31
0.0
  0
LINE
  5
2B7
330
1F
100
AcDbEntity
  8
8
  6
Continuous
 62
     4
370
    25
100
AcDbLine
 10
341.7693750489208
 20
233.3692597350937
 30
0.0
 11
341.6412500489206
 21
229.2692597350938
 31
0.0
  0
LINE
  5
2B8
330
1F
100
AcDbEntity
  8
9
  6
Continuous
 62
     7
370
    35
100
AcDbLine
 10
367.2652500489204
 20
227.3692597350937
 30
0.0
 11
367.0777500489204
 21
233.3692597350937
 31
0.0
  0
LINE
  5
2B9
330
1F
100
AcDbEntity
  8
8
  6
Continuous
 62
     4
370
    25
100
AcDbLine
 10
365.915750048921
 20
233.3692597350937
 30
0.0
 11
366.0438750489212
 21
229.2692597350938
 31
0.0
  0
LINE
  5
2BA
330
1F
100
AcDbEntity
  8
8
  6
Continuous
 62
     4
370
    25
100
AcDbLine
 10
366.0438750489212
 20
229.2692597350938
 30
0.0
 11
367.2444223632211
 21
228.0357456774905
 31
0.0
  0
LINE
  5
2BB
330
1F
100
AcDbEntity
  8
9
  6
Continuous
 62
     7
370
    35
100
AcDbLine
 10
353.842562548921
 20
306.839259735095
 30
0.0
 11
353.842562548921
 21
317.839259735095
 31
0.0
  0
LINE
  5
2BC
330
1F
100
AcDbEntity
  8
8
  6
Continuous
 62
     4
370
    25
100
AcDbLine
 10
340.4808125489212
 20
303.3692597350949
 30
0.0
 11
367.2043125489211
 21
303.3692597350949
 31
0.0
  0
LINE
  5
2BD
330
1F
100
AcDbEntity
  8
8
  6
Continuous
 62
     4
370
    25
100
AcDbLine
 10
341.7610772548032
 20
303.3692597350949
 30
0.0
 11
340.4075507793962
 21
305.7136363598898
 31
0.0
  0
LINE
  5
2BE
330
1F
100
AcDbEntity
  8
9
  6
Continuous
 62
     7
370
    35
100
AcDbLine
 10
340.3723750489212
 20
306.839259735095
 30
0.0
 11
340.6370625489212
 21
298.3692597350951
 31
0.0
  0
LINE
  5
2BF
330
1F
100
AcDbEntity
  8
8
  6
Continuous
 62
     4
370
    25
100
AcDbLine
 10
341.9173272548035
 20
298.3692597350951
 30
0.0
 11
341.7610772548032
 21
303.3692597350949
 31
0.0
  0
LINE
  5
2C0
330
1F
100
AcDbEntity
  8
9
  6
Continuous
 62
     7
370
    35
100
AcDbLine
 10
367.0480625489211
 20
298.3692597350951
 30
0.0
 11
367.3127500489211
 21
306.839259735095
 31
0.0
  0
LINE
  5
2C1
330
1F
100
AcDbEntity
  8
8
  6
Continuous
 62
     4
370
    25
100
AcDbLine
 10
365.9240478430388
 20
303.3692597350949
 30
0.0
 11
365.767797843039
 21
298.3692597350951
 31
0.0
  0
LINE
  5
2C2
330
1F
100
AcDbEntity
  8
8
  6
Continuous
 62
     4
370
    25
100
AcDbLine
 10
367.2775743184459
 20
305.7136363598898
 30
0.0
 11
365.9240478430388
 21
303.3692597350949
 31
0.0
  0
LINE
  5
2C3
330
1F
100
AcDbEntity
  8
9
  6
Continuous
 62
     7
370
    35
100
AcDbLine
 10
353.842562548921
 20
347.8092597350953
 30
0.0
 11
352.342562548921
 21
349.3092597350953
 31
0.0
  0
LINE
  5
2C4
330
1F
100
AcDbEntity
  8
9
  6
Continuous
 62
     7
370
    35
100
AcDbLine
 10
353.842562548921
 20
347.8092597350953
 30
0.0
 11
355.342562548921
 21
349.3092597350953
 31
0.0
  0
ARC
  5
2C5
330
1F
100
AcDbEntity
  8
9
  6
Continuous
 62
     7
370
    35
100
AcDbCircle
 10
353.842562548921
 20
351.3092597350955
 30
0.0
 40
6.0
100
AcDbArc
 50
324.2495596439045
 51
215.7504403560947
  0
CIRCLE
  5
2C6
330
1F
100
AcDbEntity
  8
9
  6
Continuous
 62
     7
370
    35
100
AcDbCircle
 10
353.842562548921
 20
351.3092597350955
 30
0.0
 40
5.0
  0
ARC
  5
2C7
330
1F
100
AcDbEntity
  8
9
  6
Continuous
 62
     7
370
    35
100
AcDbCircle
 10
353.842562548921
 20
351.3092597350955
 30
0.0
 40
8.0
100
AcDbArc
 50
299.1895169091063
 51
240.8104830908929
  0
LINE
  5
2C8
330
1F
100
AcDbEntity
  8
9
  6
Continuous
 62
     7
370
    35
100
AcDbLine
 10
345.3425625489208
 20
361.6649221677978
 30
0.0
 11
345.342562548921
 21
341.4535973023935
 31
0.0
  0
LINE
  5
2C9
330
1F
100
AcDbEntity
  8
9
  6
Continuous
 62
     7
370
    35
100
AcDbLine
 10
362.342562548921
 20
361.6649221677978
 30
0.0
 11
362.342562548921
 21
341.4535973023928
 31
0.0
  0
LINE
  5
2CA
330
1F
100
AcDbEntity
  8
9
  6
Continuous
 62
     7
370
    35
100
AcDbLine
 10
371.8425625489213
 20
326.309259735095
 30
0.0
 11
371.8425625489215
 21
351.3092597350953
 31
0.0
  0
LINE
  5
2CB
330
1F
100
AcDbEntity
  8
9
  6
Continuous
 62
     7
370
    35
100
AcDbLine
 10
335.842562548921
 20
351.3092597350952
 30
0.0
 11
335.842562548921
 21
326.309259735095
 31
0.0
  0
LINE
  5
2CC
330
1F
100
AcDbEntity
  8
9
  6
Continuous
 62
     7
370
    35
100
AcDbLine
 10
335.842562548921
 20
326.309259735095
 30
0.0
 11
371.8425625489213
 21
326.309259735095
 31
0.0
  0
LINE
  5
2CD
330
1F
100
AcDbEntity
  8
9
  6
Continuous
 62
     7
370
    35
100
AcDbLine
 10
350.7861032342478
 20
327.7505454441464
 30
0.0
 11
349.911466264206
 21
345.0781591041055
 31
0.0
  0
LINE
  5
2CE
330
1F
100
AcDbEntity
  8
9
  6
Continuous
 62
     7
370
    35
100
AcDbLine
 10
356.8990218635943
 20
327.7505454441464
 30
0.0
 11
357.7736588336361
 21
345.0781591041055
 31
0.0
  0
ARC
  5
2CF
330
1F
100
AcDbEntity
  8
9
  6
Continuous
 62
     7
370
    35
100
AcDbCircle
 10
355.4001714267465
 20
327.8092597350955
 30
0.0
 40
1.5
100
AcDbArc
 50
269.9999999999998
 51
357.7567061899646
  0
LINE
  5
2D0
330
1F
100
AcDbEntity
  8
8
  6
Continuous
 62
     4
370
    25
100
AcDbLine
 10
367.2043125489211
 20
321.309259735095
 30
0.0
 11
340.4808125489212
 21
321.309259735095
 31
0.0
  0
LINE
  5
2D1
330
1F
100
AcDbEntity
  8
9
  6
Continuous
 62
     7
370
    35
100
AcDbLine
 10
352.2849536710955
 20
326.3092597350953
 30
0.0
 11
353.842562548921
 21
326.3092597350953
 31
0.0
  0
LINE
  5
2D2
330
1F
100
AcDbEntity
  8
9
  6
Continuous
 62
     7
370
    35
100
AcDbLine
 10
355.4001714267465
 20
326.3092597350953
 30
0.0
 11
353.842562548921
 21
326.3092597350953
 31
0.0
  0
ARC
  5
2D3
330
1F
100
AcDbEntity
  8
9
  6
Continuous
 62
     7
370
    35
100
AcDbCircle
 10
352.2849536710955
 20
327.8092597350955
 30
0.0
 40
1.5
100
AcDbArc
 50
182.2432938100347
 51
269.9999999999998
  0
LINE
  5
2D4
330
1F
100
AcDbEntity
  8
8
  6
Continuous
 62
     4
370
    25
100
AcDbLine
 10
340.4075507793962
 20
318.9648831103001
 30
0.0
 11
341.7610772548032
 21
321.309259735095
 31
0.0
  0
LINE
  5
2D5
330
1F
100
AcDbEntity
  8
9
  6
Continuous
 62
     7
370
    35
100
AcDbLine
 10
340.6370625489214
 20
326.309259735095
 30
0.0
 11
340.3723750489212
 21
317.839259735095
 31
0.0
  0
LINE
  5
2D6
330
1F
100
AcDbEntity
  8
8
  6
Continuous
 62
     4
370
    25
100
AcDbLine
 10
341.7610772548032
 20
321.309259735095
 30
0.0
 11
341.9173272548035
 21
326.309259735095
 31
0.0
  0
LINE
  5
2D7
330
1F
100
AcDbEntity
  8
9
  6
Continuous
 62
     7
370
    35
100
AcDbLine
 10
367.3127500489211
 20
317.839259735095
 30
0.0
 11
367.0480625489211
 21
326.309259735095
 31
0.0
  0
LINE
  5
2D8
330
1F
100
AcDbEntity
  8
8
  6
Continuous
 62
     4
370
    25
100
AcDbLine
 10
365.7677978430388
 20
326.309259735095
 30
0.0
 11
365.9240478430388
 21
321.309259735095
 31
0.0
  0
LINE
  5
2D9
330
1F
100
AcDbEntity
  8
8
  6
Continuous
 62
     4
370
    25
100
AcDbLine
 10
365.9240478430388
 20
321.309259735095
 30
0.0
 11
367.2775743184459
 21
318.9648831103001
 31
0.0
  0
ARC
  5
2DA
330
1F
100
AcDbEntity
  8
9
  6
Continuous
 62
     7
370
    35
100
AcDbCircle
 10
344.9152981413804
 20
344.8824448009419
 30
0.0
 40
5.0
100
AcDbArc
 50
2.24329381003288
 51
35.75044035609505
  0
LINE
  5
2DB
330
1F
100
AcDbEntity
  8
9
  6
Continuous
 62
     7
370
    35
100
AcDbLine
 10
350.101707043415
 20
341.3092597350953
 30
0.0
 11
345.5925625489224
 21
341.3092597350953
 31
0.0
  0
ARC
  5
2DC
330
1F
100
AcDbEntity
  8
9
  6
Continuous
 62
     7
370
    35
100
AcDbCircle
 10
349.592562548921
 20
353.6497406559889
 30
0.0
 40
12.19614335359597
100
AcDbArc
 50
254.984377657696
 51
272.3558821336546
  0
LINE
  5
2DD
330
1F
100
AcDbEntity
  8
9
  6
Continuous
 62
     7
370
    35
100
AcDbLine
 10
345.592562548921
 20
341.309259735096
 30
0.0
 11
345.3425625489208
 21
341.4535973023935
 31
0.0
  0
LINE
  5
2DE
330
1F
100
AcDbEntity
  8
9
  6
Continuous
 62
     7
370
    35
100
AcDbLine
 10
345.342562548921
 20
341.8700319286279
 30
0.0
 11
346.4327563839793
 21
341.8700319286279
 31
0.0
  0
LINE
  5
2DF
330
1F
100
AcDbEntity
  8
9
  6
Continuous
 62
     7
370
    35
100
AcDbLine
 10
346.4327563839793
 20
348.2935056672061
 30
0.0
 11
346.4327563839793
 21
341.8700319286279
 31
0.0
  0
ARC
  5
2E0
330
1F
100
AcDbEntity
  8
9
  6
Continuous
 62
     7
370
    35
100
AcDbCircle
 10
362.7698269564614
 20
344.8824448009419
 30
0.0
 40
5.0
100
AcDbArc
 50
144.2495596439049
 51
177.7567061899671
  0
LINE
  5
2E1
330
1F
100
AcDbEntity
  8
9
  6
Continuous
 62
     7
370
    35
100
AcDbLine
 10
362.092562548921
 20
341.3092597350953
 30
0.0
 11
362.342562548921
 21
341.4535973023928
 31
0.0
  0
LINE
  5
2E2
330
1F
100
AcDbEntity
  8
9
  6
Continuous
 62
     7
370
    35
100
AcDbLine
 10
362.342562548921
 20
341.8700319286279
 30
0.0
 11
361.2523687138628
 21
341.8700319286279
 31
0.0
  0
ARC
  5
2E3
330
1F
100
AcDbEntity
  8
9
  6
Continuous
 62
     7
370
    35
100
AcDbCircle
 10
358.092562548921
 20
353.6497406559889
 30
0.0
 40
12.19614335359597
100
AcDbArc
 50
267.6441178663446
 51
285.0156223423033
  0
LINE
  5
2E4
330
1F
100
AcDbEntity
  8
9
  6
Continuous
 62
     7
370
    35
100
AcDbLine
 10
362.092562548921
 20
341.3092597350953
 30
0.0
 11
357.5834180544271
 21
341.3092597350953
 31
0.0
  0
LINE
  5
2E5
330
1F
100
AcDbEntity
  8
9
  6
Continuous
 62
     7
370
    35
100
AcDbLine
 10
361.2523687138628
 20
348.2935056672063
 30
0.0
 11
361.2523687138628
 21
341.8700319286279
 31
0.0
  0
LINE
  5
2E6
330
1F
100
AcDbEntity
  8
9
  6
Continuous
 62
     7
370
    35
100
AcDbLine
 10
335.842562548921
 20
376.3092597350952
 30
0.0
 11
335.842562548921
 21
351.3092597350952
 31
0.0
  0
LINE
  5
2E7
330
1F
100
AcDbEntity
  8
9
  6
Continuous
 62
     7
370
    35
100
AcDbLine
 10
362.092562548921
 20
365.8092597350953
 30
0.0
 11
362.092562548921
 21
373.8092597350952
 31
0.0
  0
LINE
  5
2E8
330
1F
100
AcDbEntity
  8
9
  6
Continuous
 62
     7
370
    35
100
AcDbLine
 10
345.5925625489208
 20
365.8092597350953
 30
0.0
 11
345.5925625489208
 21
373.8092597350951
 31
0.0
  0
LINE
  5
2E9
330
1F
100
AcDbEntity
  8
9
  6
Continuous
 62
     7
370
    35
100
AcDbLine
 10
371.8425625489213
 20
351.3092597350953
 30
0.0
 11
371.8425625489213
 21
376.3092597350952
 31
0.0
  0
LINE
  5
2EA
330
1F
100
AcDbEntity
  8
9
  6
Continuous
 62
     7
370
    35
100
AcDbLine
 10
362.092562548921
 20
365.8092597350953
 30
0.0
 11
353.842562548921
 21
365.8092597350953
 31
0.0
  0
LINE
  5
2EB
330
1F
100
AcDbEntity
  8
9
  6
Continuous
 62
     7
370
    35
100
AcDbLine
 10
362.092562548921
 20
361.8092597350953
 30
0.0
 11
353.842562548921
 21
361.8092597350953
 31
0.0
  0
ARC
  5
2EC
330
1F
100
AcDbEntity
  8
9
  6
Continuous
 62
     7
370
    35
100
AcDbCircle
 10
358.0925625489213
 20
358.0150311010351
 30
0.0
 40
7.794228634060289
100
AcDbArc
 50
70.81186354628379
 51
109.1881364537162
  0
ARC
  5
2ED
330
1F
100
AcDbEntity
  8
9
  6
Continuous
 62
     7
370
    35
100
AcDbCircle
 10
358.092562548921
 20
369.6034883691526
 30
0.0
 40
7.794228634057504
100
AcDbArc
 50
250.8118635462694
 51
289.1881364537227
  0
ARC
  5
2EE
330
1F
100
AcDbEntity
  8
9
  6
Continuous
 62
     7
370
    35
100
AcDbCircle
 10
358.092562548921
 20
349.4688145263782
 30
0.0
 40
12.19610764141987
100
AcDbArc
 50
74.9843326544765
 51
105.0156673455235
  0
ARC
  5
2EF
330
1F
100
AcDbEntity
  8
9
  6
Continuous
 62
     7
370
    35
100
AcDbCircle
 10
349.5925625489206
 20
358.0150311010351
 30
0.0
 40
7.794228634060289
100
AcDbArc
 50
70.81186354628379
 51
109.1881364537162
  0
LINE
  5
2F0
330
1F
100
AcDbEntity
  8
9
  6
Continuous
 62
     7
370
    35
100
AcDbLine
 10
345.5925625489208
 20
365.8092597350953
 30
0.0
 11
353.842562548921
 21
365.8092597350953
 31
0.0
  0
LINE
  5
2F1
330
1F
100
AcDbEntity
  8
9
  6
Continuous
 62
     7
370
    35
100
AcDbLine
 10
345.5925625489208
 20
365.8092597350953
 30
0.0
 11
345.3425625489208
 21
365.6649221677978
 31
0.0
  0
LINE
  5
2F2
330
1F
100
AcDbEntity
  8
9
  6
Continuous
 62
     7
370
    35
100
AcDbLine
 10
345.3425625489208
 20
365.3762470332031
 30
0.0
 11
347.0308248574304
 21
365.3762470332031
 31
0.0
  0
LINE
  5
2F3
330
1F
100
AcDbEntity
  8
9
  6
Continuous
 62
     7
370
    35
100
AcDbLine
 10
352.1543002404101
 20
365.3762470332033
 30
0.0
 11
353.842562548921
 21
365.3762470332033
 31
0.0
  0
LINE
  5
2F4
330
1F
100
AcDbEntity
  8
9
  6
Continuous
 62
     7
370
    35
100
AcDbLine
 10
355.530824857432
 20
365.3762470332033
 30
0.0
 11
353.842562548921
 21
365.3762470332033
 31
0.0
  0
LINE
  5
2F5
330
1F
100
AcDbEntity
  8
9
  6
Continuous
 62
     7
370
    35
100
AcDbLine
 10
353.092562548921
 20
349.3092597350953
 30
0.0
 11
353.092562548921
 21
351.3092597350953
 31
0.0
  0
LINE
  5
2F6
330
1F
100
AcDbEntity
  8
9
  6
Continuous
 62
     7
370
    35
100
AcDbLine
 10
354.592562548921
 20
349.3092597350953
 30
0.0
 11
354.592562548921
 21
351.3092597350953
 31
0.0
  0
ARC
  5
2F7
330
1F
100
AcDbEntity
  8
9
  6
Continuous
 62
     7
370
    35
100
AcDbCircle
 10
349.5925625489208
 20
369.6034883691526
 30
0.0
 40
7.794228634057504
100
AcDbArc
 50
250.8118635462766
 51
289.1881364537299
  0
ARC
  5
2F8
330
1F
100
AcDbEntity
  8
9
  6
Continuous
 62
     7
370
    35
100
AcDbCircle
 10
349.592562548921
 20
349.4688145263782
 30
0.0
 40
12.19610764141987
100
AcDbArc
 50
74.9843326544765
 51
105.0156673455235
  0
LINE
  5
2F9
330
1F
100
AcDbEntity
  8
9
  6
Continuous
 62
     7
370
    35
100
AcDbLine
 10
345.592562548921
 20
361.8092597350953
 30
0.0
 11
353.842562548921
 21
361.8092597350953
 31
0.0
  0
LINE
  5
2FA
330
1F
100
AcDbEntity
  8
9
  6
Continuous
 62
     7
370
    35
100
AcDbLine
 10
346.432756383979
 20
361.2484862790668
 30
0.0
 11
346.4327563839793
 21
354.3250138029846
 31
0.0
  0
POINT
  5
2FB
330
1F
100
AcDbEntity
  8
9
  6
Continuous
 62
     7
370
    35
100
AcDbPoint
 10
345.3425625489208
 20
361.6649221677978
 30
0.0
  0
LINE
  5
2FC
330
1F
100
AcDbEntity
  8
9
  6
Continuous
 62
     7
370
    35
100
AcDbLine
 10
345.592562548921
 20
361.8092597350953
 30
0.0
 11
345.342562548921
 21
361.9535973023926
 31
0.0
  0
LINE
  5
2FD
330
1F
100
AcDbEntity
  8
9
  6
Continuous
 62
     7
370
    35
100
AcDbLine
 10
345.342562548921
 20
361.2484862790668
 30
0.0
 11
346.4327563839793
 21
361.2484862790668
 31
0.0
  0
LINE
  5
2FE
330
1F
100
AcDbEntity
  8
9
  6
Continuous
 62
     7
370
    35
100
AcDbLine
 10
345.592562548921
 20
361.8092597350953
 30
0.0
 11
345.342562548921
 21
361.6649221677978
 31
0.0
  0
LINE
  5
2FF
330
1F
100
AcDbEntity
  8
9
  6
Continuous
 62
     7
370
    35
100
AcDbLine
 10
345.3425625489208
 20
362.2422724369874
 30
0.0
 11
347.0308248574308
 21
362.2422724369874
 31
0.0
  0
LINE
  5
300
330
1F
100
AcDbEntity
  8
9
  6
Continuous
 62
     7
370
    35
100
AcDbLine
 10
352.7523687138628
 20
361.2484862790668
 30
0.0
 11
353.842562548921
 21
361.2484862790668
 31
0.0
  0
LINE
  5
301
330
1F
100
AcDbEntity
  8
9
  6
Continuous
 62
     7
370
    35
100
AcDbLine
 10
352.154300240411
 20
362.2422724369876
 30
0.0
 11
353.842562548921
 21
362.2422724369876
 31
0.0
  0
LINE
  5
302
330
1F
100
AcDbEntity
  8
9
  6
Continuous
 62
     7
370
    35
100
AcDbLine
 10
352.7523687138621
 20
361.2484862790668
 30
0.0
 11
352.7523687138621
 21
359.2346289632135
 31
0.0
  0
LINE
  5
303
330
1F
100
AcDbEntity
  8
9
  6
Continuous
 62
     7
370
    35
100
AcDbLine
 10
355.5308248574311
 20
362.2422724369876
 30
0.0
 11
353.842562548921
 21
362.2422724369876
 31
0.0
  0
LINE
  5
304
330
1F
100
AcDbEntity
  8
9
  6
Continuous
 62
     7
370
    35
100
AcDbLine
 10
354.9327563839793
 20
361.2484862790668
 30
0.0
 11
353.842562548921
 21
361.2484862790668
 31
0.0
  0
LINE
  5
305
330
1F
100
AcDbEntity
  8
9
  6
Continuous
 62
     7
370
    35
100
AcDbLine
 10
354.9327563839793
 20
361.2484862790668
 30
0.0
 11
354.9327563839793
 21
359.2346289632135
 31
0.0
  0
LINE
  5
306
330
1F
100
AcDbEntity
  8
9
  6
Continuous
 62
     7
370
    35
100
AcDbLine
 10
353.842562548921
 20
354.8092597350953
 30
0.0
 11
352.342562548921
 21
353.3092597350953
 31
0.0
  0
LINE
  5
307
330
1F
100
AcDbEntity
  8
9
  6
Continuous
 62
     7
370
    35
100
AcDbLine
 10
353.092562548921
 20
353.3092597350953
 30
0.0
 11
352.342562548921
 21
353.3092597350953
 31
0.0
  0
LINE
  5
308
330
1F
100
AcDbEntity
  8
9
  6
Continuous
 62
     7
370
    35
100
AcDbLine
 10
353.842562548921
 20
354.8092597350953
 30
0.0
 11
355.342562548921
 21
353.3092597350953
 31
0.0
  0
LINE
  5
309
330
1F
100
AcDbEntity
  8
9
  6
Continuous
 62
     7
370
    35
100
AcDbLine
 10
354.592562548921
 20
353.3092597350953
 30
0.0
 11
355.342562548921
 21
353.3092597350953
 31
0.0
  0
LINE
  5
30A
330
1F
100
AcDbEntity
  8
9
  6
Continuous
 62
     7
370
    35
100
AcDbLine
 10
353.092562548921
 20
353.3092597350953
 30
0.0
 11
353.092562548921
 21
351.3092597350953
 31
0.0
  0
LINE
  5
30B
330
1F
100
AcDbEntity
  8
9
  6
Continuous
 62
     7
370
    35
100
AcDbLine
 10
354.592562548921
 20
353.3092597350953
 30
0.0
 11
354.592562548921
 21
351.3092597350953
 31
0.0
  0
LINE
  5
30C
330
1F
100
AcDbEntity
  8
9
  6
Continuous
 62
     7
370
    35
100
AcDbLine
 10
353.092562548921
 20
349.3092597350953
 30
0.0
 11
352.342562548921
 21
349.3092597350953
 31
0.0
  0
LINE
  5
30D
330
1F
100
AcDbEntity
  8
9
  6
Continuous
 62
     7
370
    35
100
AcDbLine
 10
354.592562548921
 20
349.3092597350953
 30
0.0
 11
355.342562548921
 21
349.3092597350953
 31
0.0
  0
LINE
  5
30E
330
1F
100
AcDbEntity
  8
9
  6
Continuous
 62
     7
370
    35
100
AcDbLine
 10
347.0308248574311
 20
365.3762470332033
 30
0.0
 11
347.0308248574311
 21
362.2422724369874
 31
0.0
  0
LINE
  5
30F
330
1F
100
AcDbEntity
  8
9
  6
Continuous
 62
     7
370
    35
100
AcDbLine
 10
345.3425625489208
 20
365.6649221677978
 30
0.0
 11
345.3425625489208
 21
361.9535973023926
 31
0.0
  0
LINE
  5
310
330
1F
100
AcDbEntity
  8
9
  6
Continuous
 62
     7
370
    35
100
AcDbLine
 10
352.1543002404101
 20
365.3762470332033
 30
0.0
 11
352.1543002404101
 21
362.2422724369876
 31
0.0
  0
LINE
  5
311
330
1F
100
AcDbEntity
  8
9
  6
Continuous
 62
     7
370
    35
100
AcDbLine
 10
355.530824857432
 20
365.3762470332033
 30
0.0
 11
355.530824857432
 21
362.2422724369876
 31
0.0
  0
LINE
  5
312
330
1F
100
AcDbEntity
  8
9
  6
Continuous
 62
     7
370
    35
100
AcDbLine
 10
362.092562548921
 20
365.8092597350953
 30
0.0
 11
362.3425625489208
 21
365.6649221677978
 31
0.0
  0
LINE
  5
313
330
1F
100
AcDbEntity
  8
9
  6
Continuous
 62
     7
370
    35
100
AcDbLine
 10
362.342562548921
 20
365.3762470332031
 30
0.0
 11
360.6543002404117
 21
365.3762470332031
 31
0.0
  0
LINE
  5
314
330
1F
100
AcDbEntity
  8
9
  6
Continuous
 62
     7
370
    35
100
AcDbLine
 10
361.2523687138628
 20
361.2484862790668
 30
0.0
 11
361.2523687138628
 21
354.3250138029844
 31
0.0
  0
POINT
  5
315
330
1F
100
AcDbEntity
  8
9
  6
Continuous
 62
     7
370
    35
100
AcDbPoint
 10
362.342562548921
 20
361.6649221677978
 30
0.0
  0
LINE
  5
316
330
1F
100
AcDbEntity
  8
9
  6
Continuous
 62
     7
370
    35
100
AcDbLine
 10
362.342562548921
 20
361.2484862790668
 30
0.0
 11
361.2523687138628
 21
361.2484862790668
 31
0.0
  0
LINE
  5
317
330
1F
100
AcDbEntity
  8
9
  6
Continuous
 62
     7
370
    35
100
AcDbLine
 10
362.092562548921
 20
361.8092597350953
 30
0.0
 11
362.3425625489208
 21
361.9535973023926
 31
0.0
  0
LINE
  5
318
330
1F
100
AcDbEntity
  8
9
  6
Continuous
 62
     7
370
    35
100
AcDbLine
 10
362.3425625489208
 20
362.2422724369876
 30
0.0
 11
360.6543002404112
 21
362.2422724369876
 31
0.0
  0
LINE
  5
319
330
1F
100
AcDbEntity
  8
9
  6
Continuous
 62
     7
370
    35
100
AcDbLine
 10
362.092562548921
 20
361.8092597350953
 30
0.0
 11
362.342562548921
 21
361.6649221677978
 31
0.0
  0
LINE
  5
31A
330
1F
100
AcDbEntity
  8
9
  6
Continuous
 62
     7
370
    35
100
AcDbLine
 10
360.6543002404107
 20
365.3762470332033
 30
0.0
 11
360.6543002404107
 21
362.2422724369874
 31
0.0
  0
LINE
  5
31B
330
1F
100
AcDbEntity
  8
9
  6
Continuous
 62
     7
370
    35
100
AcDbLine
 10
362.3425625489208
 20
365.6649221677978
 30
0.0
 11
362.3425625489208
 21
361.9535973023926
 31
0.0
  0
LINE
  5
31C
330
1F
100
AcDbEntity
  8
9
  6
Continuous
 62
     7
370
    35
100
AcDbLine
 10
362.092562548921
 20
373.8092597350952
 30
0.0
 11
353.842562548921
 21
373.8092597350951
 31
0.0
  0
LINE
  5
31D
330
1F
100
AcDbEntity
  8
9
  6
Continuous
 62
     7
370
    35
100
AcDbLine
 10
362.092562548921
 20
373.8092597350952
 30
0.0
 11
353.842562548921
 21
373.8092597350952
 31
0.0
  0
LINE
  5
31E
330
1F
100
AcDbEntity
  8
9
  6
Continuous
 62
     7
370
    35
100
AcDbLine
 10
345.592562548921
 20
373.8092597350951
 30
0.0
 11
353.842562548921
 21
373.8092597350951
 31
0.0
  0
LINE
  5
31F
330
1F
100
AcDbEntity
  8
9
  6
Continuous
 62
     7
370
    35
100
AcDbLine
 10
345.5925625489208
 20
373.8092597350951
 30
0.0
 11
353.842562548921
 21
373.8092597350951
 31
0.0
  0
ARC
  5
320
330
1F
100
AcDbEntity
  8
9
  6
Continuous
 62
     7
370
    35
100
AcDbCircle
 10
353.842562548921
 20
393.9217597350951
 30
0.0
 40
16.1125000000001
100
AcDbArc
 50
244.2499968807762
 51
295.7500031192231
  0
ARC
  5
321
330
1F
100
AcDbEntity
  8
9
  6
Continuous
 62
     7
370
    35
100
AcDbCircle
 10
337.9425625489209
 20
385.909259735095
 30
0.0
 40
1.600000000000023
100
AcDbArc
 50
179.9999999999998
 51
269.9999999999998
  0
ARC
  5
322
330
1F
100
AcDbEntity
  8
9
  6
Continuous
 62
     7
370
    35
100
AcDbCircle
 10
337.9425625489209
 20
425.709259735095
 30
0.0
 40
1.600000000000023
100
AcDbArc
 50
89.99999999999991
 51
179.9999999999998
  0
ARC
  5
323
330
1F
100
AcDbEntity
  8
9
  6
Continuous
 62
     7
370
    35
100
AcDbCircle
 10
361.5425625489208
 20
426.209259735095
 30
0.0
 40
0.799999999999983
100
AcDbArc
 50
0.0
 51
89.99999999999991
  0
ARC
  5
324
330
1F
100
AcDbEntity
  8
9
  6
Continuous
 62
     7
370
    35
100
AcDbCircle
 10
361.5425625489208
 20
385.409259735095
 30
0.0
 40
0.799999999999983
100
AcDbArc
 50
269.9999999999998
 51
0.0
  0
LINE
  5
325
330
1F
100
AcDbEntity
  8
9
  6
Continuous
 62
     7
370
    35
100
AcDbLine
 10
360.5123285386105
 20
373.8092597350951
 30
0.0
 11
360.592562548921
 21
375.8092597350951
 31
0.0
  0
LINE
  5
326
330
1F
100
AcDbEntity
  8
9
  6
Continuous
 62
     7
370
    35
100
AcDbLine
 10
347.092562548921
 20
375.8092597350951
 30
0.0
 11
347.1727965592313
 21
373.8092597350951
 31
0.0
  0
LINE
  5
327
330
1F
100
AcDbEntity
  8
9
  6
Continuous
 62
     7
370
    35
100
AcDbLine
 10
360.592562548921
 20
375.8092597350951
 30
0.0
 11
360.592562548921
 21
377.8092597350951
 31
0.0
  0
LINE
  5
328
330
1F
100
AcDbEntity
  8
9
  6
Continuous
 62
     7
370
    35
100
AcDbLine
 10
347.092562548921
 20
375.8092597350951
 30
0.0
 11
360.592562548921
 21
375.8092597350951
 31
0.0
  0
LINE
  5
329
330
1F
100
AcDbEntity
  8
9
  6
Continuous
 62
     7
370
    35
100
AcDbLine
 10
347.092562548921
 20
377.8092597350951
 30
0.0
 11
347.092562548921
 21
375.8092597350951
 31
0.0
  0
LINE
  5
32A
330
1F
100
AcDbEntity
  8
9
  6
Continuous
 62
     7
370
    35
100
AcDbLine
 10
346.842562548921
 20
377.8092597350951
 30
0.0
 11
360.842562548921
 21
377.8092597350951
 31
0.0
  0
LINE
  5
32B
330
1F
100
AcDbEntity
  8
9
  6
Continuous
 62
     7
370
    35
100
AcDbLine
 10
346.842562548921
 20
384.9478120384465
 30
0.0
 11
346.842562548921
 21
377.8092597350951
 31
0.0
  0
LINE
  5
32C
330
1F
100
AcDbEntity
  8
9
  6
Continuous
 62
     7
370
    35
100
AcDbLine
 10
346.842562548921
 20
377.8092597350951
 30
0.0
 11
360.842562548921
 21
377.8092597350951
 31
0.0
  0
LINE
  5
32D
330
1F
100
AcDbEntity
  8
9
  6
Continuous
 62
     7
370
    35
100
AcDbLine
 10
360.842562548921
 20
377.8092597350951
 30
0.0
 11
360.842562548921
 21
384.9478120384465
 31
0.0
  0
LINE
  5
32E
330
1F
100
AcDbEntity
  8
9
  6
Continuous
 62
     7
370
    35
100
AcDbLine
 10
345.342562548921
 20
427.3092597350951
 30
0.0
 11
337.9425625489209
 21
427.3092597350951
 31
0.0
  0
LINE
  5
32F
330
1F
100
AcDbEntity
  8
9
  6
Continuous
 62
     7
370
    35
100
AcDbLine
 10
336.342562548921
 20
425.709259735095
 30
0.0
 11
336.342562548921
 21
385.909259735095
 31
0.0
  0
LINE
  5
330
330
1F
100
AcDbEntity
  8
9
  6
Continuous
 62
     7
370
    35
100
AcDbLine
 10
337.9425625489209
 20
384.3092597350951
 30
0.0
 11
345.342562548921
 21
384.3092597350951
 31
0.0
  0
LINE
  5
331
330
1F
100
AcDbEntity
  8
9
  6
Continuous
 62
     7
370
    35
100
AcDbLine
 10
345.342562548921
 20
384.3092597350951
 30
0.0
 11
345.342562548921
 21
427.3092597350951
 31
0.0
  0
LINE
  5
332
330
1F
100
AcDbEntity
  8
9
  6
Continuous
 62
     7
370
    35
100
AcDbLine
 10
346.842562548921
 20
384.9478120384465
 30
0.0
 11
360.842562548921
 21
384.9478120384465
 31
0.0
  0
LINE
  5
333
330
1F
100
AcDbEntity
  8
9
  6
Continuous
 62
     7
370
    35
100
AcDbLine
 10
345.342562548921
 20
427.0092597350949
 30
0.0
 11
361.5425625489208
 21
427.0092597350949
 31
0.0
  0
LINE
  5
334
330
1F
100
AcDbEntity
  8
9
  6
Continuous
 62
     7
370
    35
100
AcDbLine
 10
345.342562548921
 20
384.6092597350951
 30
0.0
 11
346.842562548921
 21
384.6092597350951
 31
0.0
  0
LINE
  5
335
330
1F
100
AcDbEntity
  8
9
  6
Continuous
 62
     7
370
    35
100
AcDbLine
 10
361.5425625489208
 20
384.6092597350951
 30
0.0
 11
360.842562548921
 21
384.6092597350951
 31
0.0
  0
LINE
  5
336
330
1F
100
AcDbEntity
  8
9
  6
Continuous
 62
     7
370
    35
100
AcDbLine
 10
362.342562548921
 20
426.209259735095
 30
0.0
 11
362.342562548921
 21
385.409259735095
 31
0.0
  0
LINE
  5
337
330
1F
100
AcDbEntity
  8
8
  6
Continuous
 62
     4
370
    25
100
AcDbLine
 10
347.092562548921
 20
376.9953681281183
 30
0.0
 11
347.777362548921
 21
375.8092597350951
 31
0.0
  0
LINE
  5
338
330
1F
100
AcDbEntity
  8
8
  6
Continuous
 62
     4
370
    25
100
AcDbLine
 10
360.592562548921
 20
376.9953681281183
 30
0.0
 11
359.907762548921
 21
375.8092597350951
 31
0.0
  0
LINE
  5
339
330
1F
100
AcDbEntity
  8
8
  6
Continuous
 62
     4
370
    25
100
AcDbLine
 10
347.777362548921
 20
375.8092597350951
 30
0.0
 11
347.8599578666467
 21
373.8092597350951
 31
0.0
  0
LINE
  5
33A
330
1F
100
AcDbEntity
  8
8
  6
Continuous
 62
     4
370
    25
100
AcDbLine
 10
359.907762548921
 20
375.8092597350951
 30
0.0
 11
359.8251672311953
 21
373.8092597350951
 31
0.0
  0
LINE
  5
33B
330
1F
100
AcDbEntity
  8
9
  6
Continuous
 62
     7
370
    35
100
AcDbLine
 10
347.092562548921
 20
376.3092597350952
 30
0.0
 11
335.842562548921
 21
376.3092597350952
 31
0.0
  0
LINE
  5
33C
330
1F
100
AcDbEntity
  8
9
  6
Continuous
 62
     7
370
    35
100
AcDbLine
 10
371.8425625489213
 20
376.3092597350952
 30
0.0
 11
360.592562548921
 21
376.3092597350952
 31
0.0
  0
LINE
  5
33D
330
1F
100
AcDbEntity
  8
9
  6
Continuous
 62
     7
370
    35
100
AcDbLine
 10
346.1324576465472
 20
373.8092597350951
 30
0.0
 11
362.092562548921
 21
373.8092597350951
 31
0.0
  0
LINE
  5
33E
330
1F
100
AcDbEntity
  8
9
  6
Continuous
 62
     7
370
    35
100
AcDbLine
 10
353.8425625489215
 20
225.7855186431334
 30
0.0
 11
353.8425625489215
 21
218.9530008270541
 31
0.0
  0
HATCH
  5
33F
330
1F
100
AcDbEntity
  8
5
  6
Continuous
 62
     4
370
    25
100
AcDbHatch
 10
0.0
 20
0.0
 30
0.0
210
0.0
220
0.0
230
1.0
  2
SOLID
 70
     1
 71
     0
 91
        1
 92
        0
 93
        7
 72
     1
 10
114.2507668999532
 20
168.3666655747014
 11
120.7507668999532
 21
159.8599818171476
 72
     1
 10
120.7507668999532
 20
159.8599818171476
 11
127.2507668999532
 21
168.3666655747014
 72
     1
 10
127.2507668999532
 20
168.3666655747014
 11
125.2507668999532
 21
168.3666655747014
 72
     1
 10
125.2507668999532
 20
168.3666655747014
 11
125.2507668999532
 21
181.8138364225317
 72
     1
 10
125.2507668999532
 20
181.8138364225317
 11
116.2507668999533
 21
181.8138364225317
 72
     1
 10
116.2507668999533
 20
181.8138364225317
 11
116.2507668999533
 21
168.3666655747014
 72
     1
 10
116.2507668999533
 20
168.3666655747014
 11
114.2507668999532
 21
168.3666655747014
 97
        0
 75
     0
 76
     1
 98
        0
  0
LINE
  5
340
330
1F
100
AcDbEntity
  8
5
  6
Continuous
 62
     4
370
    25
100
AcDbLine
 10
125.2507668999532
 20
168.3666655747014
 30
0.0
 11
125.2507668999532
 21
181.8138364225317
 31
0.0
  0
LINE
  5
341
330
1F
100
AcDbEntity
  8
5
  6
Continuous
 62
     4
370
    25
100
AcDbLine
 10
116.2507668999533
 20
181.8138364225317
 30
0.0
 11
116.2507668999533
 21
168.3666655747014
 31
0.0
  0
LINE
  5
342
330
1F
100
AcDbEntity
  8
5
  6
Continuous
 62
     4
370
    25
100
AcDbLine
 10
120.7507668999532
 20
159.8599818171476
 30
0.0
 11
127.2507668999532
 21
168.3666655747014
 31
0.0
  0
LINE
  5
343
330
1F
100
AcDbEntity
  8
5
  6
Continuous
 62
     4
370
    25
100
AcDbLine
 10
114.2507668999532
 20
168.3666655747014
 30
0.0
 11
120.7507668999532
 21
159.8599818171476
 31
0.0
  0
LINE
  5
344
330
1F
100
AcDbEntity
  8
5
  6
Continuous
 62
     4
370
    25
100
AcDbLine
 10
116.2507668999533
 20
168.3666655747014
 30
0.0
 11
114.2507668999532
 21
168.3666655747014
 31
0.0
  0
LINE
  5
345
330
1F
100
AcDbEntity
  8
5
  6
Continuous
 62
     4
370
    25
100
AcDbLine
 10
127.2507668999532
 20
168.3666655747014
 30
0.0
 11
125.2507668999532
 21
168.3666655747014
 31
0.0
  0
LINE
  5
346
330
1F
100
AcDbEntity
  8
5
  6
Continuous
 62
     4
370
    25
100
AcDbLine
 10
125.2507668999532
 20
181.8138364225317
 30
0.0
 11
116.2507668999533
 21
181.8138364225317
 31
0.0
  0
DIMENSION
  5
350
330
1F
100
AcDbEntity
  8
6
  6
Continuous
 62
     3
370
     9
100
AcDbDimension
280
     0
  2
Dim1
 10
353.8425625489219
 20
310.3005835691736
 30
0.0
 11
290.0925625489218
 21
315.2005835691736
 31
0.0
 70
   160
  1
(<>
 71
     5
 42
-1.0
 73
     0
 74
     0
 75
     0
  3
Standard
100
AcDbAlignedDimension
 13
226.3425625489219
 23
293.3692597350947
 33
0.0
 14
353.8425625489219
 24
293.3692597350947
 34
0.0
100
AcDbRotatedDimension
1001
ACAD
1000
DSTYLE
1002
{
1070
   279
1070
     2
1070
   340
1005
347
1070
   140
1040
6.6
1070
    40
1040
1.0
1070
   147
1040
0.0
1070
    76
1070
     1
1070
    75
1070
     0
1070
   344
1005
7C
1070
   343
1005
7C
1070
   173
1070
     1
1070
   289
1070
     2
1070
   288
1070
     1
1070
    77
1070
     1
1070
   172
1070
     1
1070
   174
1070
     0
1070
    74
1070
     0
1070
    73
1070
     0
1070
   284
1070
     8
1070
    78
1070
     8
1070
    42
1040
2.0
1070
    44
1040
2.0
1070
    43
1040
10.0
1070
   271
1070
     1
1070
    41
1040
4.6
1002
}
  0
DIMENSION
  5
359
330
1F
100
AcDbEntity
  8
6
  6
Continuous
 62
     3
370
     9
100
AcDbDimension
280
     0
  2
Dim2
 10
353.8425625489209
 20
222.5422413153142
 30
0.0
 11
277.8425625489213
 21
227.4422413153142
 31
0.0
 70
   160
  1
(<>
 71
     5
 42
-1.0
 73
     0
 74
     0
 75
     0
  3
Standard
100
AcDbAlignedDimension
 13
201.8425625489217
 23
238.3692597350947
 33
0.0
 14
353.8425625489209
 24
238.3692597350947
 34
0.0
100
AcDbRotatedDimension
1001
ACAD
1000
DSTYLE
1002
{
1070
   279
1070
     2
1070
   340
1005
347
1070
   140
1040
6.6
1070
    40
1040
1.0
1070
   147
1040
0.0
1070
    76
1070
     1
1070
    75
1070
     0
1070
   344
1005
7C
1070
   343
1005
7C
1070
   173
1070
     1
1070
   289
1070
     2
1070
   288
1070
     1
1070
    77
1070
     1
1070
   172
1070
     1
1070
   174
1070
     0
1070
    74
1070
     0
1070
    73
1070
     0
1070
   284
1070
     8
1070
    78
1070
     8
1070
    42
1040
2.0
1070
    44
1040
2.0
1070
    43
1040
10.0
1070
   271
1070
     1
1070
    41
1040
4.6
1002
}
  0
LINE
  5
35A
330
1F
100
AcDbEntity
  8
9
  6
Continuous
 62
     7
370
    35
100
AcDbLine
 10
353.8425625489209
 20
227.3692597350937
 30
0.0
 11
367.2652500489204
 21
227.3692597350937
 31
0.0
  0
LINE
  5
35B
330
1F
100
AcDbEntity
  8
9
  6
Continuous
 62
     7
370
    35
100
AcDbLine
 10
340.4198750489214
 20
217.3692597350937
 30
0.0
 11
367.2652500489204
 21
217.3692597350937
 31
0.0
  0
LINE
  5
35C
330
1F
100
AcDbEntity
  8
9
  6
Continuous
 62
     7
370
    35
100
AcDbLine
 10
367.842562548921
 20
225.7855186431338
 30
0.0
 11
367.8425625489211
 21
218.9530008270538
 31
0.0
  0
ARC
  5
35D
330
1F
100
AcDbEntity
  8
9
  6
Continuous
 62
     7
370
    35
100
AcDbCircle
 10
346.8425625489225
 20
233.6308305523968
 30
0.0
 40
16.2615708173031
100
AcDbArc
 50
244.5030709240423
 51
295.496929075957
  0
ARC
  5
35E
330
1F
100
AcDbEntity
  8
9
  6
Continuous
 62
     7
370
    35
100
AcDbCircle
 10
346.8425625489225
 20
211.1076889177907
 30
0.0
 40
16.2615708173031
100
AcDbArc
 50
64.50307092404266
 51
115.4969290759574
  0
LINE
  5
35F
330
1F
100
AcDbEntity
  8
9
  6
Continuous
 62
     7
370
    35
100
AcDbLine
 10
353.8425625489209
 20
227.3692597350937
 30
0.0
 11
340.4198750489231
 21
227.3692597350937
 31
0.0
  0
LINE
  5
360
330
1F
100
AcDbEntity
  8
9
  6
Continuous
 62
     7
370
    35
100
AcDbLine
 10
367.2652500489204
 20
217.3692597350937
 30
0.0
 11
340.4198750489231
 21
217.3692597350937
 31
0.0
  0
LINE
  5
361
330
1F
100
AcDbEntity
  8
9
  6
Continuous
 62
     7
370
    35
100
AcDbLine
 10
339.8425625489209
 20
225.7855186431294
 30
0.0
 11
339.8425625489209
 21
218.9530008270579
 31
0.0
  0
LINE
  5
362
330
1F
100
AcDbEntity
  8
9
  6
Continuous
 62
     7
370
    35
100
AcDbLine
 10
367.8425625489211
 20
225.7855186431337
 30
0.0
 11
367.2652500489204
 21
227.3692597350937
 31
0.0
  0
LINE
  5
363
330
1F
100
AcDbEntity
  8
9
  6
Continuous
 62
     7
370
    35
100
AcDbLine
 10
367.2652500489204
 20
217.3692597350937
 30
0.0
 11
367.8425625489211
 21
218.9530008270538
 31
0.0
  0
LINE
  5
364
330
1F
100
AcDbEntity
  8
9
  6
Continuous
 62
     7
370
    35
100
AcDbLine
 10
339.8425625489224
 20
225.7855186431337
 30
0.0
 11
340.4198750489231
 21
227.3692597350937
 31
0.0
  0
LINE
  5
365
330
1F
100
AcDbEntity
  8
9
  6
Continuous
 62
     7
370
    35
100
AcDbLine
 10
340.4198750489231
 20
217.3692597350937
 30
0.0
 11
339.8425625489224
 21
218.9530008270538
 31
0.0
  0
LINE
  5
366
330
1F
100
AcDbEntity
  8
3
  6
DASHDOT
 62
     1
370
    25
100
AcDbLine
 10
207.8425625489218
 20
265.8692597350947
 30
0.0
 11
375.8425625489218
 21
265.8692597350944
 31
0.0
  0
LINE
  5
367
330
1F
100
AcDbEntity
  8
5
  6
Continuous
 62
     4
370
    25
100
AcDbLine
 10
107.3890168999533
 20
303.3692597350954
 30
0.0
 11
134.1125168999531
 21
303.3692597350954
 31
0.0
  0
LINE
  5
368
330
1F
100
AcDbEntity
  8
5
  6
Continuous
 62
     4
370
    25
100
AcDbLine
 10
134.1857786694779
 20
305.7136363598903
 30
0.0
 11
132.8322521940709
 21
303.3692597350954
 31
0.0
  0
LINE
  5
369
330
1F
100
AcDbEntity
  8
5
  6
Continuous
 62
     4
370
    25
100
AcDbLine
 10
108.8255316058355
 20
298.3692597350955
 30
0.0
 11
108.6692816058353
 21
303.3692597350954
 31
0.0
  0
LINE
  5
36A
330
1F
100
AcDbEntity
  8
5
  6
Continuous
 62
     4
370
    25
100
AcDbLine
 10
108.6692816058353
 20
303.3692597350954
 30
0.0
 11
107.3157551304282
 21
305.7136363598903
 31
0.0
  0
LINE
  5
36B
330
1F
100
AcDbEntity
  8
5
  6
Continuous
 62
     4
370
    25
100
AcDbLine
 10
132.8322521940709
 20
303.3692597350954
 30
0.0
 11
132.676002194071
 21
298.3692597350955
 31
0.0
  0
LINE
  5
36C
330
1F
100
AcDbEntity
  8
5
  6
Continuous
 62
     4
370
    25
100
AcDbLine
 10
134.1125168999531
 20
321.3092597350955
 30
0.0
 11
107.3890168999533
 21
321.3092597350955
 31
0.0
  0
LINE
  5
36D
330
1F
100
AcDbEntity
  8
5
  6
Continuous
 62
     4
370
    25
100
AcDbLine
 10
132.8322521940709
 20
321.3092597350955
 30
0.0
 11
134.1857786694779
 21
318.9648831103005
 31
0.0
  0
LINE
  5
36E
330
1F
100
AcDbEntity
  8
5
  6
Continuous
 62
     4
370
    25
100
AcDbLine
 10
108.6692816058353
 20
321.3092597350955
 30
0.0
 11
108.8255316058354
 21
326.3092597350955
 31
0.0
  0
LINE
  5
36F
330
1F
100
AcDbEntity
  8
5
  6
Continuous
 62
     4
370
    25
100
AcDbLine
 10
107.3157551304282
 20
318.9648831103005
 30
0.0
 11
108.6692816058353
 21
321.3092597350955
 31
0.0
  0
LINE
  5
370
330
1F
100
AcDbEntity
  8
5
  6
Continuous
 62
     4
370
    25
100
AcDbLine
 10
132.6760021940709
 20
326.3092597350955
 30
0.0
 11
132.8322521940709
 21
321.3092597350955
 31
0.0
  0
LINE
  5
371
330
1F
100
AcDbEntity
  8
3
  6
DASHDOT
 62
     1
370
    25
100
AcDbLine
 10
120.7507668999531
 20
420.5311487829663
 30
0.0
 11
120.7507668999532
 21
186.8535931443303
 31
0.0
  0
LINE
  5
372
330
1F
100
AcDbEntity
  8
3
  6
DASHDOT
 62
     1
370
    25
100
AcDbLine
 10
182.7306387782282
 20
429.9092597347156
 30
0.0
 11
182.7306387782282
 21
348.8092597350956
 31
0.0
  0
LINE
  5
373
330
1F
100
AcDbEntity
  8
3
  6
DASHDOT
 62
     1
370
    25
100
AcDbLine
 10
214.080766899953
 20
351.3092597350956
 30
0.0
 11
118.2507668999531
 21
351.3092597350957
 31
0.0
  0
LINE
  5
374
330
1F
100
AcDbEntity
  8
3
  6
DASHDOT
 62
     1
370
    25
100
AcDbLine
 10
342.8425625489209
 20
351.3092597350953
 30
0.0
 11
364.842562548921
 21
351.3092597350953
 31
0.0
  0
ELLIPSE
  5
375
330
1F
100
AcDbEntity
  8
11
  6
HIDDEN
 62
     2
370
    25
100
AcDbEllipse
 10
127.5481755704007
 20
415.5350921908508
 30
0.0
 11
6.797408670447567
 21
0.0
 31
0.0
210
0.0
220
0.0
230
1.0
 40
0.2942297715150195
 41
0.0
 42
6.283185307179586
  0
ELLIPSE
  5
376
330
1F
100
AcDbEntity
  8
11
  6
HIDDEN
 62
     2
370
    25
100
AcDbEllipse
 10
113.9481755704006
 20
415.5350921908508
 30
0.0
 11
6.802591329552484
 21
0.0
 31
0.0
210
0.0
220
0.0
230
1.0
 40
0.2940056080263713
 41
-0.0000000000000284
 42
3.141592653589822
  0
LINE
  5
377
330
1F
100
AcDbEntity
  8
9
  6
Continuous
 62
     7
370
    35
100
AcDbLine
 10
367.0777500489213
 20
211.3692597350937
 30
0.0
 11
367.2652500489204
 21
217.3692597350937
 31
0.0
  0
LINE
  5
378
330
1F
100
AcDbEntity
  8
8
  6
Continuous
 62
     4
370
    25
100
AcDbLine
 10
365.915750048921
 20
211.3692597350937
 30
0.0
 11
366.0438750489212
 21
215.4692597350937
 31
0.0
  0
LINE
  5
379
330
1F
100
AcDbEntity
  8
8
  6
Continuous
 62
     4
370
    25
100
AcDbLine
 10
341.7693750489208
 20
211.3692597350937
 30
0.0
 11
341.6412500489206
 21
215.4692597350937
 31
0.0
  0
LINE
  5
37A
330
1F
100
AcDbEntity
  8
9
  6
Continuous
 62
     7
370
    35
100
AcDbLine
 10
340.4198750489205
 20
217.3692597350937
 30
0.0
 11
340.6073750489205
 21
211.3692597350937
 31
0.0
  0
LINE
  5
37B
330
1F
100
AcDbEntity
  8
3
  6
DASHDOT
 62
     1
370
    25
100
AcDbLine
 10
353.8425625489218
 20
186.8535931443303
 30
0.0
 11
353.8425625489221
 21
432.0092597350949
 31
0.0
  0
DIMENSION
  5
385
330
1F
100
AcDbEntity
  8
6
  6
Continuous
 62
     3
370
     9
100
AcDbDimension
280
     0
  2
Dim3
 10
211.5807668999531
 20
442.6018324541041
 30
0.0
 11
166.1657668999532
 21
447.5018324541041
 31
0.0
 70
   160
  1
(<>
 71
     5
 42
-1.0
 73
     0
 74
     0
 75
     0
  3
Standard
100
AcDbAlignedDimension
 13
120.7507668999531
 23
420.5311487829663
 33
0.0
 14
211.580766899953
 24
351.3092596329552
 34
0.0
100
AcDbRotatedDimension
1001
ACAD
1000
DSTYLE
1002
{
1070
   279
1070
     2
1070
   340
1005
347
1070
   140
1040
6.6
1070
    40
1040
1.0
1070
   147
1040
0.0
1070
    76
1070
     0
1070
    75
1070
     0
1070
   344
1005
7C
1070
   343
1005
7C
1070
   173
1070
     1
1070
   289
1070
     2
1070
   288
1070
     1
1070
    77
1070
     1
1070
   172
1070
     1
1070
   174
1070
     0
1070
    74
1070
     0
1070
    73
1070
     0
1070
   284
1070
     8
1070
    78
1070
     8
1070
    42
1040
2.0
1070
    44
1040
2.0
1070
    43
1040
10.0
1070
   271
1070
     1
1070
    41
1040
4.6
1002
}
  0
DIMENSION
  5
38F
330
1F
100
AcDbEntity
  8
6
  6
Continuous
 62
     3
370
     9
100
AcDbDimension
280
     0
  2
Dim4
 10
120.7507668999531
 20
442.6018324541041
 30
0.0
 11
103.2507668999533
 21
447.5018324541041
 31
0.0
 70
   160
  1
(<>
 71
     5
 42
-1.0
 73
     0
 74
     0
 75
     0
  3
Standard
100
AcDbAlignedDimension
 13
85.7507668999533
 23
265.8692597350944
 33
0.0
 14
120.7507668999531
 24
420.5311487829663
 34
0.0
100
AcDbRotatedDimension
1001
ACAD
1000
DSTYLE
1002
{
1070
   279
1070
     2
1070
   340
1005
347
1070
   140
1040
6.6
1070
    40
1040
1.0
1070
   147
1040
0.0
1070
    76
1070
     0
1070
    75
1070
     0
1070
   344
1005
7C
1070
   343
1005
7C
1070
   173
1070
     1
1070
   289
1070
     2
1070
   288
1070
     1
1070
    77
1070
     1
1070
   172
1070
     1
1070
   174
1070
     0
1070
    74
1070
     0
1070
    73
1070
     0
1070
   284
1070
     8
1070
    78
1070
     8
1070
    42
1040
2.0
1070
    44
1040
2.0
1070
    43
1040
10.0
1070
   271
1070
     1
1070
    41
1040
4.6
1002
}
  0
LINE
  5
390
330
1F
100
AcDbEntity
  8
11
  6
HIDDEN
 62
     2
370
    25
100
AcDbLine
 10
138.7507668999533
 20
211.3692597350936
 30
0.0
 11
138.7507668999533
 21
191.8535931443294
 31
0.0
  0
LINE
  5
391
330
1F
100
AcDbEntity
  8
11
  6
HIDDEN
 62
     2
370
    25
100
AcDbLine
 10
138.7507668999533
 20
211.3692597350936
 30
0.0
 11
102.7507668999531
 21
211.3692597350936
 31
0.0
  0
DIMENSION
  5
39B
330
1F
100
AcDbEntity
  8
6
  6
Continuous
 62
     3
370
     9
100
AcDbDimension
280
     0
  2
Dim5
 10
70.57245859612829
 20
427.409259734716
 30
0.0
 11
65.67245859612827
 21
319.3892597349048
 31
0.0
 70
   160
  1
(<>
 71
     5
 42
-1.0
 73
     0
 74
     0
 75
     0
  3
Standard
100
AcDbAlignedDimension
 13
102.7507668999531
 23
211.3692597350936
 33
0.0
 14
182.7306387782282
 24
427.4092597347156
 34
0.0
 50
89.99999999999991
100
AcDbRotatedDimension
1001
ACAD
1000
DSTYLE
1002
{
1070
   279
1070
     2
1070
   340
1005
347
1070
   140
1040
6.6
1070
    40
1040
1.0
1070
   147
1040
0.0
1070
    76
1070
     0
1070
    75
1070
     0
1070
   344
1005
7C
1070
   343
1005
7C
1070
   173
1070
     1
1070
   289
1070
     2
1070
   288
1070
     1
1070
    77
1070
     1
1070
   172
1070
     1
1070
   174
1070
     0
1070
    74
1070
     0
1070
    73
1070
     0
1070
   284
1070
     8
1070
    78
1070
     8
1070
    42
1040
2.0
1070
    44
1040
2.0
1070
    43
1040
10.0
1070
   271
1070
     1
1070
    41
1040
4.6
1002
}
  0
LINE
  5
39C
330
1F
100
AcDbEntity
  8
11
  6
HIDDEN
 62
     2
370
    25
100
AcDbLine
 10
102.750766899953
 20
211.3692597350936
 30
0.0
 11
102.7507668999532
 21
191.8535931443294
 31
0.0
  0
ELLIPSE
  5
39D
330
1F
100
AcDbEntity
  8
11
  6
HIDDEN
 62
     2
370
    25
100
AcDbEllipse
 10
111.7507668999531
 20
191.8535931443294
 30
0.0
 11
9.000000000000043
 21
0.0
 31
0.0
210
0.0
220
0.0
230
1.0
 40
0.2222222222222212
 41
0.0
 42
6.283185307179586
  0
ELLIPSE
  5
39E
330
1F
100
AcDbEntity
  8
11
  6
HIDDEN
 62
     2
370
    25
100
AcDbEllipse
 10
129.7507668999532
 20
191.8535931443294
 30
0.0
 11
9.000000000000043
 21
0.0
 31
0.0
210
0.0
220
0.0
230
1.0
 40
0.2222222222222212
 41
3.141592653589779
 42
6.283185307179586
  0
LINE
  5
39F
330
1F
100
AcDbEntity
  8
11
  6
HIDDEN
 62
     2
370
    25
100
AcDbLine
 10
371.8425625489219
 20
211.3692597350937
 30
0.0
 11
371.8425625489219
 21
191.8535931443296
 31
0.0
  0
LINE
  5
3A0
330
1F
100
AcDbEntity
  8
11
  6
HIDDEN
 62
     2
370
    25
100
AcDbLine
 10
371.8425625489219
 20
211.3692597350937
 30
0.0
 11
335.8425625489216
 21
211.3692597350937
 31
0.0
  0
LINE
  5
3A1
330
1F
100
AcDbEntity
  8
11
  6
HIDDEN
 62
     2
370
    25
100
AcDbLine
 10
335.8425625489215
 20
211.3692597350937
 30
0.0
 11
335.8425625489218
 21
191.8535931443296
 31
0.0
  0
ELLIPSE
  5
3A2
330
1F
100
AcDbEntity
  8
11
  6
HIDDEN
 62
     2
370
    25
100
AcDbEllipse
 10
344.8425625489217
 20
191.8535931443296
 30
0.0
 11
9.000000000000043
 21
0.0
 31
0.0
210
0.0
220
0.0
230
1.0
 40
0.2222222222222212
 41
0.0
 42
6.283185307179586
  0
ELLIPSE
  5
3A3
330
1F
100
AcDbEntity
  8
11
  6
HIDDEN
 62
     2
370
    25
100
AcDbEllipse
 10
362.8425625489218
 20
191.8535931443296
 30
0.0
 11
9.000000000000043
 21
0.0
 31
0.0
210
0.0
220
0.0
230
1.0
 40
0.2222222222222212
 41
3.141592653589779
 42
6.283185307179586
  0
LINE
  5
3A4
330
1F
100
AcDbEntity
  8
9
  6
Continuous
 62
     7
370
    35
100
AcDbLine
 10
369.8425585530218
 20
317.8392597350946
 30
0.0
 11
369.8425585530217
 21
306.8392597350945
 31
0.0
  0
LINE
  5
3A5
330
1F
100
AcDbEntity
  8
9
  6
Continuous
 62
     7
370
    35
100
AcDbLine
 10
337.8425665448221
 20
317.8392597350949
 30
0.0
 11
337.8425665448219
 21
306.8392597350947
 31
0.0
  0
LINE
  5
3A6
330
1F
100
AcDbEntity
  8
9
  6
Continuous
 62
     7
370
    35
100
AcDbLine
 10
353.8425625489214
 20
317.839259735095
 30
0.0
 11
369.8425585530218
 21
317.8392597350947
 31
0.0
  0
LINE
  5
3A7
330
1F
100
AcDbEntity
  8
9
  6
Continuous
 62
     7
370
    35
100
AcDbLine
 10
369.8425585530217
 20
306.8392597350946
 30
0.0
 11
353.8425625489211
 21
306.839259735095
 31
0.0
  0
LINE
  5
3A8
330
1F
100
AcDbEntity
  8
9
  6
Continuous
 62
     7
370
    35
100
AcDbLine
 10
353.842562548921
 20
317.839259735095
 30
0.0
 11
337.8425665448221
 21
317.8392597350951
 31
0.0
  0
LINE
  5
3A9
330
1F
100
AcDbEntity
  8
9
  6
Continuous
 62
     7
370
    35
100
AcDbLine
 10
337.8425665448219
 20
306.839259735095
 30
0.0
 11
353.842562548921
 21
306.839259735095
 31
0.0
  0
MTEXT
  5
3AA
330
1F
100
AcDbEntity
  8
9
  6
Continuous
 62
     7
370
     9
100
AcDbMText
 10
352.3361005881477
 20
46.49047298334037
 30
0.0
 40
8.0
 41
101.3474691104
 46
8.0
 71
     5
 72
     1
  1
{\fＭＳ Ｐゴシック;\W0.714286;末端試験装置　F-Ⅳ}
 73
     1
 44
1.0
1001
ACAD
1000
ACAD_MTEXT_DEFINED_HEIGHT_BEGIN
1070
    46
1040
8.0
1000
ACAD_MTEXT_DEFINED_HEIGHT_END
  0
LINE
  5
3AB
330
1F
100
AcDbEntity
  8
7
  6
Continuous
 62
     3
370
    25
100
AcDbLine
 10
370.2731509930852
 20
42.16874057808172
 30
0.0
 11
387.8776882449544
 21
42.16874057808172
 31
0.0
  0
MTEXT
  5
3AC
330
1F
100
AcDbEntity
  8
7
  6
Continuous
 62
     3
370
     9
100
AcDbMText
 10
334.8452253575674
 20
33.26644785242374
 30
0.0
 40
5.6
 41
26.588090635232
 46
5.6
 71
     5
 72
     1
  1
{\fＭＳ Ｐゴシック;\W0.714286;尺　　度}
 73
     1
 44
1.0
1001
ACAD
1000
ACAD_MTEXT_DEFINED_HEIGHT_BEGIN
1070
    46
1040
5.6
1000
ACAD_MTEXT_DEFINED_HEIGHT_END
  0
MTEXT
  5
3AD
330
1F
100
AcDbEntity
  8
7
  6
Continuous
 62
     3
370
     9
100
AcDbMText
 10
362.3905150671594
 20
33.26644785242374
 30
0.0
 40
5.0
 41
3.342072765399999
 46
5.0
 71
     5
 72
     1
  1
{\fＭＳ Ｐゴシック;\W0.714286;/}
 73
     1
 44
1.0
1001
ACAD
1000
ACAD_MTEXT_DEFINED_HEIGHT_BEGIN
1070
    46
1040
5.0
1000
ACAD_MTEXT_DEFINED_HEIGHT_END
  0
MTEXT
  5
3AE
330
1F
100
AcDbEntity
  8
9
  6
Continuous
 62
     7
370
     9
100
AcDbMText
 10
362.3905150671594
 20
33.26644785242374
 30
0.0
 40
5.6
 41
22.06680882672
 46
5.6
 71
     5
 72
     1
  1
{\fＭＳ Ｐゴシック;\W0.714286;1      2}
 73
     1
 44
1.0
1001
ACAD
1000
ACAD_MTEXT_DEFINED_HEIGHT_BEGIN
1070
    46
1040
5.6
1000
ACAD_MTEXT_DEFINED_HEIGHT_END
  0
VIEWPORT
  5
6A
330
1B
100
AcDbEntity
 67
     1
  8
0
100
AcDbViewport
 10
210.0
 20
297.0
 30
0.0
 40
420.0
 41
594.0
 68
     1
 69
     1
 12
210.0
 22
297.0
 13
0.0
 23
0.0
 14
0.5
 24
0.5
 15
0.5
 25
0.5
 16
0.0
 26
0.0
 36
1.0
 17
0.0
 27
0.0
 37
0.0
 42
50.0
 43
0.0
 44
0.0
 45
9.0
 50
0.0
 51
0.0
 72
   100
 90
   557152
  1

281
     0
 71
     1
 74
     0
110
0.0
120
0.0
130
0.0
111
1.0
121
0.0
131
0.0
112
0.0
122
1.0
132
0.0
 79
     0
146
0.0
170
     0
 61
     5
292
     1
282
     1
141
0.0
142
0.0
 63
   256
  0
ENDSEC
  0
SECTION
  2
OBJECTS
  0
DICTIONARY
  5
C
330
0
100
AcDbDictionary
281
     1
  3
ACAD_DETAILVIEWSTYLE
350
3B3
  3
ACAD_GROUP
350
D
  3
ACAD_LAYOUT
350
1A
  3
ACAD_MATERIAL
350
43
  3
ACAD_MLEADERSTYLE
350
3B2
  3
ACAD_MLINESTYLE
350
17
  3
ACAD_PLOTSETTINGS
350
19
  3
ACAD_PLOTSTYLENAME
350
E
  3
ACAD_SCALELIST
350
47
  3
ACAD_SECTIONVIEWSTYLE
350
3B4
  3
ACAD_TABLESTYLE
350
3B1
  3
ACAD_VISUALSTYLE
350
2A
  3
AcDbVariableDictionary
350
3AF
  0
SUN
  5
69
330
29
100
AcDbSun
 90
        1
290
     0
 63
     7
421
 16777215
 40
1.0
291
     1
 91
  2455826
 92
 54000000
292
     0
 70
     2
 71
   256
280
     1
  0
DICTIONARY
  5
3B3
102
{ACAD_REACTORS
330
C
102
}
330
C
100
AcDbDictionary
281
     1
  0
DICTIONARY
  5
D
102
{ACAD_REACTORS
330
C
102
}
330
C
100
AcDbDictionary
281
     1
  0
DICTIONARY
  5
1A
102
{ACAD_REACTORS
330
C
102
}
330
C
100
AcDbDictionary
281
     1
  3
Layout1
350
1E
  3
Layout2
350
26
  3
Model
350
22
  0
DICTIONARY
  5
43
102
{ACAD_REACTORS
330
C
102
}
330
C
100
AcDbDictionary
281
     1
  3
ByBlock
350
45
  3
ByLayer
350
44
  3
Global
350
46
  0
DICTIONARY
  5
3B2
102
{ACAD_REACTORS
330
C
102
}
330
C
100
AcDbDictionary
281
     1
  0
DICTIONARY
  5
17
102
{ACAD_REACTORS
330
C
102
}
330
C
100
AcDbDictionary
281
     1
  3
Standard
350
18
  0
DICTIONARY
  5
19
102
{ACAD_REACTORS
330
C
102
}
330
C
100
AcDbDictionary
281
     1
  0
ACDBDICTIONARYWDFLT
  5
E
102
{ACAD_REACTORS
330
C
102
}
330
C
100
AcDbDictionary
281
     1
  3
Normal
350
F
100
AcDbDictionaryWithDefault
340
F
  0
DICTIONARY
  5
47
102
{ACAD_REACTORS
330
C
102
}
330
C
100
AcDbDictionary
281
     1
  3
A0
350
48
  3
A1
350
49
  3
A2
350
4A
  3
A3
350
4B
  3
A4
350
4C
  3
A5
350
4D
  3
A6
350
4E
  3
A7
350
4F
  3
A8
350
50
  3
A9
350
51
  3
B0
350
52
  3
B1
350
53
  3
B2
350
54
  3
B3
350
55
  3
B4
350
56
  3
B5
350
57
  3
B6
350
58
  3
B7
350
59
  3
B8
350
5A
  3
B9
350
5B
  3
C0
350
5C
  3
C1
350
5D
  3
C2
350
5E
  3
C3
350
5F
  3
C4
350
60
  3
C5
350
61
  3
C6
350
62
  3
C7
350
63
  3
C8
350
64
  3
C9
350
65
  3
D0
350
66
  3
D1
350
67
  3
D2
350
68
  0
DICTIONARY
  5
3B4
102
{ACAD_REACTORS
330
C
102
}
330
C
100
AcDbDictionary
281
     1
  0
DICTIONARY
  5
3B1
102
{ACAD_REACTORS
330
C
102
}
330
C
100
AcDbDictionary
281
     1
  0
DICTIONARY
  5
2A
102
{ACAD_REACTORS
330
C
102
}
330
C
100
AcDbDictionary
281
     1
  3
2dWireframe
350
2F
  3
Basic
350
32
  3
Brighten
350
36
  3
ColorChange
350
3A
  3
Conceptual
350
34
  3
Dim
350
35
  3
EdgeColorOff
350
3D
  3
Facepattern
350
39
  3
Flat
350
2B
  3
FlatWithEdges
350
2C
  3
Gouraud
350
2D
  3
GouraudWithEdges
350
2E
  3
Hidden
350
31
  3
JitterOff
350
3B
  3
Linepattern
350
38
  3
OverhangOff
350
3C
  3
Realistic
350
33
  3
Shaded
350
42
  3
Shaded with edges
350
41
  3
Shades of Gray
350
3E
  3
Sketchy
350
3F
  3
Thicken
350
37
  3
Wireframe
350
30
  3
X-Ray
350
40
  0
DICTIONARY
  5
3AF
102
{ACAD_REACTORS
330
C
102
}
330
C
100
AcDbDictionary
281
     1
  3
CANNOSCALE
350
3B0
  0
LAYOUT
  5
1E
102
{ACAD_REACTORS
330
1A
102
}
330
1A
100
AcDbPlotSettings
  1

  2
none_device
  4

  6

 40
0.0
 41
0.0
 42
0.0
 43
0.0
 44
0.0
 45
0.0
 46
0.0
 47
0.0
 48
0.0
 49
0.0
140
0.0
141
0.0
142
1.0
143
1.0
 70
   688
 72
     0
 73
     0
 74
     5
  7

 75
    16
 76
     0
 77
     2
 78
   300
147
1.0
148
0.0
149
0.0
100
AcDbLayout
  1
Layout1
 70
     1
 71
     1
 10
0.0
 20
0.0
 11
210.0
 21
297.0
 12
0.0
 22
0.0
 32
0.0
 14
0.0
 24
0.0
 34
0.0
 15
210.0
 25
297.0
 35
0.0
146
0.0
 13
0.0
 23
0.0
 33
0.0
 16
1.0
 26
0.0
 36
0.0
 17
0.0
 27
1.0
 37
0.0
 76
     0
330
1B
331
6A
  0
LAYOUT
  5
26
102
{ACAD_REACTORS
330
1A
102
}
330
1A
100
AcDbPlotSettings
  1

  2
none_device
  4

  6

 40
0.0
 41
0.0
 42
0.0
 43
0.0
 44
0.0
 45
0.0
 46
0.0
 47
0.0
 48
0.0
 49
0.0
140
0.0
141
0.0
142
1.0
143
1.0
 70
   688
 72
     0
 73
     0
 74
     5
  7

 75
    16
 76
     0
 77
     2
 78
   300
147
1.0
148
0.0
149
0.0
100
AcDbLayout
  1
Layout2
 70
     1
 71
     2
 10
0.0
 20
0.0
 11
0.0
 21
0.0
 12
0.0
 22
0.0
 32
0.0
 14
0.0
 24
0.0
 34
0.0
 15
0.0
 25
0.0
 35
0.0
146
0.0
 13
0.0
 23
0.0
 33
0.0
 16
1.0
 26
0.0
 36
0.0
 17
0.0
 27
1.0
 37
0.0
 76
     0
330
23
  0
LAYOUT
  5
22
102
{ACAD_REACTORS
330
1A
102
}
330
1A
100
AcDbPlotSettings
  1

  2
none_device
  4
Letter_(8.50_x_11.00_Inches)
  6

 40
6.35
 41
6.35
 42
6.35000508
 43
6.35000508
 44
215.9
 45
279.4
 46
0.0
 47
0.0
 48
0.0
 49
0.0
140
0.0
141
0.0
142
1.0
143
1.0
 70
  1712
 72
     0
 73
     0
 74
     0
  7

 75
     0
 76
     0
 77
     2
 78
   300
147
1.0
148
0.0
149
0.0
100
AcDbLayout
  1
Model
 70
     1
 71
     0
 10
0.0
 20
0.0
 11
210.0
 21
297.0
 12
0.0
 22
0.0
 32
0.0
 14
41.0
 24
24.0
 34
0.0
 15
403.0
 25
570.0
 35
0.0
146
0.0
 13
0.0
 23
0.0
 33
0.0
 16
1.0
 26
0.0
 36
0.0
 17
0.0
 27
1.0
 37
0.0
 76
     0
330
1F
331
29
  0
MATERIAL
  5
45
102
{ACAD_REACTORS
330
43
102
}
330
43
100
AcDbMaterial
  1
ByBlock
 72
     1
 94
      127
  0
MATERIAL
  5
44
102
{ACAD_REACTORS
330
43
102
}
330
43
100
AcDbMaterial
  1
ByLayer
 72
     1
 94
      127
  0
MATERIAL
  5
46
102
{ACAD_REACTORS
330
43
102
}
330
43
100
AcDbMaterial
  1
Global
 72
     1
 94
      127
  0
MLINESTYLE
  5
18
102
{ACAD_REACTORS
330
17
102
}
330
17
100
AcDbMlineStyle
  2
Standard
 70
     0
  3

 62
   256
 51
90.0
 52
90.0
 71
     2
 49
0.5
 62
   256
  6
BYLAYER
 49
-0.5
 62
   256
  6
BYLAYER
  0
ACDBPLACEHOLDER
  5
F
102
{ACAD_REACTORS
330
E
102
}
330
E
  0
SCALE
  5
48
102
{ACAD_REACTORS
330
47
102
}
330
47
100
AcDbScale
 70
     0
300
1:1
140
1.0
141
1.0
290
     1
  0
SCALE
  5
49
102
{ACAD_REACTORS
330
47
102
}
330
47
100
AcDbScale
 70
     0
300
1:2
140
1.0
141
2.0
290
     0
  0
SCALE
  5
4A
102
{ACAD_REACTORS
330
47
102
}
330
47
100
AcDbScale
 70
     0
300
1:4
140
1.0
141
4.0
290
     0
  0
SCALE
  5
4B
102
{ACAD_REACTORS
330
47
102
}
330
47
100
AcDbScale
 70
     0
300
1:5
140
1.0
141
5.0
290
     0
  0
SCALE
  5
4C
102
{ACAD_REACTORS
330
47
102
}
330
47
100
AcDbScale
 70
     0
300
1:8
140
1.0
141
8.0
290
     0
  0
SCALE
  5
4D
102
{ACAD_REACTORS
330
47
102
}
330
47
100
AcDbScale
 70
     0
300
1:10
140
1.0
141
10.0
290
     0
  0
SCALE
  5
4E
102
{ACAD_REACTORS
330
47
102
}
330
47
100
AcDbScale
 70
     0
300
1:16
140
1.0
141
16.0
290
     0
  0
SCALE
  5
4F
102
{ACAD_REACTORS
330
47
102
}
330
47
100
AcDbScale
 70
     0
300
1:20
140
1.0
141
20.0
290
     0
  0
SCALE
  5
50
102
{ACAD_REACTORS
330
47
102
}
330
47
100
AcDbScale
 70
     0
300
1:30
140
1.0
141
30.0
290
     0
  0
SCALE
  5
51
102
{ACAD_REACTORS
330
47
102
}
330
47
100
AcDbScale
 70
     0
300
1:40
140
1.0
141
40.0
290
     0
  0
SCALE
  5
52
102
{ACAD_REACTORS
330
47
102
}
330
47
100
AcDbScale
 70
     0
300
1:50
140
1.0
141
50.0
290
     0
  0
SCALE
  5
53
102
{ACAD_REACTORS
330
47
102
}
330
47
100
AcDbScale
 70
     0
300
1:100
140
1.0
141
100.0
290
     0
  0
SCALE
  5
54
102
{ACAD_REACTORS
330
47
102
}
330
47
100
AcDbScale
 70
     0
300
2:1
140
2.0
141
1.0
290
     0
  0
SCALE
  5
55
102
{ACAD_REACTORS
330
47
102
}
330
47
100
AcDbScale
 70
     0
300
4:1
140
4.0
141
1.0
290
     0
  0
SCALE
  5
56
102
{ACAD_REACTORS
330
47
102
}
330
47
100
AcDbScale
 70
     0
300
8:1
140
8.0
141
1.0
290
     0
  0
SCALE
  5
57
102
{ACAD_REACTORS
330
47
102
}
330
47
100
AcDbScale
 70
     0
300
10:1
140
10.0
141
1.0
290
     0
  0
SCALE
  5
58
102
{ACAD_REACTORS
330
47
102
}
330
47
100
AcDbScale
 70
     0
300
100:1
140
100.0
141
1.0
290
     0
  0
SCALE
  5
59
102
{ACAD_REACTORS
330
47
102
}
330
47
100
AcDbScale
 70
     0
300
1/128" = 1'-0"
140
0.0078125
141
12.0
290
     0
  0
SCALE
  5
5A
102
{ACAD_REACTORS
330
47
102
}
330
47
100
AcDbScale
 70
     0
300
1/64" = 1'-0"
140
0.015625
141
12.0
290
     0
  0
SCALE
  5
5B
102
{ACAD_REACTORS
330
47
102
}
330
47
100
AcDbScale
 70
     0
300
1/32" = 1'-0"
140
0.03125
141
12.0
290
     0
  0
SCALE
  5
5C
102
{ACAD_REACTORS
330
47
102
}
330
47
100
AcDbScale
 70
     0
300
1/16" = 1'-0"
140
0.0625
141
12.0
290
     0
  0
SCALE
  5
5D
102
{ACAD_REACTORS
330
47
102
}
330
47
100
AcDbScale
 70
     0
300
3/32" = 1'-0"
140
0.09375
141
12.0
290
     0
  0
SCALE
  5
5E
102
{ACAD_REACTORS
330
47
102
}
330
47
100
AcDbScale
 70
     0
300
1/8" = 1'-0"
140
0.125
141
12.0
290
     0
  0
SCALE
  5
5F
102
{ACAD_REACTORS
330
47
102
}
330
47
100
AcDbScale
 70
     0
300
3/16" = 1'-0"
140
0.1875
141
12.0
290
     0
  0
SCALE
  5
60
102
{ACAD_REACTORS
330
47
102
}
330
47
100
AcDbScale
 70
     0
300
1/4" = 1'-0"
140
0.25
141
12.0
290
     0
  0
SCALE
  5
61
102
{ACAD_REACTORS
330
47
102
}
330
47
100
AcDbScale
 70
     0
300
3/8" = 1'-0"
140
0.375
141
12.0
290
     0
  0
SCALE
  5
62
102
{ACAD_REACTORS
330
47
102
}
330
47
100
AcDbScale
 70
     0
300
1/2" = 1'-0"
140
0.5
141
12.0
290
     0
  0
SCALE
  5
63
102
{ACAD_REACTORS
330
47
102
}
330
47
100
AcDbScale
 70
     0
300
3/4" = 1'-0"
140
0.75
141
12.0
290
     0
  0
SCALE
  5
64
102
{ACAD_REACTORS
330
47
102
}
330
47
100
AcDbScale
 70
     0
300
1" = 1'-0"
140
1.0
141
12.0
290
     0
  0
SCALE
  5
65
102
{ACAD_REACTORS
330
47
102
}
330
47
100
AcDbScale
 70
     0
300
1-1/2" = 1'-0"
140
1.5
141
12.0
290
     0
  0
SCALE
  5
66
102
{ACAD_REACTORS
330
47
102
}
330
47
100
AcDbScale
 70
     0
300
3" = 1'-0"
140
3.0
141
12.0
290
     0
  0
SCALE
  5
67
102
{ACAD_REACTORS
330
47
102
}
330
47
100
AcDbScale
 70
     0
300
6" = 1'-0"
140
6.0
141
12.0
290
     0
  0
SCALE
  5
68
102
{ACAD_REACTORS
330
47
102
}
330
47
100
AcDbScale
 70
     0
300
1'-0" = 1'-0"
140
12.0
141
12.0
290
     0
  0
VISUALSTYLE
  5
2F
102
{ACAD_REACTORS
330
2A
102
}
330
2A
100
AcDbVisualStyle
  2
2dWireframe
 70
     4
177
     3
291
     0
 70
    58
 90
        0
176
     1
 90
        2
176
     1
 90
        0
176
     1
 90
        0
176
     1
 40
0.6
176
     1
 40
30.0
176
     1
 62
     7
420
 16777215
176
     1
 90
        1
176
     1
 90
        4
176
     1
 62
     7
176
     1
 62
   257
176
     1
 90
        1
176
     1
 90
        1
176
     1
 40
1.0
176
     1
 90
        0
176
     1
 62
   257
176
     1
 40
1.0
176
     1
 90
        1
176
     1
 90
        6
176
     1
 90
        2
176
     1
 62
     7
176
     1
 90
        5
176
     1
 90
        0
176
     1
 90
        0
176
     1
290
     0
176
     1
 90
        1
176
     1
 40
0.0
176
     1
 90
        0
176
     1
290
     1
176
     1
290
     1
176
     1
290
     0
176
     1
290
     0
176
     1
290
     0
176
     1
290
     0
176
     1
290
     0
176
     1
290
     0
176
     1
290
     0
176
     1
 90
       50
176
     1
 40
0.0
176
     1
 40
1.0
176
     1
 90
        0
176
     1
 62
    18
420
        0
176
     1
 90
       50
176
     1
 90
        3
176
     1
 62
     5
420
      255
176
     1
290
     0
176
     1
 90
       50
176
     1
 90
       50
176
     1
 90
       50
176
     1
290
     0
176
     1
 90
       50
176
     1
 62
   256
176
     0
 40
1.0
176
     0
 90
        2
176
     1
  1
strokes_ogs.tif
176
     1
290
     0
176
     1
 40
1.0
176
     1
 40
1.0
176
     1
  0
VISUALSTYLE
  5
32
102
{ACAD_REACTORS
330
2A
102
}
330
2A
100
AcDbVisualStyle
  2
Basic
 70
     7
177
     3
291
     1
 70
    58
 90
        1
176
     1
 90
        0
176
     1
 90
        1
176
     1
 90
        0
176
     1
 40
0.6
176
     1
 40
30.0
176
     1
 62
     7
420
 16777215
176
     1
 90
        0
176
     1
 90
        4
176
     1
 62
     7
176
     1
 62
   257
176
     1
 90
        1
176
     1
 90
        1
176
     1
 40
1.0
176
     1
 90
        8
176
     1
 62
     7
176
     1
 40
1.0
176
     1
 90
        1
176
     1
 90
        6
176
     1
 90
        2
176
     1
 62
     7
176
     1
 90
        5
176
     1
 90
        0
176
     1
 90
        0
176
     1
290
     0
176
     1
 90
        1
176
     1
 40
0.0
176
     1
 90
        0
176
     1
290
     0
176
     1
290
     1
176
     1
290
     1
176
     1
290
     0
176
     1
290
     0
176
     1
290
     0
176
     1
290
     0
176
     1
290
     0
176
     1
290
     0
176
     1
 90
       50
176
     1
 40
0.0
176
     1
 40
1.0
176
     1
 90
        0
176
     1
 62
    18
420
        0
176
     1
 90
       50
176
     1
 90
        3
176
     1
 62
     5
420
      255
176
     1
290
     0
176
     1
 90
       50
176
     1
 90
       50
176
     1
 90
       50
176
     1
290
     0
176
     1
 90
       50
176
     1
 62
   256
176
     0
 40
1.0
176
     0
 90
        2
176
     1
  1
strokes_ogs.tif
176
     1
290
     0
176
     1
 40
1.0
176
     1
 40
1.0
176
     1
  0
VISUALSTYLE
  5
36
102
{ACAD_REACTORS
330
2A
102
}
330
2A
100
AcDbVisualStyle
  2
Brighten
 70
    12
177
     3
291
     1
 70
    58
 90
        2
176
     1
 90
        2
176
     1
 90
        0
176
     1
 90
        0
176
     1
 40
0.6
176
     1
 40
30.0
176
     1
 62
     7
420
 16777215
176
     1
 90
        1
176
     1
 90
        4
176
     1
 62
     7
176
     1
 62
   257
176
     1
 90
        1
176
     1
 90
        1
176
     1
 40
1.0
176
     1
 90
        8
176
     1
 62
     7
176
     1
 40
1.0
176
     1
 90
        1
176
     1
 90
        6
176
     1
 90
        2
176
     1
 62
     7
176
     1
 90
        5
176
     1
 90
        0
176
     1
 90
        0
176
     1
290
     0
176
     1
 90
        1
176
     1
 40
50.0
176
     1
 90
        0
176
     1
290
     0
176
     1
290
     1
176
     1
290
     1
176
     1
290
     0
176
     1
290
     0
176
     1
290
     0
176
     1
290
     0
176
     1
290
     0
176
     1
290
     0
176
     1
 90
       50
176
     1
 40
0.0
176
     1
 40
1.0
176
     1
 90
        0
176
     1
 62
    18
420
        0
176
     1
 90
       50
176
     1
 90
        3
176
     1
 62
     5
420
      255
176
     1
290
     0
176
     1
 90
       50
176
     1
 90
       50
176
     1
 90
       50
176
     1
290
     0
176
     1
 90
       50
176
     1
 62
   256
176
     0
 40
1.0
176
     0
 90
        2
176
     1
  1
strokes_ogs.tif
176
     1
290
     0
176
     1
 40
1.0
176
     1
 40
1.0
176
     1
  0
VISUALSTYLE
  5
3A
102
{ACAD_REACTORS
330
2A
102
}
330
2A
100
AcDbVisualStyle
  2
ColorChange
 70
    16
177
     3
291
     1
 70
    58
 90
        2
176
     1
 90
        2
176
     1
 90
        3
176
     1
 90
        0
176
     1
 40
0.6
176
     1
 40
30.0
176
     1
 62
     8
420
  8421504
176
     1
 90
        1
176
     1
 90
        4
176
     1
 62
     7
176
     1
 62
   257
176
     1
 90
        1
176
     1
 90
        1
176
     1
 40
1.0
176
     1
 90
        8
176
     1
 62
     8
420
  8421504
176
     1
 40
1.0
176
     1
 90
        1
176
     1
 90
        6
176
     1
 90
        2
176
     1
 62
     7
176
     1
 90
        5
176
     1
 90
        0
176
     1
 90
        0
176
     1
290
     0
176
     1
 90
        1
176
     1
 40
0.0
176
     1
 90
        0
176
     1
290
     0
176
     1
290
     1
176
     1
290
     1
176
     1
290
     0
176
     1
290
     0
176
     1
290
     0
176
     1
290
     0
176
     1
290
     0
176
     1
290
     0
176
     1
 90
       50
176
     1
 40
0.0
176
     1
 40
1.0
176
     1
 90
        0
176
     1
 62
    18
420
        0
176
     1
 90
       50
176
     1
 90
        3
176
     1
 62
     5
420
      255
176
     1
290
     0
176
     1
 90
       50
176
     1
 90
       50
176
     1
 90
       50
176
     1
290
     0
176
     1
 90
       50
176
     1
 62
   256
176
     0
 40
1.0
176
     0
 90
        2
176
     1
  1
strokes_ogs.tif
176
     1
290
     0
176
     1
 40
1.0
176
     1
 40
1.0
176
     1
  0
VISUALSTYLE
  5
34
102
{ACAD_REACTORS
330
2A
102
}
330
2A
100
AcDbVisualStyle
  2
Conceptual
 70
     9
177
     3
291
     0
 70
    58
 90
        3
176
     1
 90
        2
176
     1
 90
        0
176
     1
 90
        0
176
     1
 40
0.6
176
     1
 40
30.0
176
     1
 62
     7
420
 16777215
176
     1
 90
        2
176
     1
 90
        2
176
     1
 62
     7
176
     1
 62
   257
176
     1
 90
        1
176
     1
 90
        1
176
     1
 40
179.0
176
     1
 90
        8
176
     1
 62
     7
176
     1
 40
1.0
176
     1
 90
        1
176
     1
 90
        6
176
     1
 90
        2
176
     1
 62
     7
176
     1
 90
        3
176
     1
 90
        0
176
     1
 90
        0
176
     1
290
     0
176
     1
 90
        1
176
     1
 40
0.0
176
     1
 90
        0
176
     1
290
     0
176
     1
290
     1
176
     1
290
     1
176
     1
290
     0
176
     1
290
     0
176
     1
290
     0
176
     1
290
     0
176
     1
290
     0
176
     1
290
     0
176
     1
 90
       50
176
     1
 40
0.0
176
     1
 40
1.0
176
     1
 90
        0
176
     1
 62
    18
420
        0
176
     1
 90
       50
176
     1
 90
        3
176
     1
 62
     5
420
      255
176
     1
290
     0
176
     1
 90
       50
176
     1
 90
       50
176
     1
 90
       50
176
     1
290
     0
176
     1
 90
       50
176
     1
 62
   256
176
     0
 40
1.0
176
     0
 90
        2
176
     1
  1
strokes_ogs.tif
176
     1
290
     0
176
     1
 40
1.0
176
     1
 40
1.0
176
     1
  0
VISUALSTYLE
  5
35
102
{ACAD_REACTORS
330
2A
102
}
330
2A
100
AcDbVisualStyle
  2
Dim
 70
    11
177
     3
291
     1
 70
    58
 90
        2
176
     1
 90
        2
176
     1
 90
        0
176
     1
 90
        0
176
     1
 40
0.6
176
     1
 40
30.0
176
     1
 62
     7
420
 16777215
176
     1
 90
        1
176
     1
 90
        4
176
     1
 62
     7
176
     1
 62
   257
176
     1
 90
        1
176
     1
 90
        1
176
     1
 40
1.0
176
     1
 90
        8
176
     1
 62
     7
176
     1
 40
1.0
176
     1
 90
        1
176
     1
 90
        6
176
     1
 90
        2
176
     1
 62
     7
176
     1
 90
        5
176
     1
 90
        0
176
     1
 90
        0
176
     1
290
     0
176
     1
 90
        1
176
     1
 40
-50.0
176
     1
 90
        0
176
     1
290
     0
176
     1
290
     1
176
     1
290
     1
176
     1
290
     0
176
     1
290
     0
176
     1
290
     0
176
     1
290
     0
176
     1
290
     0
176
     1
290
     0
176
     1
 90
       50
176
     1
 40
0.0
176
     1
 40
1.0
176
     1
 90
        0
176
     1
 62
    18
420
        0
176
     1
 90
       50
176
     1
 90
        3
176
     1
 62
     5
420
      255
176
     1
290
     0
176
     1
 90
       50
176
     1
 90
       50
176
     1
 90
       50
176
     1
290
     0
176
     1
 90
       50
176
     1
 62
   256
176
     0
 40
1.0
176
     0
 90
        2
176
     1
  1
strokes_ogs.tif
176
     1
290
     0
176
     1
 40
1.0
176
     1
 40
1.0
176
     1
  0
VISUALSTYLE
  5
3D
102
{ACAD_REACTORS
330
2A
102
}
330
2A
100
AcDbVisualStyle
  2
EdgeColorOff
 70
    22
177
     3
291
     1
 70
    58
 90
        2
176
     0
 90
        2
176
     0
 90
        0
176
     0
 90
        0
176
     0
 40
0.6
176
     0
 40
30.0
176
     0
 62
     7
420
 16777215
176
     0
 90
        1
176
     0
 90
        4
176
     0
 62
     7
176
     0
 62
   257
176
     0
 90
        1
176
     0
 90
        1
176
     0
 40
1.0
176
     0
 90
        8
176
     2
 62
     7
176
     0
 40
1.0
176
     0
 90
        1
176
     0
 90
        6
176
     0
 90
        2
176
     0
 62
     7
176
     0
 90
        5
176
     0
 90
        0
176
     0
 90
        0
176
     0
290
     0
176
     0
 90
        1
176
     0
 40
0.0
176
     0
 90
        0
176
     0
290
     0
176
     0
290
     1
176
     0
290
     1
176
     0
290
     0
176
     0
290
     0
176
     0
290
     0
176
     0
290
     0
176
     0
290
     0
176
     0
290
     0
176
     0
 90
       50
176
     0
 40
0.0
176
     0
 40
1.0
176
     0
 90
        0
176
     0
 62
    18
420
        0
176
     0
 90
       50
176
     0
 90
        3
176
     0
 62
     5
420
      255
176
     0
290
     0
176
     0
 90
       50
176
     0
 90
       50
176
     0
 90
       50
176
     0
290
     0
176
     0
 90
       50
176
     0
 62
   256
176
     0
 40
1.0
176
     0
 90
        2
176
     0
  1
strokes_ogs.tif
176
     0
290
     0
176
     0
 40
1.0
176
     0
 40
1.0
176
     0
  0
VISUALSTYLE
  5
39
102
{ACAD_REACTORS
330
2A
102
}
330
2A
100
AcDbVisualStyle
  2
Facepattern
 70
    15
177
     3
291
     1
 70
    58
 90
        2
176
     1
 90
        2
176
     1
 90
        0
176
     1
 90
        0
176
     1
 40
0.6
176
     1
 40
30.0
176
     1
 62
     7
420
 16777215
176
     1
 90
        1
176
     1
 90
        4
176
     1
 62
     7
176
     1
 62
   257
176
     1
 90
        1
176
     1
 90
        1
176
     1
 40
1.0
176
     1
 90
        8
176
     1
 62
     7
176
     1
 40
1.0
176
     1
 90
        1
176
     1
 90
        6
176
     1
 90
        2
176
     1
 62
     7
176
     1
 90
        5
176
     1
 90
        0
176
     1
 90
        0
176
     1
290
     0
176
     1
 90
        1
176
     1
 40
0.0
176
     1
 90
        0
176
     1
290
     0
176
     1
290
     1
176
     1
290
     1
176
     1
290
     0
176
     1
290
     0
176
     1
290
     0
176
     1
290
     0
176
     1
290
     0
176
     1
290
     0
176
     1
 90
       50
176
     1
 40
0.0
176
     1
 40
1.0
176
     1
 90
        0
176
     1
 62
    18
420
        0
176
     1
 90
       50
176
     1
 90
        3
176
     1
 62
     5
420
      255
176
     1
290
     0
176
     1
 90
       50
176
     1
 90
       50
176
     1
 90
       50
176
     1
290
     0
176
     1
 90
       50
176
     1
 62
   256
176
     0
 40
1.0
176
     0
 90
        2
176
     1
  1
strokes_ogs.tif
176
     1
290
     0
176
     1
 40
1.0
176
     1
 40
1.0
176
     1
  0
VISUALSTYLE
  5
2B
102
{ACAD_REACTORS
330
2A
102
}
330
2A
100
AcDbVisualStyle
  2
Flat
 70
     0
177
     3
291
     1
 70
    58
 90
        2
176
     1
 90
        1
176
     1
 90
        1
176
     1
 90
        2
176
     1
 40
0.6
176
     1
 40
30.0
176
     1
 62
     7
420
 16777215
176
     1
 90
        0
176
     1
 90
        0
176
     1
 62
     7
176
     1
 62
   257
176
     1
 90
        1
176
     1
 90
        1
176
     1
 40
1.0
176
     1
 90
        8
176
     1
 62
     7
176
     1
 40
1.0
176
     1
 90
        1
176
     1
 90
        6
176
     1
 90
        2
176
     1
 62
     7
176
     1
 90
        5
176
     1
 90
        0
176
     1
 90
        0
176
     1
290
     0
176
     1
 90
       13
176
     1
 40
0.0
176
     1
 90
        0
176
     1
290
     0
176
     1
290
     1
176
     1
290
     1
176
     1
290
     0
176
     1
290
     0
176
     1
290
     0
176
     1
290
     0
176
     1
290
     0
176
     1
290
     0
176
     1
 90
       50
176
     1
 40
0.0
176
     1
 40
1.0
176
     1
 90
        0
176
     1
 62
    18
420
        0
176
     1
 90
       50
176
     1
 90
        3
176
     1
 62
     5
420
      255
176
     1
290
     0
176
     1
 90
       50
176
     1
 90
       50
176
     1
 90
       50
176
     1
290
     0
176
     1
 90
       50
176
     1
 62
   256
176
     0
 40
1.0
176
     0
 90
        2
176
     1
  1
strokes_ogs.tif
176
     1
290
     0
176
     1
 40
1.0
176
     1
 40
1.0
176
     1
  0
VISUALSTYLE
  5
2C
102
{ACAD_REACTORS
330
2A
102
}
330
2A
100
AcDbVisualStyle
  2
FlatWithEdges
 70
     1
177
     3
291
     1
 70
    58
 90
        2
176
     1
 90
        1
176
     1
 90
        1
176
     1
 90
        2
176
     1
 40
0.6
176
     1
 40
30.0
176
     1
 62
     7
420
 16777215
176
     1
 90
        1
176
     1
 90
        0
176
     1
 62
     7
176
     1
 62
   257
176
     1
 90
        1
176
     1
 90
        1
176
     1
 40
1.0
176
     1
 90
        0
176
     1
 62
   257
176
     1
 40
1.0
176
     1
 90
        1
176
     1
 90
        6
176
     1
 90
        2
176
     1
 62
     7
176
     1
 90
        5
176
     1
 90
        0
176
     1
 90
        0
176
     1
290
     0
176
     1
 90
       13
176
     1
 40
0.0
176
     1
 90
        0
176
     1
290
     0
176
     1
290
     1
176
     1
290
     1
176
     1
290
     0
176
     1
290
     0
176
     1
290
     0
176
     1
290
     0
176
     1
290
     0
176
     1
290
     0
176
     1
 90
       50
176
     1
 40
0.0
176
     1
 40
1.0
176
     1
 90
        0
176
     1
 62
    18
420
        0
176
     1
 90
       50
176
     1
 90
        3
176
     1
 62
     5
420
      255
176
     1
290
     0
176
     1
 90
       50
176
     1
 90
       50
176
     1
 90
       50
176
     1
290
     0
176
     1
 90
       50
176
     1
 62
   256
176
     0
 40
1.0
176
     0
 90
        2
176
     1
  1
strokes_ogs.tif
176
     1
290
     0
176
     1
 40
1.0
176
     1
 40
1.0
176
     1
  0
VISUALSTYLE
  5
2D
102
{ACAD_REACTORS
330
2A
102
}
330
2A
100
AcDbVisualStyle
  2
Gouraud
 70
     2
177
     3
291
     1
 70
    58
 90
        2
176
     1
 90
        2
176
     1
 90
        1
176
     1
 90
        2
176
     1
 40
0.6
176
     1
 40
30.0
176
     1
 62
     7
420
 16777215
176
     1
 90
        0
176
     1
 90
        0
176
     1
 62
     7
176
     1
 62
   257
176
     1
 90
        1
176
     1
 90
        1
176
     1
 40
1.0
176
     1
 90
        0
176
     1
 62
     7
176
     1
 40
1.0
176
     1
 90
        1
176
     1
 90
        6
176
     1
 90
        2
176
     1
 62
     7
176
     1
 90
        5
176
     1
 90
        0
176
     1
 90
        0
176
     1
290
     0
176
     1
 90
       13
176
     1
 40
0.0
176
     1
 90
        0
176
     1
290
     0
176
     1
290
     1
176
     1
290
     1
176
     1
290
     0
176
     1
290
     0
176
     1
290
     0
176
     1
290
     0
176
     1
290
     0
176
     1
290
     0
176
     1
 90
       50
176
     1
 40
0.0
176
     1
 40
1.0
176
     1
 90
        0
176
     1
 62
    18
420
        0
176
     1
 90
       50
176
     1
 90
        3
176
     1
 62
     5
420
      255
176
     1
290
     0
176
     1
 90
       50
176
     1
 90
       50
176
     1
 90
       50
176
     1
290
     0
176
     1
 90
       50
176
     1
 62
   256
176
     0
 40
1.0
176
     0
 90
        2
176
     1
  1
strokes_ogs.tif
176
     1
290
     0
176
     1
 40
1.0
176
     1
 40
1.0
176
     1
  0
VISUALSTYLE
  5
2E
102
{ACAD_REACTORS
330
2A
102
}
330
2A
100
AcDbVisualStyle
  2
GouraudWithEdges
 70
     3
177
     3
291
     1
 70
    58
 90
        2
176
     1
 90
        2
176
     1
 90
        1
176
     1
 90
        2
176
     1
 40
0.6
176
     1
 40
30.0
176
     1
 62
     7
420
 16777215
176
     1
 90
        1
176
     1
 90
        0
176
     1
 62
     7
176
     1
 62
   257
176
     1
 90
        1
176
     1
 90
        1
176
     1
 40
1.0
176
     1
 90
        0
176
     1
 62
   257
176
     1
 40
1.0
176
     1
 90
        1
176
     1
 90
        6
176
     1
 90
        2
176
     1
 62
     7
176
     1
 90
        5
176
     1
 90
        0
176
     1
 90
        0
176
     1
290
     0
176
     1
 90
       13
176
     1
 40
0.0
176
     1
 90
        0
176
     1
290
     0
176
     1
290
     1
176
     1
290
     1
176
     1
290
     0
176
     1
290
     0
176
     1
290
     0
176
     1
290
     0
176
     1
290
     0
176
     1
290
     0
176
     1
 90
       50
176
     1
 40
0.0
176
     1
 40
1.0
176
     1
 90
        0
176
     1
 62
    18
420
        0
176
     1
 90
       50
176
     1
 90
        3
176
     1
 62
     5
420
      255
176
     1
290
     0
176
     1
 90
       50
176
     1
 90
       50
176
     1
 90
       50
176
     1
290
     0
176
     1
 90
       50
176
     1
 62
   256
176
     0
 40
1.0
176
     0
 90
        2
176
     1
  1
strokes_ogs.tif
176
     1
290
     0
176
     1
 40
1.0
176
     1
 40
1.0
176
     1
  0
VISUALSTYLE
  5
31
102
{ACAD_REACTORS
330
2A
102
}
330
2A
100
AcDbVisualStyle
  2
Hidden
 70
     6
177
     3
291
     0
 70
    58
 90
        1
176
     1
 90
        2
176
     1
 90
        2
176
     1
 90
        0
176
     1
 40
0.6
176
     1
 40
30.0
176
     1
 62
     7
420
 16777215
176
     1
 90
        2
176
     1
 90
        2
176
     1
 62
     7
176
     1
 62
   257
176
     1
 90
        2
176
     1
 90
        1
176
     1
 40
40.0
176
     1
 90
        0
176
     1
 62
   257
176
     1
 40
1.0
176
     1
 90
        1
176
     1
 90
        6
176
     1
 90
        2
176
     1
 62
     7
176
     1
 90
        3
176
     1
 90
        0
176
     1
 90
        0
176
     1
290
     0
176
     1
 90
        1
176
     1
 40
0.0
176
     1
 90
        0
176
     1
290
     0
176
     1
290
     1
176
     1
290
     1
176
     1
290
     0
176
     1
290
     0
176
     1
290
     0
176
     1
290
     0
176
     1
290
     0
176
     1
290
     0
176
     1
 90
       50
176
     1
 40
0.0
176
     1
 40
1.0
176
     1
 90
        0
176
     1
 62
    18
420
        0
176
     1
 90
       50
176
     1
 90
        3
176
     1
 62
     5
420
      255
176
     1
290
     0
176
     1
 90
       50
176
     1
 90
       50
176
     1
 90
       50
176
     1
290
     0
176
     1
 90
       50
176
     1
 62
   256
176
     0
 40
1.0
176
     0
 90
        2
176
     1
  1
strokes_ogs.tif
176
     1
290
     0
176
     1
 40
1.0
176
     1
 40
1.0
176
     1
  0
VISUALSTYLE
  5
3B
102
{ACAD_REACTORS
330
2A
102
}
330
2A
100
AcDbVisualStyle
  2
JitterOff
 70
    20
177
     3
291
     1
 70
    58
 90
        2
176
     0
 90
        2
176
     0
 90
        0
176
     0
 90
        0
176
     0
 40
0.6
176
     0
 40
30.0
176
     0
 62
     7
420
 16777215
176
     0
 90
        1
176
     0
 90
        4
176
     0
 62
     7
176
     0
 62
   257
176
     0
 90
        1
176
     0
 90
        1
176
     0
 40
1.0
176
     0
 90
       10
176
     2
 62
     7
176
     0
 40
1.0
176
     0
 90
        1
176
     0
 90
        6
176
     0
 90
        2
176
     0
 62
     7
176
     0
 90
        5
176
     0
 90
        0
176
     0
 90
        0
176
     0
290
     0
176
     0
 90
        1
176
     0
 40
0.0
176
     0
 90
        0
176
     0
290
     0
176
     0
290
     1
176
     0
290
     1
176
     0
290
     0
176
     0
290
     0
176
     0
290
     0
176
     0
290
     0
176
     0
290
     0
176
     0
290
     0
176
     0
 90
       50
176
     0
 40
0.0
176
     0
 40
1.0
176
     0
 90
        0
176
     0
 62
    18
420
        0
176
     0
 90
       50
176
     0
 90
        3
176
     0
 62
     5
420
      255
176
     0
290
     0
176
     0
 90
       50
176
     0
 90
       50
176
     0
 90
       50
176
     0
290
     0
176
     0
 90
       50
176
     0
 62
   256
176
     0
 40
1.0
176
     0
 90
        2
176
     0
  1
strokes_ogs.tif
176
     0
290
     0
176
     0
 40
1.0
176
     0
 40
1.0
176
     0
  0
VISUALSTYLE
  5
38
102
{ACAD_REACTORS
330
2A
102
}
330
2A
100
AcDbVisualStyle
  2
Linepattern
 70
    14
177
     3
291
     1
 70
    58
 90
        2
176
     1
 90
        2
176
     1
 90
        0
176
     1
 90
        0
176
     1
 40
0.6
176
     1
 40
30.0
176
     1
 62
     7
420
 16777215
176
     1
 90
        1
176
     1
 90
        4
176
     1
 62
     7
176
     1
 62
   257
176
     1
 90
        7
176
     1
 90
        7
176
     1
 40
1.0
176
     1
 90
        8
176
     1
 62
     7
176
     1
 40
1.0
176
     1
 90
        1
176
     1
 90
        6
176
     1
 90
        2
176
     1
 62
     7
176
     1
 90
        5
176
     1
 90
        0
176
     1
 90
        0
176
     1
290
     0
176
     1
 90
        1
176
     1
 40
0.0
176
     1
 90
        0
176
     1
290
     0
176
     1
290
     1
176
     1
290
     1
176
     1
290
     0
176
     1
290
     0
176
     1
290
     0
176
     1
290
     0
176
     1
290
     0
176
     1
290
     0
176
     1
 90
       50
176
     1
 40
0.0
176
     1
 40
1.0
176
     1
 90
        0
176
     1
 62
    18
420
        0
176
     1
 90
       50
176
     1
 90
        3
176
     1
 62
     5
420
      255
176
     1
290
     0
176
     1
 90
       50
176
     1
 90
       50
176
     1
 90
       50
176
     1
290
     0
176
     1
 90
       50
176
     1
 62
   256
176
     0
 40
1.0
176
     0
 90
        2
176
     1
  1
strokes_ogs.tif
176
     1
290
     0
176
     1
 40
1.0
176
     1
 40
1.0
176
     1
  0
VISUALSTYLE
  5
3C
102
{ACAD_REACTORS
330
2A
102
}
330
2A
100
AcDbVisualStyle
  2
OverhangOff
 70
    21
177
     3
291
     1
 70
    58
 90
        2
176
     0
 90
        2
176
     0
 90
        0
176
     0
 90
        0
176
     0
 40
0.6
176
     0
 40
30.0
176
     0
 62
     7
420
 16777215
176
     0
 90
        1
176
     0
 90
        4
176
     0
 62
     7
176
     0
 62
   257
176
     0
 90
        1
176
     0
 90
        1
176
     0
 40
1.0
176
     0
 90
        9
176
     2
 62
     7
176
     0
 40
1.0
176
     0
 90
        1
176
     0
 90
        6
176
     0
 90
        2
176
     0
 62
     7
176
     0
 90
        5
176
     0
 90
        0
176
     0
 90
        0
176
     0
290
     0
176
     0
 90
        1
176
     0
 40
0.0
176
     0
 90
        0
176
     0
290
     0
176
     0
290
     1
176
     0
290
     1
176
     0
290
     0
176
     0
290
     0
176
     0
290
     0
176
     0
290
     0
176
     0
290
     0
176
     0
290
     0
176
     0
 90
       50
176
     0
 40
0.0
176
     0
 40
1.0
176
     0
 90
        0
176
     0
 62
    18
420
        0
176
     0
 90
       50
176
     0
 90
        3
176
     0
 62
     5
420
      255
176
     0
290
     0
176
     0
 90
       50
176
     0
 90
       50
176
     0
 90
       50
176
     0
290
     0
176
     0
 90
       50
176
     0
 62
   256
176
     0
 40
1.0
176
     0
 90
        2
176
     0
  1
strokes_ogs.tif
176
     0
290
     0
176
     0
 40
1.0
176
     0
 40
1.0
176
     0
  0
VISUALSTYLE
  5
33
102
{ACAD_REACTORS
330
2A
102
}
330
2A
100
AcDbVisualStyle
  2
Realistic
 70
     8
177
     3
291
     0
 70
    58
 90
        2
176
     1
 90
        3
176
     1
 90
        0
176
     1
 90
        2
176
     1
 40
0.6
176
     1
 40
30.0
176
     1
 62
     7
420
 16777215
176
     1
 90
        0
176
     1
 90
        0
176
     1
 62
     7
176
     1
 62
   257
176
     1
 90
        1
176
     1
 90
        1
176
     1
 40
1.0
176
     1
 90
        8
176
     1
 62
   257
176
     1
 40
1.0
176
     1
 90
        1
176
     1
 90
        6
176
     1
 90
        2
176
     1
 62
     7
176
     1
 90
        3
176
     1
 90
        0
176
     1
 90
        0
176
     1
290
     0
176
     1
 90
       13
176
     1
 40
0.0
176
     1
 90
        0
176
     1
290
     0
176
     1
290
     1
176
     1
290
     1
176
     1
290
     0
176
     1
290
     0
176
     1
290
     0
176
     1
290
     0
176
     1
290
     0
176
     1
290
     0
176
     1
 90
       50
176
     1
 40
0.0
176
     1
 40
1.0
176
     1
 90
        0
176
     1
 62
    18
420
        0
176
     1
 90
       50
176
     1
 90
        3
176
     1
 62
     5
420
      255
176
     1
290
     0
176
     1
 90
       50
176
     1
 90
       50
176
     1
 90
       50
176
     1
290
     0
176
     1
 90
       50
176
     1
 62
   256
176
     0
 40
1.0
176
     0
 90
        2
176
     1
  1
strokes_ogs.tif
176
     1
290
     0
176
     1
 40
1.0
176
     1
 40
1.0
176
     1
  0
VISUALSTYLE
  5
42
102
{ACAD_REACTORS
330
2A
102
}
330
2A
100
AcDbVisualStyle
  2
Shaded
 70
    27
177
     3
291
     0
 70
    58
 90
        2
176
     1
 90
        2
176
     1
 90
        1
176
     1
 90
        2
176
     1
 40
0.6
176
     1
 40
30.0
176
     1
 62
     7
420
 16777215
176
     1
 90
        0
176
     1
 90
        4
176
     1
 62
     7
176
     1
 62
   257
176
     1
 90
        1
176
     1
 90
        1
176
     1
 40
1.0
176
     1
 90
        8
176
     1
 62
   257
176
     1
 40
1.0
176
     1
 90
        1
176
     1
 90
        6
176
     1
 90
        2
176
     1
 62
     8
420
  7895160
176
     1
 90
        3
176
     1
 90
        0
176
     1
 90
        0
176
     1
290
     0
176
     1
 90
        5
176
     1
 40
0.0
176
     1
 90
        0
176
     1
290
     0
176
     1
290
     1
176
     1
290
     1
176
     1
290
     0
176
     1
290
     0
176
     1
290
     0
176
     1
290
     0
176
     1
290
     0
176
     1
290
     0
176
     1
 90
       50
176
     1
 40
0.0
176
     1
 40
1.0
176
     1
 90
        0
176
     1
 62
    18
420
        0
176
     1
 90
       50
176
     1
 90
        3
176
     1
 62
     5
420
      255
176
     1
290
     0
176
     1
 90
       50
176
     1
 90
       50
176
     1
 90
       50
176
     1
290
     0
176
     1
 90
       50
176
     1
 62
   256
176
     0
 40
1.0
176
     0
 90
        2
176
     1
  1
strokes_ogs.tif
176
     1
290
     0
176
     1
 40
1.0
176
     1
 40
1.0
176
     1
  0
VISUALSTYLE
  5
41
102
{ACAD_REACTORS
330
2A
102
}
330
2A
100
AcDbVisualStyle
  2
Shaded with edges
 70
    26
177
     3
291
     0
 70
    58
 90
        2
176
     1
 90
        2
176
     1
 90
        1
176
     1
 90
        2
176
     1
 40
0.6
176
     1
 40
30.0
176
     1
 62
     7
420
 16777215
176
     1
 90
        1
176
     1
 90
       10
176
     1
 62
     7
176
     1
 62
   257
176
     1
 90
        2
176
     1
 90
        1
176
     1
 40
1.0
176
     1
 90
        8
176
     1
 62
   257
176
     1
 40
1.0
176
     1
 90
        1
176
     1
 90
        6
176
     1
 90
        2
176
     1
 62
     7
176
     1
 90
        3
176
     1
 90
        0
176
     1
 90
        0
176
     1
290
     0
176
     1
 90
        5
176
     1
 40
0.0
176
     1
 90
        0
176
     1
290
     0
176
     1
290
     1
176
     1
290
     1
176
     1
290
     0
176
     1
290
     0
176
     1
290
     0
176
     1
290
     0
176
     1
290
     0
176
     1
290
     0
176
     1
 90
       50
176
     1
 40
0.0
176
     1
 40
1.0
176
     1
 90
        0
176
     1
 62
    18
420
        0
176
     1
 90
       50
176
     1
 90
        3
176
     1
 62
     5
420
      255
176
     1
290
     0
176
     1
 90
       50
176
     1
 90
       50
176
     1
 90
       50
176
     1
290
     0
176
     1
 90
       50
176
     1
 62
   256
176
     0
 40
1.0
176
     0
 90
        2
176
     1
  1
strokes_ogs.tif
176
     1
290
     0
176
     1
 40
1.0
176
     1
 40
1.0
176
     1
  0
VISUALSTYLE
  5
3E
102
{ACAD_REACTORS
330
2A
102
}
330
2A
100
AcDbVisualStyle
  2
Shades of Gray
 70
    23
177
     3
291
     0
 70
    58
 90
        2
176
     1
 90
        2
176
     1
 90
        3
176
     1
 90
        0
176
     1
 40
0.6
176
     1
 40
30.0
176
     1
 62
     7
420
 16777215
176
     1
 90
        2
176
     1
 90
        2
176
     1
 62
     7
176
     1
 62
     7
176
     1
 90
        1
176
     1
 90
        1
176
     1
 40
40.0
176
     1
 90
        8
176
     1
 62
     7
176
     1
 40
1.0
176
     1
 90
        1
176
     1
 90
        6
176
     1
 90
        2
176
     1
 62
     7
176
     1
 90
        3
176
     1
 90
        0
176
     1
 90
        0
176
     1
290
     0
176
     1
 90
        1
176
     1
 40
0.0
176
     1
 90
        0
176
     1
290
     0
176
     1
290
     1
176
     1
290
     1
176
     1
290
     0
176
     1
290
     0
176
     1
290
     0
176
     1
290
     0
176
     1
290
     0
176
     1
290
     0
176
     1
 90
       50
176
     1
 40
0.0
176
     1
 40
1.0
176
     1
 90
        0
176
     1
 62
    18
420
        0
176
     1
 90
       50
176
     1
 90
        3
176
     1
 62
     5
420
      255
176
     1
290
     0
176
     1
 90
       50
176
     1
 90
       50
176
     1
 90
       50
176
     1
290
     0
176
     1
 90
       50
176
     1
 62
   256
176
     0
 40
1.0
176
     0
 90
        2
176
     1
  1
strokes_ogs.tif
176
     1
290
     0
176
     1
 40
1.0
176
     1
 40
1.0
176
     1
  0
VISUALSTYLE
  5
3F
102
{ACAD_REACTORS
330
2A
102
}
330
2A
100
AcDbVisualStyle
  2
Sketchy
 70
    24
177
     3
291
     0
 70
    58
 90
        1
176
     1
 90
        2
176
     1
 90
        2
176
     1
 90
        0
176
     1
 40
0.6
176
     1
 40
30.0
176
     1
 62
     7
420
 16777215
176
     1
 90
        2
176
     1
 90
        2
176
     1
 62
     7
176
     1
 62
     7
176
     1
 90
        1
176
     1
 90
        1
176
     1
 40
40.0
176
     1
 90
       11
176
     1
 62
     7
176
     1
 40
1.0
176
     1
 90
        1
176
     1
 90
        6
176
     1
 90
        2
176
     1
 62
     7
176
     1
 90
        6
176
     1
 90
        0
176
     1
 90
        0
176
     1
290
     0
176
     1
 90
        1
176
     1
 40
0.0
176
     1
 90
        0
176
     1
290
     0
176
     1
290
     1
176
     1
290
     1
176
     1
290
     0
176
     1
290
     0
176
     1
290
     0
176
     1
290
     0
176
     1
290
     0
176
     1
290
     0
176
     1
 90
       50
176
     1
 40
0.0
176
     1
 40
1.0
176
     1
 90
        0
176
     1
 62
    18
420
        0
176
     1
 90
       50
176
     1
 90
        3
176
     1
 62
     5
420
      255
176
     1
290
     0
176
     1
 90
       50
176
     1
 90
       50
176
     1
 90
       50
176
     1
290
     0
176
     1
 90
       50
176
     1
 62
   256
176
     0
 40
1.0
176
     0
 90
        2
176
     1
  1
strokes_ogs.tif
176
     1
290
     0
176
     1
 40
1.0
176
     1
 40
1.0
176
     1
  0
VISUALSTYLE
  5
37
102
{ACAD_REACTORS
330
2A
102
}
330
2A
100
AcDbVisualStyle
  2
Thicken
 70
    13
177
     3
291
     1
 70
    58
 90
        2
176
     1
 90
        2
176
     1
 90
        0
176
     1
 90
        0
176
     1
 40
0.6
176
     1
 40
30.0
176
     1
 62
     7
420
 16777215
176
     1
 90
        1
176
     1
 90
        4
176
     1
 62
     7
176
     1
 62
   257
176
     1
 90
        1
176
     1
 90
        1
176
     1
 40
1.0
176
     1
 90
       12
176
     1
 62
     7
176
     1
 40
1.0
176
     1
 90
        1
176
     1
 90
        6
176
     1
 90
        2
176
     1
 62
     7
176
     1
 90
        5
176
     1
 90
        0
176
     1
 90
        0
176
     1
290
     0
176
     1
 90
        1
176
     1
 40
0.0
176
     1
 90
        0
176
     1
290
     0
176
     1
290
     1
176
     1
290
     1
176
     1
290
     0
176
     1
290
     0
176
     1
290
     0
176
     1
290
     0
176
     1
290
     0
176
     1
290
     0
176
     1
 90
       50
176
     1
 40
0.0
176
     1
 40
1.0
176
     1
 90
        0
176
     1
 62
    18
420
        0
176
     1
 90
       50
176
     1
 90
        3
176
     1
 62
     5
420
      255
176
     1
290
     0
176
     1
 90
       50
176
     1
 90
       50
176
     1
 90
       50
176
     1
290
     0
176
     1
 90
       50
176
     1
 62
   256
176
     0
 40
1.0
176
     0
 90
        2
176
     1
  1
strokes_ogs.tif
176
     1
290
     0
176
     1
 40
1.0
176
     1
 40
1.0
176
     1
  0
VISUALSTYLE
  5
30
102
{ACAD_REACTORS
330
2A
102
}
330
2A
100
AcDbVisualStyle
  2
Wireframe
 70
     5
177
     3
291
     0
 70
    58
 90
        0
176
     1
 90
        2
176
     1
 90
        0
176
     1
 90
        0
176
     1
 40
0.6
176
     1
 40
30.0
176
     1
 62
     7
420
 16777215
176
     1
 90
        1
176
     1
 90
        4
176
     1
 62
     7
176
     1
 62
   257
176
     1
 90
        1
176
     1
 90
        1
176
     1
 40
1.0
176
     1
 90
        0
176
     1
 62
   257
176
     1
 40
1.0
176
     1
 90
        1
176
     1
 90
        6
176
     1
 90
        2
176
     1
 62
     7
176
     1
 90
        3
176
     1
 90
        0
176
     1
 90
        0
176
     1
290
     0
176
     1
 90
        1
176
     1
 40
0.0
176
     1
 90
        0
176
     1
290
     0
176
     1
290
     1
176
     1
290
     1
176
     1
290
     0
176
     1
290
     0
176
     1
290
     0
176
     1
290
     0
176
     1
290
     0
176
     1
290
     0
176
     1
 90
       50
176
     1
 40
0.0
176
     1
 40
1.0
176
     1
 90
        0
176
     1
 62
    18
420
        0
176
     1
 90
       50
176
     1
 90
        3
176
     1
 62
     5
420
      255
176
     1
290
     0
176
     1
 90
       50
176
     1
 90
       50
176
     1
 90
       50
176
     1
290
     0
176
     1
 90
       50
176
     1
 62
   256
176
     0
 40
1.0
176
     0
 90
        2
176
     1
  1
strokes_ogs.tif
176
     1
290
     0
176
     1
 40
1.0
176
     1
 40
1.0
176
     1
  0
VISUALSTYLE
  5
40
102
{ACAD_REACTORS
330
2A
102
}
330
2A
100
AcDbVisualStyle
  2
X-Ray
 70
    25
177
     3
291
     0
 70
    58
 90
        2
176
     1
 90
        2
176
     1
 90
        1
176
     1
 90
        1
176
     1
 40
0.5
176
     1
 40
30.0
176
     1
 62
     7
420
 16777215
176
     1
 90
        1
176
     1
 90
        0
176
     1
 62
     7
176
     1
 62
   257
176
     1
 90
        1
176
     1
 90
        1
176
     1
 40
1.0
176
     1
 90
        8
176
     1
 62
     7
176
     1
 40
1.0
176
     1
 90
        1
176
     1
 90
        6
176
     1
 90
        2
176
     1
 62
     7
176
     1
 90
        3
176
     1
 90
        0
176
     1
 90
        0
176
     1
290
     0
176
     1
 90
       13
176
     1
 40
0.0
176
     1
 90
        0
176
     1
290
     0
176
     1
290
     1
176
     1
290
     1
176
     1
290
     0
176
     1
290
     0
176
     1
290
     0
176
     1
290
     0
176
     1
290
     0
176
     1
290
     0
176
     1
 90
       50
176
     1
 40
0.0
176
     1
 40
1.0
176
     1
 90
        0
176
     1
 62
    18
420
        0
176
     1
 90
       50
176
     1
 90
        3
176
     1
 62
     5
420
      255
176
     1
290
     0
176
     1
 90
       50
176
     1
 90
       50
176
     1
 90
       50
176
     1
290
     0
176
     1
 90
       50
176
     1
 62
   256
176
     0
 40
1.0
176
     0
 90
        2
176
     1
  1
strokes_ogs.tif
176
     1
290
     0
176
     1
 40
1.0
176
     1
 40
1.0
176
     1
  0
DICTIONARYVAR
  5
3B0
102
{ACAD_REACTORS
330
3AF
102
}
330
3AF
100
DictionaryVariables
280
     0
  1
1:1
  0
ENDSEC
  0
EOF
